osu file format v5

[General]
AudioFilename: op00.mp3
AudioLeadIn: 0
PreviewTime: -1
Countdown: 1
SampleSet: Normal
StackLeniency: 0.7
Mode: 0
LetterboxInBreaks: 1
EditorDistanceSpacing: 0.800000011920929

[Metadata]
Title:Little Busters!(ecstasy version)
Artist:Rita
Creator:lihokwan
Version:Relaxing
Source:Little Busters! EX
Tags:Little Busters! EX

[Difficulty]
HPDrainRate:4
CircleSize:4
OverallDifficulty:4
SliderMultiplier:1.4
SliderTickRate:1

[Events]
//Background and Video events
0,0,"LB_All.jpg"
//Break Periods
2,137861,138748
2,195477,199741
//Storyboard Layer 0 (Background)
//Storyboard Layer 1 (Failing)
//Storyboard Layer 2 (Passing)
//Storyboard Layer 3 (Foreground)
//Storyboard Sound Samples
//Background Colour Transformations
3,100,163,162,255

[TimingPoints]
1370,397.350993377483,4,1,0,71,1,0
47363,-100,4,2,0,88,0,0
72694,-100,4,1,0,72,0,0
102297,-100,4,2,0,72,0,0
139052,-100,4,1,0,71,0,0
174714,-100,4,2,0,20,0,0
174913,-100,4,2,0,40,0,0
175111,-100,4,2,0,61,0,0
175310,-100,4,1,0,60,0,0
175509,-100,4,1,0,81,0,0

[Colours]
Combo1 : 255,255,23
Combo2 : 255,0,0
Combo3 : 136,0,0
Combo4 : 232,116,0

[HitObjects]
360,104,33754,1,0
248,104,34151,1,0
136,104,34548,1,0
136,104,34747,2,0,B|136:264,1,140,0|8
224,304,35542,2,0,B|288:344|360:304,1,140,0|8
448,248,36336,2,0,B|448:96,2,140,0|8|0
448,248,37330,6,0,B|448:320,2,70,0|8|0
448,248,37926,2,0,B|288:248,1,140,0|8
308,248,38522,1,0
192,248,38919,1,0
248,152,39317,1,0
424,96,40509,5,0
368,96,40707,1,8
312,96,40906,1,0
256,96,41105,2,0,B|104:96,3,140,0|8|0|8
112,208,42694,6,0,B|184:256|248:200,2,140,0|8|0
112,152,43687,5,0
168,152,43886,1,8
224,152,44085,1,0
280,152,44283,2,8,B|384:152,3,70,8|0|8|8
352,264,45277,5,0
296,264,45475,1,8
240,264,45674,1,8
256,192,45873,12,4,47065
360,120,47462,5,0
360,176,47661,1,0
360,232,47860,1,0
360,288,48058,2,0,B|312:328|224:288,1,140
176,256,48654,1,0
136,208,48853,1,0
176,168,49052,1,0
176,168,49250,2,0,B|328:168,1,140
320,112,49846,5,0
320,112,50045,2,0,B|160:112,1,140
180,112,50641,1,0
88,168,51038,5,0
88,224,51237,1,0
88,280,51436,1,0
88,336,51634,2,0,B|240:336,1,140
336,336,52429,1,0
336,96,53820,5,0
280,96,54019,1,0
224,96,54217,1,0
168,96,54416,2,0,B|112:96|112:208|200:200,1,140
224,200,55012,1,0
280,200,55211,1,0
336,200,55409,2,0,B|336:344,1,140
280,344,56005,1,0
224,344,56204,2,0,B|224:200,1,140
224,144,56800,1,0
224,144,56999,1,0
336,144,57396,5,0
336,200,57595,1,0
336,256,57793,2,0,B|336:352,2,70
336,256,58389,1,0
256,192,58588,12,0,59383
384,120,59780,5,8
272,120,60177,1,2
160,120,60575,1,2
216,216,60972,1,2
216,216,61171,1,2
216,328,61568,5,0
272,328,61767,2,0,B|368:328,3,70
392,328,62562,1,0
392,328,62760,2,0,B|392:224,1,70
392,200,63158,5,0
392,200,63356,1,2
280,200,63754,1,2
328,96,64151,1,2
328,96,64350,1,2
160,96,64946,5,0
160,152,65144,1,0
160,208,65343,1,0
160,264,65542,1,0
216,264,65740,1,0
280,264,65939,2,0,B|368:264,1,70
352,152,66535,6,0,B|200:152,1,140,0|8
96,160,67330,2,0,B|48:224|96:296,1,140,0|8
136,320,67926,5,0
136,320,68124,1,0
248,320,68522,1,8
248,320,68720,2,0,B|416:320,1,140
388,320,69317,1,8
392,264,69515,5,0
392,264,69714,2,0,B|392:152,1,105
304,160,70310,1,0
304,160,70509,2,0,B|304:280,1,105
216,264,71105,1,0
216,264,71303,2,0,B|88:264,2,105
216,152,72297,1,0
216,152,72495,1,8
120,96,72893,5,0
120,96,73091,1,0
120,208,73489,1,0
120,208,73687,2,0,B|208:208,1,70
248,208,74085,5,0
248,208,74283,1,0
360,208,74681,1,0
360,208,74879,2,0,B|360:288,1,70
360,336,75277,5,0
360,336,75475,1,0
248,336,75873,2,0,B|248:256,2,70,0|0|0
192,336,76469,5,0
192,336,76668,1,0
192,224,77065,2,0,B|96:224,2,70
192,224,77661,1,0
192,112,78058,5,0
192,112,78257,1,0
192,112,78456,2,0,B|344:112,2,140
136,112,79449,5,0
136,168,79648,1,0
136,224,79846,1,0
136,280,80045,1,0
136,280,80244,2,0,B|288:280,1,140
276,280,80840,1,0
272,112,81436,5,0
272,112,81634,2,0,B|392:200,2,140
232,152,82628,1,0
272,192,82826,1,0
232,232,83025,2,0,B|120:136,1,140
80,104,83621,1,0
80,104,83820,1,0
304,104,84615,5,0
304,104,84813,1,0
304,104,85012,1,0
304,208,85409,1,0
304,208,85608,1,0
304,320,86005,5,0
304,320,86204,1,0
192,320,86601,1,0
192,320,86800,2,0,B|192:248,1,70
192,192,87197,5,0
192,192,87396,2,0,B|264:152|328:200,1,140
323,196,87992,1,0
416,256,88389,5,0
416,256,88588,1,0
416,368,88985,1,0
416,368,89184,2,0,B|328:368,1,70
288,368,89581,5,0
288,256,89979,1,0
288,256,90177,1,0
288,256,90376,2,0,B|272:192|216:160|168:192,2,140
288,312,91369,5,0
232,312,91568,1,0
176,312,91767,1,0
120,312,91966,2,0,B|-40:312,2,140
120,144,93356,5,0
120,144,93555,2,0,B|160:72|240:88,1,140
296,88,94151,1,0
392,144,94548,1,0
400,200,94747,1,0
376,248,94946,1,0
320,280,95144,2,0,B|272:304|224:304|176:272,1,140
136,248,95740,1,0
272,88,96734,6,4,B|312:56|360:48|400:80|408:96,1,140,4|4
440,120,97330,1,4
400,160,97528,2,4,B|360:192|312:200|272:168|264:152,1,140
232,128,98124,1,4
232,128,98323,1,4
176,64,98621,1,4
120,128,98919,1,4
176,224,99317,1,0
176,224,99515,1,0
264,160,99913,6,4,B|216:200|216:256|288:288,1,140
320,296,100509,1,4
368,272,100707,2,4,B|416:232|416:176|344:144,1,140
312,136,101303,1,4
256,192,101502,12,0,103091
