osu file format v5

[General]
AudioFilename: Rita - Little Busters! (Little Jumper Ver.).mp3
AudioLeadIn: 0
PreviewTime: -1
Countdown: 1
SampleSet: Normal
StackLeniency: 0.7
Mode: 0
LetterboxInBreaks: 1
EditorBookmarks: 39231,107576,182079,199761

[Metadata]
Title:Little Busters!(Little Jumper Ver.)
Artist:Rita
Creator:kioukiou
Version:Hard
Source:
Tags:

[Difficulty]
HPDrainRate:7
CircleSize:5
OverallDifficulty:7
SliderMultiplier:1.4
SliderTickRate:2

[Events]
//Background and Video events
0,0,"Little Busters!.png"
//Break Periods
2,98239,106376
2,164795,180879
2,198173,198561
//Storyboard Layer 0 (Background)
//Storyboard Layer 1 (Failing)
//Storyboard Layer 2 (Passing)
//Storyboard Layer 3 (Foreground)
//Storyboard Sound Samples
//Background Colour Transformations
3,100,163,162,255

[TimingPoints]
13800,397.350993377483,4,1,0,100,1
163203,397.350993377483,4,2,0,0,0
182078,397.350993377483,4,2,0,100,0
199760,397.350993377483,4,1,0,100,0

[HitObjects]
256,192,39230,1,0
192,192,39429,1,0
192,128,39627,1,0
256,128,39826,2,0,L|328:128|328:224,2,140
264,192,40819,1,0
264,192,41018,1,0
328,192,41217,2,2,B|416:256|304:320,2,140
296,248,42210,1,0
296,248,42409,2,0,B|240:312|184:224,1,140
120,224,43005,1,0
120,224,43203,1,0
120,224,43402,2,2,B|80:168|160:152|96:80,2,140
240,200,44594,5,0
240,328,44992,1,0
112,328,45389,1,4
112,264,45588,5,0
112,264,45786,1,0
112,264,45985,1,0
112,264,46184,2,0,B|168:192|104:168|176:128,1,140
224,144,46780,1,0
224,144,46978,2,0,B|272:88|208:48|280:16,2,140
264,192,47972,1,0
264,192,48170,2,2,B|230:275|288:320,1,140
352,320,48766,2,2,B|420:267|360:184,1,140
360,136,49362,1,8
296,136,49561,1,8
296,72,49760,2,8,L|168:72|184:112,1,140
176,208,50554,1,2
176,272,50753,5,0
176,336,50952,1,2
176,336,51051,1,2
176,336,51150,1,2
256,192,51548,12,4,52740
400,128,53336,6,0,B|360:80|328:160|248:80,1,140
208,104,53932,1,0
208,168,54131,1,0
144,168,54329,1,0
80,168,54528,2,0,B|48:248|80:320,2,140
80,168,55521,2,0,B|24:96|88:32,2,140
208,168,56713,5,0
272,168,56912,1,0
400,168,57309,1,0
336,168,57508,1,0
336,232,57707,2,0,L|288:320|232:320,2,140
272,224,58700,1,0
144,224,59098,2,0,L|104:264,4,35
144,160,59694,1,0
144,96,59892,5,0
264,48,60290,2,0,B|288:128|200:176,2,140
328,48,61283,1,0
328,48,61382,1,0
328,48,61482,2,2,L|472:48,1,140
464,112,62078,1,0
464,176,62276,2,2,L|312:176,1,140
256,176,62872,1,0
192,176,63071,1,0
192,176,63270,2,2,B|112:152,5,70
152,32,64660,5,0
216,32,64859,1,0
184,88,65058,1,0
184,152,65256,2,2,B|184:328,1,140
248,296,65852,1,0
312,296,66051,1,0
280,240,66250,1,0
280,176,66449,2,2,B|280:32,1,140
344,40,67045,6,0,B|424:40,2,70
344,104,67641,2,2,L|344:256,1,140
408,232,68237,2,0,L|472:232|472:312,1,140
408,304,68833,1,0
344,304,69031,2,2,B|278:362|208:288,1,140
216,176,69826,1,0
216,176,69925,1,0
216,176,70025,1,0
216,176,70124,1,0
216,176,70223,2,2,B|160:232|80:168,2,140
216,112,71217,5,0
216,48,71415,1,0
280,48,71614,1,0
280,112,71813,1,0
336,80,72011,2,0,B|336:232,3,140
336,280,73402,5,0
144,280,73998,1,0
208,280,74197,1,0
176,224,74396,2,0,B|128:184|128:152,3,70
131,170,75190,1,0
184,136,75389,1,0
240,104,75588,2,0,B|240:40,6,35
232,232,76581,5,2
168,232,76780,1,2
200,176,76978,1,2
200,112,77177,2,0,B|200:40,2,70
264,112,77773,1,2
328,112,77972,1,2
392,112,78170,1,2
392,176,78369,2,0,B|304:176,2,70
392,240,78965,6,2,B|320:240,2,70
456,240,79561,2,0,B|456:64,1,140
456,32,80157,2,2,B|288:32,1,140
312,96,80753,1,0
312,160,80952,1,0
184,168,81349,5,0
184,296,81747,1,0
184,296,81846,1,0
184,296,81945,1,0
184,296,82045,1,0
184,296,82144,2,2,B|256:360|336:296,2,140
144,248,83137,6,0,B|144:184|264:192,1,140
320,192,83733,1,0
320,192,83932,2,0,B|392:160|384:72,3,140
320,80,85323,5,0
192,80,85720,1,0
128,80,85919,2,0,B|128:176,3,70
128,216,86713,1,0
192,216,86912,2,2,B|182:320|272:320,3,140
336,224,88501,5,0
216,224,88800,2,0,L|104:224,1,105
112,160,89296,2,0,L|232:160,1,105
336,160,89892,1,0
400,160,90091,2,0,L|400:272,1,105
280,264,90687,1,8
128,264,91084,1,8
192,264,91283,1,8
312,144,91680,5,0
224,72,91978,2,0,L|136:-8,1,105
96,40,92475,1,0
176,120,92773,2,0,L|256:192,1,105
216,240,93270,2,2,L|48:88,1,210
24,152,94064,2,2,L|136:256,1,140
256,192,94859,12,4,98038
96,312,107574,5,0
96,248,107773,1,0
152,280,107972,1,0
152,344,108170,2,0,L|304:344,1,140
296,280,108766,1,0
264,224,108965,1,0
328,224,109164,1,0
296,168,109362,2,0,L|296:16,1,140
232,32,109958,1,0
168,32,110157,2,0,B|112:80|176:184,2,140
104,32,111150,1,0
40,32,111349,2,0,B|72:120|16:192,2,140
104,136,112541,1,8
104,264,112939,1,8
104,200,113137,1,8
216,264,113535,1,2
344,264,113932,5,0
344,200,114131,1,0
288,232,114329,2,0,B|224:184|224:184|280:112,2,140
344,200,115323,1,0
344,264,115521,1,0
400,232,115720,2,0,B|472:272|472:272|424:344,2,140
400,168,116713,1,0
400,104,116912,1,0
336,104,117111,1,0
336,40,117309,2,0,B|176:40,1,140
200,104,117905,1,0
136,104,118104,1,0
136,168,118303,1,0
200,168,118501,2,0,B|368:168,1,140,0|2
336,232,119098,5,0
272,232,119296,1,2
272,232,119396,1,2
272,232,119495,1,2
256,192,119892,12,0,121084
104,280,121680,5,0
104,152,122078,2,0,B|104:48,1,70
168,80,122475,1,0
168,144,122674,2,0,B|168:224,3,70
168,280,123468,1,0
296,280,123866,1,0
424,280,124263,1,4
424,88,124859,5,0
360,88,125058,1,0
296,88,125256,2,0,B|296:168,1,70
232,160,125654,2,0,B|232:256,1,70
168,232,126051,2,2,B|168:376,2,140
104,232,127045,1,0
40,120,127442,2,0,L|40:176,4,35
104,120,128038,1,0
168,120,128237,6,0,B|312:120,3,140
368,120,129627,1,0
368,120,129727,1,0
368,120,129826,1,0
368,216,130124,2,0,B|232:216,1,105
200,216,130621,1,0
200,312,130919,2,0,B|320:312,1,105
368,312,131415,1,0
368,312,131614,2,0,L|440:312|440:232,1,140
440,176,132210,2,0,L|464:136,4,35
368,72,133005,5,2
304,72,133203,1,2
240,72,133402,1,2
176,72,133601,2,0,L|88:152|168:208,1,210,0|2
224,200,134396,1,2
288,200,134594,1,2
352,200,134793,2,0,L|424:280|336:360,1,210,0|2
288,352,135588,5,2
224,352,135786,1,2
160,352,135985,2,0,L|80:264|136:192,1,210,0|2
200,192,136780,1,2
264,192,136978,1,2
328,192,137177,2,0,L|408:112|320:40,1,210,0|2
208,56,138170,5,0
208,56,138270,1,0
208,56,138369,1,0
208,56,138468,1,0
208,56,138568,2,2,B|96:152|120:192,2,140
272,56,139561,1,0
336,56,139760,1,0
304,112,139958,1,0
368,112,140157,1,0
336,168,140356,2,0,B|480:168,3,140
464,232,141747,6,2,B|240:232,1,210
192,232,142541,1,0
128,232,142740,1,0
88,176,142939,1,0
152,176,143137,1,0
120,120,143336,1,2
184,120,143535,1,2
216,176,143733,1,2
152,176,143932,1,2
392,248,144727,6,0,B|392:328,3,70
328,312,145521,2,2,B|168:312,1,140
120,312,146117,1,0
120,248,146316,2,0,B|216:248,1,70
256,248,146713,2,2,L|336:248|336:160,1,140
272,184,147309,5,0
208,184,147508,1,0
240,128,147707,1,0
240,64,147905,2,2,B|128:64|328:64,1,140
360,96,148501,2,0,B|360:24,3,70,0|0|0|0
424,56,149296,2,2,B|424:216,1,140
296,200,150091,1,0
296,200,150190,1,0
296,200,150290,1,0
296,200,150389,1,0
296,200,150488,2,2,B|366:131|272:56,2,140
248,240,151482,6,0,B|184:296,1,70
152,240,151879,2,0,B|224:176,1,70
160,152,152276,2,2,B|32:264,3,140
48,304,153667,1,0
296,304,154462,1,0
360,304,154660,1,0
328,248,154859,1,0
392,248,155058,1,0
360,192,155256,2,2,B|216:192,3,140
136,96,156846,5,0
248,96,157144,2,0,B|360:96,1,105
352,160,157641,1,0
232,160,157939,2,0,B|152:160|112:160,1,105
128,224,158435,1,0
240,224,158733,2,0,B|352:224,1,105
408,224,159230,1,4
408,72,159627,1,4
256,72,160025,5,0
256,184,160323,2,0,B|256:296,1,105
192,288,160819,1,0
192,168,161117,2,0,B|192:104|192:56,1,105,0|0
128,64,161614,2,2,B|128:280,1,210
64,248,162409,2,2,B|64:72,1,140
256,192,163203,12,0,164594
80,64,182078,5,2
80,64,182276,1,2
80,64,182475,1,2
80,64,182674,1,2
80,64,182872,2,4,B|80:216,2,140
144,80,183866,1,2
192,120,184064,2,2,B|320:232,1,140
272,272,184660,2,2,B|88:112,1,210
256,192,185455,12,4,188237
64,96,188634,5,2
64,96,188833,1,2
64,96,189031,1,2
64,96,189230,2,0,B|208:96,1,140
264,96,189826,1,2
264,96,190025,1,2
264,96,190223,1,2
264,96,190422,2,0,B|264:248,1,140
232,288,191018,6,0,B|136:288,2,70
296,288,191614,2,2,B|440:288,1,140
432,224,192210,1,0
432,224,192409,2,0,B|432:152,1,70
432,88,192806,1,2
432,88,193005,1,2
304,88,193402,5,0
304,88,193601,2,0,B|144:88,1,140,0|2
164,88,194197,1,2
88,192,194594,1,2
152,192,194793,1,2
88,192,194992,1,2
152,192,195190,2,0,B|152:336,1,140
216,336,195786,5,2
280,336,195985,1,2
344,336,196184,1,2
312,280,196382,2,0,B|240:280,2,70
280,224,196978,1,0
248,168,197177,1,0
312,168,197376,1,0
352,120,197574,2,2,B|176:120,1,140
96,304,199760,5,2
160,304,199958,1,2
128,248,200157,1,2
192,248,200356,2,0,B|336:248,1,140
328,184,200952,1,2
392,184,201150,1,2
360,128,201349,1,2
296,128,201548,2,0,B|152:128,1,140
96,128,202144,6,2,B|96:40,2,70
96,192,202740,1,0
96,192,202939,1,0
96,320,203336,2,2,B|16:320,2,70
96,256,203932,1,0
96,256,204131,1,0
256,192,204528,12,4,205919
408,64,206316,5,0
344,64,206515,1,0
376,120,206713,1,0
312,120,206912,1,0
344,176,207111,2,2,B|176:176,3,140
216,240,208501,6,0,B|376:240,2,140
152,240,209495,1,0
88,240,209694,1,0
120,184,209892,1,0
184,184,210091,2,2,B|328:184,3,140
328,120,211482,6,0,B|144:120,1,175
56,120,212276,1,2
56,120,212475,1,2
128,224,212872,2,0,B|272:224,1,140
268,224,213468,1,2
328,224,213667,1,2
456,216,214064,5,0
456,216,214263,2,0,B|376:216,1,70
384,152,214660,2,2,B|384:0,1,140
320,16,215256,2,0,B|320:160,1,140
256,160,215852,1,2
256,160,216051,1,2
256,192,216449,12,4,217839
80,64,218237,6,0,B|168:64,1,70
136,128,218634,2,0,B|216:128,1,70,0|0
192,192,219031,2,2,B|336:192,2,140
160,312,220223,1,0
224,312,220422,1,0
352,312,220819,1,0
288,312,221018,1,0
224,200,221415,1,0
288,200,221614,1,0
352,200,221813,1,0
352,136,222011,2,2,B|208:136,3,140
120,48,223601,5,0
232,48,223899,2,0,B|272:48|344:48,1,105
336,112,224396,1,0
216,112,224694,2,0,B|104:112,1,105
104,176,225190,1,0
168,176,225389,1,0
320,176,225786,1,8
320,328,226184,1,8
256,328,226382,1,8
136,232,226780,5,0
136,112,227078,2,0,B|136:0,1,105
200,8,227574,1,0
200,120,227872,2,0,B|200:240,1,105,0|0
264,224,228369,1,0
264,112,228667,2,0,B|264:-8,1,105,0|8
416,8,229362,1,8
416,72,229561,1,8
416,224,229958,5,0
296,224,230256,2,0,B|184:224,1,105
192,160,230753,1,0
304,160,231051,2,0,B|416:160,1,105
408,96,231548,1,0
288,96,231846,2,0,B|160:96,1,105,0|8
64,192,232541,1,8
64,192,232740,1,8
64,344,233137,5,0
176,344,233435,1,0
288,344,233733,1,0
288,280,233932,2,8,B|408:280,1,105,8|8
392,160,234528,1,8
328,160,234727,2,2,B|160:160,4,140,2|2|2|2|2
256,192,236415,12,4,242674
