osu file format v12

[General]
AudioFilename: LB Ex.mp3
AudioLeadIn: 0
PreviewTime: 51553
Countdown: 0
SampleSet: Soft
StackLeniency: 0.3
Mode: 0
LetterboxInBreaks: 0
WidescreenStoryboard: 0

[Editor]
Bookmarks: 64666,90891
DistanceSpacing: 1.2
BeatDivisor: 4
GridSize: 4
TimelineZoom: 1

[Metadata]
Title:Little Busters! EX (TV Size)
TitleUnicode:Little Busters! EX (TV Size)
Artist:Rita
ArtistUnicode:Rita
Creator:Momochikun
Version:Normal
Source:リトルバスターズ!EX
Tags:opening key vicho
BeatmapID:363717
BeatmapSetID:146828

[Difficulty]
HPDrainRate:4
CircleSize:4
OverallDifficulty:3
ApproachRate:5
SliderMultiplier:1.27
SliderTickRate:1

[Events]
//Background and Video events
Video,499,"video.avi"
0,0,"BG.jpg",0,0
//Break Periods
//Storyboard Layer 0 (Background)
//Storyboard Layer 1 (Fail)
//Storyboard Layer 2 (Pass)
//Storyboard Layer 3 (Foreground)
//Storyboard Sound Samples
//Background Colour Transformations
3,100,163,162,255

[TimingPoints]
1090,397.350993377483,4,2,1,30,1,0
1090,-100,4,2,1,30,0,0
3076,-100,4,2,1,15,0,0
3176,-100,4,2,1,30,0,0
3474,-100,4,2,1,15,0,0
3573,-100,4,2,1,30,0,0
3871,-100,4,2,1,15,0,0
3970,-100,4,2,1,30,0,0
6652,-100,4,2,1,15,0,0
6851,-100,4,2,1,30,0,0
7149,-100,4,2,1,5,0,0
7447,-100,4,1,1,45,0,0
7646,-100,4,2,1,50,0,0
7844,-100,4,1,1,45,0,0
8043,-100,4,2,1,50,0,0
8242,-100,4,1,1,45,0,0
8440,-100,4,2,1,50,0,0
8639,-100,4,1,1,45,0,0
8838,-100,4,2,1,50,0,0
9036,-100,4,1,1,45,0,0
9235,-100,4,2,1,50,0,0
9434,-100,4,1,1,45,0,0
9632,-100,4,2,1,50,0,0
9831,-100,4,1,1,45,0,0
10030,-100,4,2,1,50,0,0
10228,-100,4,1,1,45,0,0
10427,-100,4,2,1,50,0,0
10626,-100,4,1,1,45,0,0
10824,-100,4,2,1,50,0,0
11023,-100,4,1,1,45,0,0
11222,-100,4,2,1,50,0,0
11420,-100,4,1,1,45,0,0
11619,-100,4,2,1,50,0,0
11818,-100,4,1,1,45,0,0
12017,-100,4,2,1,50,0,0
12215,-100,4,1,1,45,0,0
13010,-100,4,2,1,20,0,0
13209,-100,4,2,1,50,0,0
13606,-100,4,1,1,45,0,0
13805,-100,4,1,1,50,0,1
13904,-100,4,2,1,50,0,0
14202,-100,4,1,1,45,0,0
14301,-100,4,2,1,50,0,0
14599,-100,4,1,1,45,0,0
15295,-100,4,2,1,45,0,0
15394,-100,4,1,1,45,0,0
15891,-100,4,2,1,50,0,0
16189,-100,4,1,1,45,0,0
16686,-100,4,2,1,50,0,0
16984,-100,4,1,1,45,0,0
17480,-100,4,2,1,50,0,0
17977,-100,4,1,1,45,0,0
18275,-100,4,2,1,30,0,0
18573,-100,4,1,1,45,0,0
19070,-100,4,2,1,50,0,0
19368,-100,4,1,1,45,0,0
20361,-100,4,2,1,50,0,0
20560,-100,4,1,1,45,0,0
21553,-100,4,2,1,50,0,0
21752,-100,4,1,1,45,0,0
22348,-100,4,2,1,50,0,0
22546,-100,4,1,1,45,0,0
23142,-100,4,2,1,50,0,0
23341,-100,4,1,1,45,0,0
23440,-100,4,2,1,50,0,0
23739,-100,4,1,1,45,0,0
23937,-100,4,2,1,50,0,0
24136,-100,4,1,1,45,0,0
25924,-100,4,1,1,35,0,0
26123,-100,4,1,1,45,0,0
26421,-100,4,1,1,5,0,0
26520,-100,4,1,1,55,0,0
26719,-100,4,2,1,50,0,0
26917,-100,4,1,1,45,0,0
27116,-100,4,2,1,50,0,0
27315,-100,4,1,1,45,0,0
27513,-100,4,2,1,50,0,0
27712,-100,4,1,1,45,0,0
27911,-100,4,2,1,50,0,0
28109,-100,4,1,1,45,0,0
28308,-100,4,2,1,50,0,0
28507,-100,4,1,1,45,0,0
28705,-100,4,2,1,50,0,0
28904,-100,4,1,1,45,0,0
29103,-100,4,1,1,45,0,0
29599,-100,4,3,1,45,0,0
29699,-100,4,1,1,45,0,0
29897,-100,4,2,1,50,0,0
30096,-100,4,1,1,45,0,0
30295,-100,4,2,1,50,0,0
30493,-100,4,1,1,45,0,0
30692,-100,4,2,1,50,0,0
30891,-100,4,1,1,45,0,0
31089,-100,4,2,1,50,0,0
31288,-100,4,1,1,45,0,0
31487,-100,4,2,1,50,0,0
31686,-100,4,1,1,45,0,0
31884,-100,4,2,1,50,0,0
32083,-100,4,1,1,45,0,0
32282,-100,4,2,1,35,0,0
32480,-100,4,1,1,45,0,0
32878,-100,4,1,1,45,0,0
33076,-100,4,2,1,50,0,0
33275,-100,4,1,1,45,0,0
33474,-100,4,2,1,50,0,0
33672,-100,4,1,1,45,0,0
33871,-100,4,2,1,50,0,0
34070,-100,4,1,1,45,0,0
34268,-100,4,2,1,50,0,0
34467,-100,4,1,1,45,0,0
34666,-100,4,2,1,50,0,0
34864,-100,4,1,1,45,0,0
35063,-100,4,2,1,50,0,0
35262,-100,4,1,1,45,0,0
35460,-100,4,2,1,50,0,0
35659,-100,4,1,1,45,0,0
35858,-100,4,2,1,50,0,0
36056,-100,4,1,1,45,0,0
36255,-100,4,2,1,50,0,0
36454,-100,4,1,1,45,0,0
36652,-100,4,2,1,50,0,0
36851,-100,4,1,1,45,0,0
37050,-100,4,2,1,50,0,0
37248,-100,4,1,1,45,0,0
37447,-100,4,2,1,50,0,0
37646,-100,4,1,1,45,0,0
37844,-100,4,2,1,50,0,0
38043,-100,4,1,1,45,0,0
38242,-100,4,2,1,50,0,0
38440,-100,4,1,1,45,0,0
38639,-100,4,2,1,50,0,0
38838,-100,4,1,1,45,0,0
40825,-100,4,2,1,50,0,0
41023,-100,4,1,1,45,0,0
41421,-100,4,2,1,50,0,0
41520,-100,4,1,1,45,0,0
42315,-100,4,1,1,50,0,0
42414,-100,4,1,1,45,0,0
45295,-100,4,1,1,35,0,0
45394,-100,4,1,1,30,0,0
45593,-100,4,1,1,45,0,0
45791,-100,4,2,1,50,0,0
45990,-100,4,1,1,45,0,0
46189,-100,4,2,1,50,0,0
46586,-100,4,1,1,45,0,0
47381,-100,4,2,1,50,0,0
47580,-100,4,1,1,45,0,0
47679,-100,4,2,1,50,0,0
48176,-100,4,1,1,45,0,0
48970,-100,4,1,1,35,0,0
49566,-100,4,1,1,45,0,0
49964,-100,4,1,1,55,0,0
50361,-100,4,1,1,50,0,0
50957,-100,4,2,1,50,0,0
51007,-100,4,2,1,50,0,0
51454,-100,4,3,1,40,0,0
51553,-100,4,1,1,50,0,0
51850,-100,4,2,1,5,0,0
51950,397.350993377483,6,1,1,65,1,1
52148,-100,6,2,1,50,0,1
52347,-100,6,1,1,55,0,1
52546,-100,6,2,1,50,0,1
52744,-100,6,1,1,55,0,1
53340,-100,6,2,1,50,0,1
53440,-100,6,1,1,55,0,1
54036,-100,6,2,1,50,0,1
54334,397.350993377483,4,1,1,65,1,1
54532,-100,4,2,1,50,0,1
54731,-100,4,1,1,55,0,1
54930,-100,4,2,1,50,0,1
55128,-100,4,1,1,55,0,1
55724,-100,4,2,1,50,0,1
55923,-100,4,1,1,55,0,1
56519,-100,4,2,1,50,0,1
56718,-100,4,1,1,55,0,1
57214,-100,4,1,1,45,0,1
57612,-100,4,2,1,50,0,1
57910,-100,4,1,1,55,0,1
58108,-100,4,2,1,50,0,1
58208,-100,4,1,1,55,0,1
58605,-100,4,2,1,50,0,1
58704,-100,4,1,1,55,0,1
58903,-100,4,2,1,50,0,1
59102,-100,4,1,1,50,0,1
59300,-100,4,2,1,55,0,1
59499,-100,4,1,1,55,0,1
60492,-100,4,2,1,50,0,1
60691,-100,4,1,1,55,0,1
60890,-100,4,2,1,50,0,1
61088,-100,4,1,1,55,0,1
61386,-100,4,2,1,50,0,1
61486,-100,4,1,1,55,0,1
61684,-100,4,3,1,50,0,1
61784,-100,4,1,1,55,0,1
62281,-100,4,2,1,50,0,1
62479,-100,4,1,1,55,0,1
62877,-100,4,2,1,45,0,1
63075,-100,4,1,1,55,0,1
63671,-100,4,1,1,55,0,0
63870,397.350993377483,6,1,1,65,1,1
64068,-100,6,2,1,50,0,1
64267,-100,6,1,1,55,0,1
64466,-100,6,2,1,50,0,1
64664,-100,6,1,1,55,0,1
65260,-100,6,2,1,50,0,1
65459,-100,6,1,1,55,0,1
65658,-100,6,2,1,50,0,1
65856,-100,6,1,1,55,0,1
66254,397.350993377483,4,1,1,55,1,1
66353,-100,4,2,1,50,0,1
66651,-100,4,1,1,55,0,1
66850,-100,4,2,1,50,0,1
67048,-100,4,1,1,55,0,1
67545,-100,4,2,1,50,0,1
67843,-100,4,1,1,55,0,1
68439,-100,4,2,1,50,0,1
68638,-100,4,1,1,55,0,1
69134,-100,4,1,1,45,0,1
69432,-100,4,1,1,55,0,1
69730,-100,4,2,1,15,0,1
69830,-100,4,1,1,50,0,1
70028,-100,4,2,1,50,0,1
70227,-100,4,1,1,55,0,1
70823,-100,4,2,1,50,0,1
71022,-100,4,1,1,55,0,1
71220,-100,4,2,1,50,0,1
71419,-100,4,1,1,55,0,1
71717,-100,4,1,1,45,0,1
71816,-100,4,1,1,55,0,1
72412,-100,4,2,1,50,0,1
72512,-100,4,1,1,55,0,1
73207,-100,4,2,1,50,0,1
73306,-100,4,1,1,55,0,1
74300,-100,4,2,1,30,0,1
74399,-100,4,1,1,55,0,1
74797,-100,4,2,1,50,0,1
74995,-100,4,1,1,50,0,1
75691,-100,4,1,1,50,0,0
75790,-100,4,1,1,60,0,1
75989,-100,4,2,1,50,0,1
76187,-100,4,1,1,60,0,1
76386,-100,4,2,1,50,0,1
76585,-100,4,1,1,60,0,1
76783,-100,4,2,1,50,0,1
76982,-100,4,1,1,60,0,1
77181,-100,4,2,1,50,0,1
77379,-100,4,1,1,60,0,1
77578,-100,4,2,1,50,0,1
77777,-100,4,1,1,60,0,1
77975,-100,4,2,1,50,0,1
78174,-100,4,1,1,55,0,1
78373,-100,4,2,1,50,0,1
78571,-100,4,1,1,55,0,1
78770,-100,4,2,1,50,0,1
78969,-100,4,1,1,60,0,1
79167,-100,4,2,1,50,0,1
79366,-100,4,1,1,60,0,1
79565,-100,4,2,1,50,0,1
79763,-100,4,1,1,60,0,1
79962,-100,4,2,1,50,0,1
80161,-100,4,1,1,60,0,1
80359,-100,4,2,1,45,0,1
80558,-100,4,2,1,50,0,1
80657,-100,4,1,1,60,0,1
81055,-100,4,1,1,40,0,1
81353,-100,4,1,1,60,0,1
81850,-100,4,1,1,40,0,1
82048,-100,4,1,1,60,0,0
82148,-100,4,1,1,65,0,1
82247,-100,4,2,1,50,0,0
82545,-100,4,1,1,45,0,0
82644,-100,4,2,1,50,0,0
82942,-100,4,1,1,45,0,0
83439,-100,4,2,1,30,0,0
83737,-100,4,1,1,45,0,0
84333,-100,4,2,1,50,0,0
84532,-100,4,1,1,45,0,0
85525,-100,4,2,1,50,0,0
85624,-100,4,1,1,45,0,0
86022,-100,4,2,1,30,0,0
86121,-100,4,1,1,45,0,0
87015,-100,4,1,1,40,0,0
87512,-100,4,1,1,45,0,0
87710,-100,4,2,1,50,0,0
87909,-100,4,1,1,40,0,0
88108,-100,4,2,1,50,0,0
88306,-100,4,1,1,65,0,0
88406,-100,4,2,1,30,0,0
88903,-100,4,2,1,20,0,0
89300,-100,4,2,1,10,0,0
89697,-100,4,2,1,5,0,0

[Colours]
Combo1 : 255,128,255
Combo2 : 255,255,128
Combo3 : 255,34,145

[HitObjects]
116,312,1090,6,0,L|112:236,1,63.5,2|0,0:0|0:0,0:0:0:0:
181,108,2282,2,0,L|177:32,2,63.5,2|0|2,0:0|0:0|0:0,0:0:0:0:
185,184,2878,5,0,0:0:0:0:
336,164,3275,2,0,L|363:292,1,127,2|2,0:0|0:0,0:0:0:0:
220,340,4070,1,0,0:0:0:0:
152,304,4268,6,0,P|115:295|88:293,2,63.5,2|0|2,0:0|0:0|0:0,0:0:0:0:
220,340,4864,1,0,0:0:0:0:
388,184,5460,2,0,P|425:175|452:173,1,63.5,2|0,0:0|0:0,0:0:0:0:
496,112,5858,6,0,L|502:36,1,63.5,2|0,0:0|0:0,0:0:0:0:
352,8,6454,1,2,0:0:0:0:
268,136,6851,1,2,0:0:0:0:
101,282,7447,6,0,P|150:295|223:249,1,127,4|0,0:0|0:0,0:0:0:0:
272,210,8043,1,2,0:0:0:0:
340,244,8242,2,0,L|478:236,1,127
356,130,9037,6,0,L|229:137,2,127
492,61,10229,1,0,0:0:0:0:
404,188,10626,6,0,L|397:252,1,63.5,0|2,0:0|0:0,0:0:0:0:
462,285,11023,2,0,L|469:349,1,63.5,0|2,0:0|0:0,0:0:0:0:
394,366,11421,2,0,B|355:360|355:360|315:369|315:369|260:361,1,127
149,267,12215,6,0,B|188:273|188:273|228:264|228:264|283:272,1,127,4|8,0:0|0:0,0:0:0:0:
342,236,12811,2,0,P|352:190|346:109,1,127,4|2,0:0|0:0,0:0:0:0:
219,25,13606,1,8,0:0:0:0:
159,73,13805,6,0,P|149:119|155:200,1,127,4|8,0:0|0:0,0:0:0:0:
256,312,14599,2,0,P|262:291|258:243,2,63.5,0|0|8,0:0|0:0|0:0,0:0:0:0:
197,355,15195,1,0,2:0:0:0:
186,279,15394,6,0,L|328:276,1,127,0|8,0:0|0:0,0:0:0:0:
423,172,16189,2,0,L|296:176,1,127,0|8,0:0|0:0,0:0:0:0:
424,92,16984,6,0,P|480:120|501:179,1,127,4|8,0:0|0:0,0:0:0:0:
395,281,17778,2,0,P|359:274|331:262,1,63.5,0|0,1:0|0:0,0:0:0:0:
265,230,18176,2,0,P|217:224|129:243,1,127,8|0,0:0|0:0,0:0:0:0:
15,325,18970,5,8,0:0:0:0:
64,180,19368,2,0,P|77:118|72:55,1,127,0|10,0:0|0:0,0:0:0:0:
5,18,19964,1,0,0:0:0:0:
4,93,20162,6,0,L|133:83,1,127,4|8,0:0|0:0,0:0:0:0:
278,122,20957,2,0,L|343:127,2,63.5,0|0|8,0:0|0:0|0:0,0:0:0:0:
212,82,21553,1,0,0:0:0:0:
203,157,21752,6,0,B|197:213|154:228|154:228|150:278,1,127,0|8,0:0|0:0,0:0:0:0:
290,324,22546,2,0,L|365:313,1,63.5
416,272,22944,1,0,0:0:0:0:
316,152,23341,6,0,P|365:116|440:118,1,127,2|8,0:0|0:0,0:0:0:0:
453,190,23937,1,2,0:0:0:0:
453,190,24136,2,0,P|404:226|329:224,1,127,0|8,0:0|0:0,0:0:0:0:
193,183,24931,6,0,P|130:184|79:220,1,127,0|8,0:0|0:0,0:0:0:0:
34,281,25527,1,0,0:0:0:0:
183,268,25924,2,0,L|258:263,1,63.5,0|10,0:0|0:0,0:0:0:0:
358,360,26520,6,0,L|223:351,2,127,4|0|0,0:0|0:0|0:0,0:0:0:0:
467,256,27712,1,0,0:0:0:0:
376,133,28109,6,0,B|340:97|345:45|345:45|314:37,2,127
467,256,29301,1,0,0:0:0:0:
323,204,29699,6,0,P|282:198|198:224,1,127
60,279,30493,2,0,L|34:142,1,127
73,87,31089,1,2,0:0:0:0:
147,105,31288,6,0,B|190:98|190:98|223:108|223:108|277:102,1,127,0|0,0:0|0:0,0:0:0:0:
417,55,32083,1,0,0:0:0:0:
468,198,32480,2,0,L|458:263,1,63.5,0|10,0:0|0:0,0:0:0:0:
393,302,32878,6,0,B|310:324|310:324|261:312,2,127,4|0|0,0:0|0:0|0:0,0:0:0:0:
479,176,34070,1,0,0:0:0:0:
341,111,34467,6,0,L|198:122,1,127
66,82,35262,2,0,P|51:140|85:198,1,127
155,216,35858,1,2,0:0:0:0:
204,272,36056,6,0,B|241:307|241:307|280:291|331:319,2,127
104,156,37248,1,0,0:0:0:0:
225,64,37646,6,0,B|259:86|301:76|301:76|351:100,1,127
461,193,38440,1,2,0:0:0:0:
343,290,38838,2,0,L|279:282,1,63.5,0|8,0:0|0:0,0:0:0:0:
221,331,39235,6,0,P|202:269|237:216,2,127,12|10|0,0:0|0:0|0:0,0:0:0:0:
292,368,40229,1,0,0:0:0:0:
417,282,40626,6,0,L|424:152,1,127,8|0,0:0|0:0,0:0:0:0:
376,95,41222,1,8,0:0:0:0:
226,68,41619,2,0,B|177:62|145:88|145:88|104:81,1,127,0|2,0:0|0:0,0:0:0:0:
104,231,42414,6,0,B|153:237|185:211|185:211|225:217,2,127,12|10|0,0:0|0:0|0:0,0:0:0:0:
33,201,43407,1,0,0:0:0:0:
116,328,43805,6,0,P|164:324|237:294,1,127,8|0,0:0|0:0,0:0:0:0:
297,248,44401,2,0,P|354:221|417:214,1,127,8|0,0:0|0:0,0:0:0:0:
495,345,45195,1,8,0:0:0:0:
344,324,45593,6,0,L|189:314,1,127,4|8,0:0|0:0,0:0:0:0:
109,111,46586,2,0,L|31:105,2,63.5,0|8|0,0:0|0:0|0:0,0:0:0:0:
163,163,47182,6,0,P|190:168|283:137,1,127,0|8,0:0|0:0,0:0:0:0:
500,68,48176,2,0,L|489:134,1,63.5,0|8,0:0|0:0,0:0:0:0:
256,192,48772,12,2,50957,0:0:0:0:
255,29,51553,5,10,0:0:0:0:
321,165,51950,6,0,L|457:155,2,127,4|8|0,0:0|0:0|0:0,0:0:0:0:
172,192,53142,1,8,0:0:0:0:
60,292,53539,2,0,P|130:303|181:268,1,127,0|8,0:0|0:0,0:0:0:0:
224,128,54334,6,0,P|163:115|108:144,2,127,4|8|0,0:0|0:0|0:0,0:0:0:0:
348,216,55526,1,8,0:0:0:0:
468,124,55923,6,0,L|324:133,1,127,0|8,0:0|0:0,0:0:0:0:
200,72,56718,1,0,0:0:0:0:
145,214,57115,2,0,L|130:278,1,63.5,8|0,0:0|0:0,0:0:0:0:
61,307,57512,6,0,P|126:306|188:344,2,127,4|8|0,0:0|0:0|0:0,0:0:0:0:
24,158,58704,1,8,0:0:0:0:
147,68,59102,6,0,P|208:47|281:55,1,127,0|8,0:0|0:0,0:0:0:0:
406,116,59896,2,0,P|442:115|475:99,2,63.5,8|0|8,0:0|0:0|0:0,0:0:0:0:
335,86,60492,5,2,0:0:0:0:
307,157,60691,2,0,L|317:289,1,127,4|0,0:0|0:0,0:0:0:0:
172,336,61486,2,0,L|181:209,1,127,0|0,0:0|0:0,0:0:0:0:
120,164,62082,6,0,P|172:136|252:168,1,127,4|0,0:0|0:0,0:0:0:0:
284,212,62678,1,10,0:0:0:0:
392,320,63075,2,0,B|396:272|396:272|408:240|408:240|412:196,1,127,0|8,0:0|0:0,0:0:0:0:
392,120,63671,5,2,2:2:0:0:
324,84,63870,2,0,L|176:92,1,127,4|8,0:0|0:0,0:0:0:0:
88,184,64664,2,0,L|214:177,1,127,0|8,0:0|0:0,0:0:0:0:
288,204,65260,1,2,0:0:0:0:
237,260,65459,2,0,P|299:278|357:236,1,127
476,160,66254,6,0,P|460:224|500:280,1,127,4|8,0:0|0:0,0:0:0:0:
452,340,66850,1,2,0:0:0:0:
376,356,67048,2,0,L|244:344,1,127,0|8,0:0|0:0,0:0:0:0:
180,308,67644,6,0,L|116:313,2,63.5,2|0|0,0:0|0:0|0:0,0:0:0:0:
232,252,68240,2,0,P|248:184|232:120,2,127,10|0|8,0:0|0:0|0:0,0:0:0:0:
164,116,69432,6,0,L|308:96,1,127,4|8,0:0|0:0,0:0:0:0:
436,148,70227,2,0,B|424:188|400:216|400:216|416:240|412:280,1,127,0|8,0:0|0:0,0:0:0:0:
284,344,71022,6,0,P|212:336|160:304,2,127,0|8|0,0:0|0:0|0:0,0:0:0:0:
412,263,72214,2,0,L|400:200,1,63.5,8|0,0:0|0:0,0:0:0:0:
340,152,72611,6,0,P|332:92|372:36,1,127,4|8,0:0|0:0,0:0:0:0:
408,112,73207,1,2,0:0:0:0:
408,112,73406,2,0,L|272:88,1,127,0|8,0:0|0:0,0:0:0:0:
212,120,74002,6,0,B|156:164|100:144|100:144|60:156|64:200,1,190.5,4|8,0:0|0:0,0:0:0:0:
130,334,74995,2,0,L|202:326,1,63.5,0|0,0:0|0:0,0:0:0:0:
256,284,75393,2,0,L|328:276,1,63.5,4|0,0:3|0:0,0:0:0:0:
388,248,75790,5,12,0:0:0:0:
424,108,76187,2,0,L|288:116,1,127,8|8,0:0|0:0,0:0:0:0:
172,200,76982,1,8,0:0:0:0:
48,289,77379,6,0,P|16:229|28:169,2,127,8|8|10,0:0|0:0|0:0,0:0:0:0:
172,200,78571,1,10,0:0:0:0:
308,268,78969,6,0,B|348:272|348:272|378:289|378:289|432:296,2,127,12|8|8,0:0|0:0|0:0,0:0:0:0:
172,200,80161,2,0,L|180:132,1,63.5,8|4,0:0|0:0,0:0:0:0:
136,72,80558,6,0,B|208:40|256:108|256:108|320:64|376:112,1,254,0|0,1:0|0:0,0:0:0:0:
479,202,81750,1,8,0:0:0:0:
256,192,82148,12,0,85326,0:0:0:0:
256,40,85724,5,8,0:0:0:0:
196,180,86121,2,0,P|256:196|320:180,1,127,0|8,0:0|0:0,0:0:0:0:
472,176,86916,5,0,0:0:0:0:
472,176,87114,2,0,L|484:244,1,63.5,0|8,0:0|0:0,0:0:0:0:
428,292,87512,2,0,P|364:284|308:308,2,127,4|4|4,0:0|0:0|0:0,0:0:0:0:
256,192,88505,12,0,90889,0:0:0:0:
