osu file format v12

[General]
AudioFilename: LB Ex.mp3
AudioLeadIn: 0
PreviewTime: 51553
Countdown: 0
SampleSet: Normal
StackLeniency: 0.3
Mode: 0
LetterboxInBreaks: 0
WidescreenStoryboard: 0

[Editor]
DistanceSpacing: 0.8
BeatDivisor: 4
GridSize: 4
TimelineZoom: 1

[Metadata]
Title:Little Busters! EX (TV Size)
TitleUnicode:Little Busters! EX (TV Size)
Artist:Rita
ArtistUnicode:Rita
Creator:Momochikun
Version:Insane
Source:リトルバスターズ!EX
Tags:opening key vicho
BeatmapID:363716
BeatmapSetID:146828

[Difficulty]
HPDrainRate:7
CircleSize:4
OverallDifficulty:7
ApproachRate:8
SliderMultiplier:1.67
SliderTickRate:1

[Events]
//Background and Video events
Video,499,"video.avi"
0,0,"BG.jpg",0,0
//Break Periods
//Storyboard Layer 0 (Background)
//Storyboard Layer 1 (Fail)
//Storyboard Layer 2 (Pass)
//Storyboard Layer 3 (Foreground)
//Storyboard Sound Samples
//Background Colour Transformations
3,100,163,162,255

[TimingPoints]
1090,397.350993377483,4,2,1,30,1,0
1090,-133.333333333333,4,2,1,30,0,0
3176,-133.333333333333,4,2,1,5,0,0
3275,-133.333333333333,4,2,1,30,0,0
3474,-133.333333333333,4,2,1,10,0,0
3573,-133.333333333333,4,2,1,30,0,0
3871,-133.333333333333,4,2,1,10,0,0
3970,-133.333333333333,4,2,1,30,0,0
6652,-133.333333333333,4,2,1,5,0,0
6851,-200,4,2,1,30,0,0
7149,-200,4,2,1,5,0,0
7447,-100,4,1,1,45,0,0
7646,-100,4,2,1,50,0,0
7844,-100,4,1,1,45,0,0
8043,-100,4,2,1,50,0,0
8242,-100,4,1,1,45,0,0
8440,-100,4,2,1,50,0,0
8639,-100,4,1,1,45,0,0
8838,-100,4,2,1,50,0,0
9036,-100,4,1,1,45,0,0
9235,-100,4,2,1,50,0,0
9434,-100,4,1,1,45,0,0
9632,-100,4,2,1,50,0,0
9831,-100,4,1,1,45,0,0
10030,-100,4,2,1,50,0,0
10228,-100,4,1,1,45,0,0
10427,-100,4,2,1,50,0,0
10626,-100,4,1,1,45,0,0
10824,-100,4,2,1,50,0,0
11023,-100,4,1,1,45,0,0
11222,-100,4,2,1,50,0,0
11420,-100,4,1,1,45,0,0
11619,-100,4,2,1,50,0,0
11818,-100,4,1,1,45,0,0
12017,-100,4,2,1,50,0,0
12215,-100,4,1,1,45,0,0
13010,-100,4,2,1,20,0,0
13209,-133.333333333333,4,2,1,50,0,0
13805,-100,4,1,1,50,0,1
13904,-100,4,2,1,50,0,0
14202,-100,4,1,1,45,0,0
14301,-100,4,2,1,50,0,0
14599,-100,4,1,1,45,0,0
15295,-100,4,2,1,45,0,0
15394,-100,4,1,1,45,0,0
15891,-100,4,2,1,50,0,0
16189,-100,4,1,1,45,0,0
16686,-100,4,2,1,50,0,0
16984,-100,4,1,1,45,0,0
17282,-100,4,2,1,50,0,0
17381,-100,4,1,1,45,0,0
17480,-100,4,2,1,50,0,0
17977,-100,4,1,1,45,0,0
18275,-100,4,2,1,30,0,0
18573,-100,4,1,1,45,0,0
19070,-100,4,2,1,20,0,0
19368,-100,4,1,1,45,0,0
20361,-100,4,2,1,50,0,0
20560,-100,4,1,1,45,0,0
21553,-100,4,2,1,50,0,0
21752,-100,4,1,1,45,0,0
22348,-100,4,2,1,50,0,0
22546,-100,4,1,1,45,0,0
23142,-100,4,2,1,50,0,0
23341,-100,4,1,1,45,0,0
23440,-100,4,2,1,40,0,0
23739,-100,4,1,1,45,0,0
23937,-100,4,2,1,50,0,0
24136,-100,4,1,1,45,0,0
25924,-100,4,1,1,35,0,0
26123,-80,4,1,1,45,0,0
26421,-80,4,1,1,5,0,0
26520,-100,4,1,1,55,0,0
26719,-100,4,2,1,50,0,0
26917,-100,4,1,1,45,0,0
27116,-100,4,2,1,50,0,0
27315,-100,4,1,1,45,0,0
27513,-100,4,2,1,50,0,0
27712,-100,4,1,1,45,0,0
27911,-100,4,2,1,50,0,0
28109,-100,4,1,1,45,0,0
28308,-100,4,2,1,50,0,0
28507,-100,4,1,1,45,0,0
28705,-100,4,2,1,50,0,0
28904,-100,4,1,1,45,0,0
29103,-100,4,2,1,50,0,0
29301,-100,4,1,1,45,0,0
29500,-100,4,2,1,50,0,0
29599,-100,4,3,1,35,0,0
29699,-100,4,1,1,45,0,0
29897,-100,4,2,1,50,0,0
30096,-100,4,1,1,45,0,0
30295,-100,4,2,1,50,0,0
30493,-100,4,1,1,45,0,0
30692,-100,4,2,1,50,0,0
30891,-100,4,1,1,45,0,0
31089,-100,4,2,1,50,0,0
31288,-100,4,1,1,45,0,0
31487,-100,4,2,1,50,0,0
31686,-100,4,1,1,45,0,0
31884,-100,4,2,1,50,0,0
32083,-100,4,1,1,45,0,0
32282,-100,4,2,1,40,0,0
32480,-100,4,1,1,45,0,0
32878,-100,4,1,1,45,0,0
33076,-100,4,2,1,50,0,0
33275,-100,4,1,1,45,0,0
33474,-100,4,2,1,50,0,0
33672,-100,4,1,1,45,0,0
33871,-100,4,2,1,50,0,0
34070,-100,4,1,1,45,0,0
34268,-100,4,2,1,50,0,0
34467,-100,4,1,1,45,0,0
34666,-100,4,2,1,50,0,0
34864,-100,4,1,1,45,0,0
35063,-100,4,2,1,50,0,0
35262,-100,4,1,1,45,0,0
35460,-100,4,2,1,50,0,0
35659,-100,4,1,1,45,0,0
35858,-100,4,2,1,50,0,0
36056,-100,4,1,1,45,0,0
36255,-100,4,2,1,50,0,0
36454,-100,4,1,1,45,0,0
36652,-100,4,2,1,50,0,0
36851,-100,4,1,1,45,0,0
37050,-100,4,2,1,50,0,0
37248,-100,4,1,1,45,0,0
37447,-100,4,2,1,50,0,0
37646,-100,4,1,1,45,0,0
37844,-100,4,2,1,50,0,0
38043,-100,4,1,1,45,0,0
38242,-100,4,2,1,50,0,0
38440,-100,4,1,1,45,0,0
38639,-100,4,2,1,50,0,0
38838,-100,4,1,1,45,0,0
40825,-100,4,2,1,50,0,0
41023,-100,4,1,1,45,0,0
41421,-100,4,2,1,50,0,0
41520,-100,4,1,1,45,0,0
42315,-100,4,1,1,50,0,0
42414,-100,4,1,1,45,0,0
45295,-100,4,1,1,35,0,0
45394,-100,4,1,1,25,0,0
45593,-100,4,1,1,45,0,0
45791,-100,4,2,1,50,0,0
45990,-100,4,1,1,45,0,0
46189,-100,4,2,1,50,0,0
46388,-100,4,2,1,30,0,0
46586,-100,4,1,1,45,0,0
47381,-100,4,2,1,50,0,0
47580,-100,4,1,1,45,0,0
47679,-100,4,2,1,50,0,0
48176,-100,4,1,1,45,0,0
48970,-100,4,1,1,35,0,0
49566,-100,4,1,1,45,0,0
49964,-100,4,1,1,50,0,0
50361,-100,4,1,1,55,0,0
50957,-100,4,2,1,70,0,0
51007,-100,4,2,1,50,0,0
51454,-100,4,3,1,35,0,0
51553,-66.6666666666667,4,1,1,50,0,0
51850,-66.6666666666667,4,2,1,5,0,0
51950,397.350993377483,6,1,1,65,1,1
52148,-100,6,2,1,50,0,1
52347,-100,6,1,1,55,0,1
52546,-100,6,2,1,50,0,1
52744,-100,6,1,1,55,0,1
53340,-100,6,2,1,50,0,1
53440,-100,6,1,1,55,0,1
54036,-100,6,2,1,50,0,1
54334,397.350993377483,4,1,1,65,1,1
54532,-100,4,2,1,50,0,1
54731,-100,4,1,1,55,0,1
54930,-100,4,2,1,50,0,1
55128,-100,4,1,1,55,0,1
55724,-100,4,2,1,50,0,1
55923,-100,4,1,1,55,0,1
56519,-100,4,2,1,50,0,1
56718,-100,4,1,1,55,0,1
57214,-100,4,1,1,45,0,1
57612,-100,4,2,1,50,0,1
57910,-100,4,1,1,55,0,1
58108,-100,4,2,1,50,0,1
58208,-100,4,1,1,55,0,1
58605,-100,4,2,1,50,0,1
58704,-100,4,1,1,55,0,1
58903,-100,4,2,1,50,0,1
59102,-100,4,1,1,50,0,1
59300,-100,4,2,1,55,0,1
59499,-100,4,1,1,55,0,1
59698,-100,4,1,1,30,0,1
59797,-100,4,1,1,55,0,1
60492,-100,4,2,1,50,0,1
60691,-100,4,1,1,55,0,1
60890,-100,4,2,1,50,0,1
61088,-100,4,1,1,55,0,1
61386,-100,4,2,1,50,0,1
61486,-100,4,1,1,55,0,1
61684,-100,4,2,1,45,0,1
61784,-100,4,1,1,55,0,1
62281,-100,4,2,1,50,0,1
62479,-100,4,1,1,55,0,1
62877,-100,4,2,1,40,0,1
63075,-100,4,1,1,55,0,1
63671,-100,4,1,1,55,0,0
63870,397.350993377483,6,1,1,65,1,1
64068,-100,6,2,1,50,0,1
64267,-100,6,1,1,55,0,1
64466,-100,6,2,1,50,0,1
64664,-100,6,1,1,55,0,1
65260,-100,6,2,1,50,0,1
65459,-100,6,1,1,55,0,1
65658,-100,6,2,1,50,0,1
65856,-100,6,1,1,55,0,1
66254,397.350993377483,4,1,1,55,1,1
66353,-100,4,2,1,50,0,1
66651,-100,4,1,1,55,0,1
66850,-100,4,2,1,50,0,1
67048,-100,4,1,1,55,0,1
67545,-100,4,2,1,15,0,1
67843,-100,4,1,1,55,0,1
68439,-100,4,2,1,50,0,1
68638,-100,4,1,1,55,0,1
69134,-100,4,1,1,45,0,1
69234,-100,4,1,1,25,0,1
69333,-100,4,1,1,45,0,1
69432,-100,4,1,1,55,0,1
69730,-100,4,2,1,15,0,1
69830,-100,4,1,1,50,0,1
70028,-100,4,2,1,50,0,1
70227,-100,4,1,1,55,0,1
70823,-100,4,2,1,50,0,1
71022,-100,4,1,1,55,0,1
71220,-100,4,2,1,50,0,1
71419,-100,4,1,1,55,0,1
71717,-100,4,1,1,45,0,1
71816,-100,4,2,1,45,0,1
72015,-100,4,1,1,55,0,1
72412,-100,4,2,1,50,0,1
72512,-100,4,1,1,55,0,1
73207,-100,4,2,1,50,0,1
73306,-100,4,1,1,55,0,1
74300,-100,4,2,1,30,0,1
74399,-100,4,1,1,55,0,1
74797,-100,4,2,1,45,0,1
74995,-100,4,1,1,50,0,1
75393,-100,4,1,1,35,0,1
75492,-100,4,1,1,50,0,1
75591,-100,4,1,1,35,0,1
75691,-100,4,1,1,50,0,1
75691,-100,4,1,1,50,0,0
75790,-100,4,1,1,60,0,1
75989,-100,4,2,1,50,0,1
76187,-100,4,1,1,60,0,1
76386,-100,4,2,1,50,0,1
76585,-100,4,1,1,60,0,1
76783,-100,4,2,1,50,0,1
76982,-100,4,1,1,60,0,1
77181,-100,4,2,1,50,0,1
77379,-100,4,1,1,60,0,1
77578,-100,4,2,1,50,0,1
77777,-100,4,1,1,60,0,1
77975,-100,4,2,1,50,0,1
78174,-100,4,1,1,55,0,1
78373,-100,4,2,1,50,0,1
78571,-100,4,1,1,55,0,1
78770,-100,4,2,1,50,0,1
78969,-100,4,1,1,60,0,1
79167,-100,4,2,1,50,0,1
79366,-100,4,1,1,60,0,1
79565,-100,4,2,1,50,0,1
79763,-100,4,1,1,60,0,1
79962,-100,4,2,1,50,0,1
80161,-100,4,1,1,60,0,1
80359,-100,4,2,1,45,0,1
80558,-100,4,2,1,50,0,1
80657,-100,4,1,1,60,0,1
80955,-100,4,1,1,30,0,1
81055,-100,4,1,1,40,0,1
81353,-100,4,1,1,60,0,1
81850,-100,4,1,1,40,0,1
82048,-100,4,2,1,50,0,0
82148,-100,4,1,1,65,0,1
82247,-100,4,2,1,50,0,0
82545,-100,4,1,1,45,0,0
82644,-100,4,2,1,50,0,0
82942,-100,4,1,1,45,0,0
83439,-100,4,2,1,30,0,0
83737,-100,4,1,1,45,0,0
84333,-100,4,2,1,50,0,0
84532,-100,4,1,1,45,0,0
85525,-100,4,2,1,50,0,0
85624,-100,4,1,1,45,0,0
86022,-100,4,2,1,30,0,0
86121,-100,4,1,1,45,0,0
87015,-100,4,1,1,40,0,0
87512,-100,4,1,1,45,0,0
87710,-100,4,2,1,50,0,0
87909,-100,4,1,1,40,0,0
88108,-100,4,2,1,50,0,0
88306,-100,4,1,1,65,0,0
88406,-100,4,2,1,30,0,0
88903,-100,4,2,1,20,0,0
89300,-100,4,2,1,10,0,0
89697,-100,4,2,1,5,0,0

[Colours]
Combo1 : 255,128,255
Combo2 : 255,255,128
Combo3 : 255,34,145

[HitObjects]
346,54,1090,6,0,L|331:124,1,62.6250023889543,2|0,0:0|0:0,0:0:0:0:
184,292,2282,1,2,0:0:0:0:
224,108,2481,2,0,L|211:170,1,62.6250023889543,0|0,0:0|0:0,0:0:0:0:
362,190,2878,2,0,P|346:244|336:292,1,93.9375035834314
329,361,3275,6,0,P|292:346|274:324,1,62.6250023889543,2|0,0:0|0:0,0:0:0:0:
95,288,3672,2,0,P|89:248|99:221,1,62.6250023889543,2|0,0:0|0:0,0:0:0:0:
149,76,4070,1,0,0:0:0:0:
133,66,4169,1,0,0:0:0:0:
118,55,4268,5,2,0:0:0:0:
212,212,4467,1,0,0:0:0:0:
115,151,4666,1,2,0:0:0:0:
291,66,4864,1,0,0:0:0:0:
333,86,5460,2,0,L|322:149,1,62.6250023889543,2|0,0:0|0:0,0:0:0:0:
393,199,5858,6,0,L|404:262,1,62.6250023889543,2|0,0:0|0:0,0:0:0:0:
415,304,6454,2,0,P|465:289|504:288,1,62.6250023889543,2|0,0:0|0:0,0:0:0:0:
345,369,6851,2,0,P|280:344|239:344,1,104.375,2|0,0:0|0:0,0:0:0:0:
228,354,7447,5,2,0:0:0:0:
180,235,7646,1,2,0:0:0:0:
122,330,7844,1,0,0:0:0:0:
67,208,8043,2,0,P|51:176|67:112,1,83.5,2|0,0:0|0:0,0:0:0:0:
136,24,8440,1,0,0:0:0:0:
272,80,8639,6,0,L|292:172,1,83.5,0|2,0:0|0:0,0:0:0:0:
400,312,9037,2,0,L|417:230,1,83.5,0|2,0:0|0:0,0:0:0:0:
492,168,9434,1,0,0:0:0:0:
416,96,9633,2,0,P|396:56|396:16,1,83.5,2|0,0:0|0:0,0:0:0:0:
368,240,10030,2,0,P|328:260|288:260,1,83.5,2|0,0:0|0:0,0:0:0:0:
189,274,10427,1,0,0:0:0:0:
85,161,10626,5,0,0:0:0:0:
120,319,10825,1,2,0:0:0:0:
184,182,11023,1,0,0:0:0:0:
43,248,11222,2,0,L|18:343,1,83.5,2|0,0:0|0:0,0:0:0:0:
85,161,11619,1,0,0:0:0:0:
179,253,11818,1,0,0:0:0:0:
139,67,12017,1,2,0:0:0:0:
347,138,12215,5,2,1:0:0:0:
316,146,12315,1,0,1:0:0:0:
285,145,12414,1,0,1:0:0:0:
255,136,12513,1,8,0:0:0:0:
228,120,12613,1,8,0:0:0:0:
399,75,12811,6,0,P|422:112|424:160,1,83.5,4|0,0:0|2:0,0:0:0:0:
349,258,13209,2,0,P|409:256|467:286,1,125.250004777909,4|0,0:0|0:0,0:0:0:0:
471,292,13705,1,2,1:2:0:0:
476,300,13805,6,0,L|463:218,1,83.5,4|0,0:0|0:0,0:0:0:0:
342,73,14202,2,0,L|329:155,1,83.5,8|2,0:0|0:0,0:0:0:0:
235,251,14599,1,0,0:0:0:0:
389,346,14798,1,0,0:0:0:0:
329,192,14997,2,0,P|320:131|342:73,1,125.25,8|0,0:0|0:0,0:0:0:0:
360,24,15394,5,0,1:0:0:0:
415,142,15593,1,0,0:0:0:0:
252,99,15791,2,0,L|120:114,1,125.25,8|0,0:0|0:0,0:0:0:0:
93,126,16189,1,0,0:0:0:0:
219,205,16388,2,0,L|303:208,1,83.5,2|8,0:2|0:0,0:0:0:0:
93,126,16785,1,2,0:0:0:0:
122,99,16884,1,0,1:0:0:0:
154,74,16984,6,0,P|121:131|144:197,1,125.25,4|0,0:2|0:0,0:0:0:0:
151,232,17381,1,8,0:0:0:0:
222,48,17580,2,0,P|197:13|150:3,1,83.5,4|0,0:2|2:0,0:0:0:0:
223,143,17977,2,0,P|265:151|306:152,1,83.5
403,123,18374,1,2,0:0:0:0:
355,264,18573,5,0,0:0:0:0:
482,204,18772,1,0,0:0:0:0:
306,152,18970,2,0,P|267:154|182:196,1,125.25,8|0,0:0|0:0,0:0:0:0:
147,168,19368,1,0,0:0:0:0:
146,167,19467,2,0,L|121:115,1,41.75,8|0,0:0|0:0,0:0:0:0:
114,241,19765,2,0,B|104:288|130:314|130:314|115:351|119:385,1,125.25,10|8,0:0|0:0,0:0:0:0:
81,326,20162,6,0,L|185:320,1,83.5,4|2,0:0|0:0,0:0:0:0:
395,373,20560,2,0,P|333:374|267:329,1,125.25,8|0,0:0|2:0,0:0:0:0:
239,314,20957,1,0,0:0:0:0:
377,198,21156,1,0,0:0:0:0:
349,300,21354,1,8,0:0:0:0:
281,225,21553,1,0,0:0:0:0:
445,125,21752,5,0,0:0:0:0:
377,198,21950,1,0,0:0:0:0:
408,54,22149,2,0,P|390:32|332:14,1,83.5,8|0,0:0|0:0,0:0:0:0:
377,198,22546,1,0,0:0:0:0:
328,114,22745,1,2,0:0:0:0:
470,234,22944,2,0,L|477:320,1,83.5,8|0,0:0|0:0,0:0:0:0:
482,328,23242,1,0,1:0:0:0:
487,338,23341,5,4,0:0:0:0:
377,198,23540,1,2,0:0:0:0:
380,364,23739,1,8,0:0:0:0:
311,277,23937,2,0,P|269:269|226:271,1,83.5,4|0,0:0|0:0,0:0:0:0:
134,306,24335,1,0,0:0:0:0:
212,163,24533,2,0,P|277:174|348:178,1,125.25,8|0,0:0|2:0,0:0:0:0:
377,198,24931,5,0,0:0:0:0:
342,104,25129,1,0,0:0:0:0:
312,277,25328,1,8,0:0:0:0:
420,329,25527,1,8,0:0:0:0:
241,167,25725,5,8,0:0:0:0:
210,162,25825,1,0,0:0:0:0:
179,166,25924,1,8,0:3:0:0:
150,178,26023,1,0,0:0:0:0:
123,195,26123,2,0,P|107:272|94:349,1,156.5625,14|0,0:0|2:0,0:0:0:0:
94,350,26520,5,4,0:0:0:0:
209,373,26719,1,2,0:0:0:0:
312,277,26917,1,0,0:0:0:0:
232,211,27116,1,2,0:0:0:0:
304,368,27315,1,0,0:0:0:0:
169,296,27513,1,2,0:0:0:0:
96,190,27712,2,0,L|105:104,1,83.5,0|2,0:2|0:0,0:0:0:0:
303,284,28109,6,0,L|311:367,1,83.5,0|2,0:2|0:0,0:0:0:0:
289,184,28507,1,0,0:0:0:0:
215,288,28705,1,2,0:0:0:0:
384,212,28904,1,0,0:0:0:0:
473,320,29103,2,0,P|433:348|385:344,1,83.5,2|0,0:0|0:0,0:0:0:0:
384,212,29500,1,0,0:0:0:0:
393,204,29599,1,0,0:0:0:0:
401,196,29699,6,0,L|498:188,1,83.5,2|0,0:2|0:0,0:0:0:0:
331,271,30096,2,0,L|247:277,1,83.5,2|0,0:2|0:0,0:0:0:0:
168,215,30493,1,0,0:0:0:0:
33,288,30692,1,2,0:0:0:0:
168,307,30891,1,0,0:0:0:0:
92,360,31089,1,2,0:0:0:0:
46,201,31288,6,0,P|57:161|46:121,1,83.5,0|2,0:0|0:0,0:0:0:0:
8,37,31686,1,0,0:0:0:0:
46,201,31884,1,2,0:0:0:0:
174,157,32083,1,0,0:0:0:0:
276,61,32282,2,0,P|253:30|206:14,1,83.5,4|0,0:0|0:0,0:0:0:0:
256,188,32679,1,10,0:0:0:0:
292,352,32878,6,0,L|305:268,1,83.5,4|2,0:0|0:0,0:0:0:0:
380,320,33275,2,0,L|472:312,1,83.5,0|2,0:0|0:0,0:0:0:0:
225,297,33672,2,0,B|157:309|126:262|126:262|93:258|50:285,1,167
197,219,34268,1,2,0:0:0:0:
107,355,34467,5,0,0:0:0:0:
152,188,34666,2,0,L|137:105,1,83.5,2|0,0:0|0:0,0:0:0:0:
56,25,35063,1,2,0:0:0:0:
29,168,35262,1,0,0:0:0:0:
229,227,35460,2,0,L|244:310,1,83.5,2|0,0:0|0:0,0:0:0:0:
317,132,35858,1,2,0:0:0:0:
466,272,36056,6,0,P|399:281|351:245,1,125.25
337,223,36454,1,0,0:0:0:0:
423,135,36652,1,2,0:0:0:0:
266,193,36851,2,0,L|182:200,1,83.5,0|2,0:2|0:0,0:0:0:0:
58,307,37248,2,0,L|142:300,1,83.5,0|2,0:2|0:0,0:0:0:0:
219,362,37646,5,0,0:0:0:0:
161,218,37844,1,2,0:0:0:0:
314,324,38043,1,0,0:0:0:0:
281,225,38242,1,2,0:0:0:0:
142,300,38440,2,0,L|58:307,1,83.5,2|2,0:0|0:0,0:0:0:0:
194,160,38838,1,8,0:0:0:0:
271,287,39037,1,0,0:0:0:0:
154,225,39235,6,0,P|71:233|3:178,2,167,12|10|0,0:0|0:0|0:0,0:0:0:0:
308,175,40229,1,0,0:0:0:0:
308,175,40626,1,0,0:0:0:0:
344,268,40825,6,0,P|378:244|401:198,1,83.5,2|0,0:0|0:0,0:0:0:0:
356,76,41222,1,10,0:0:0:0:
194,156,41421,1,2,0:0:0:0:
344,268,41619,1,2,0:0:0:0:
270,98,41818,1,0,0:0:0:0:
231,241,42017,2,0,L|241:333,1,83.5,10|8,0:0|0:0,0:0:0:0:
258,352,42315,1,0,0:0:0:0:
258,352,42414,6,0,L|242:184,1,167,12|10,0:0|0:0,0:0:0:0:
241,172,43209,1,0,0:0:0:0:
197,46,43407,1,0,0:0:0:0:
197,46,43805,2,0,L|250:53,1,41.75,0|8,0:0|2:3,0:0:0:0:
269,90,44003,6,0,L|351:79,1,83.5,2|8,0:2|0:0,0:0:0:0:
197,46,44401,1,8,0:0:0:0:
237,201,44599,1,2,2:0:0:0:
108,100,44798,2,0,P|53:126|30:183,1,125.25,0|0,0:0|0:0,0:0:0:0:
32,195,45195,1,8,0:0:0:0:
38,205,45295,1,8,0:3:0:0:
44,215,45394,1,4,0:3:0:0:
147,336,45593,6,0,P|188:332|226:315,1,83.5,4|0,0:0|0:0,0:0:0:0:
310,266,45990,1,8,0:0:0:0:
161,225,46189,2,0,P|123:207|81:203,1,83.5,2|0,0:0|0:0,0:0:0:0:
227,315,46586,5,0,0:0:0:0:
325,184,46785,1,8,0:0:0:0:
227,315,46984,1,2,0:2:0:0:
376,344,47182,6,0,P|412:348|460:328,1,83.5
310,266,47580,2,0,L|324:183,1,83.5,8|2,0:0|0:0,0:0:0:0:
273,92,47977,1,0,0:0:0:0:
238,202,48176,1,0,0:0:0:0:
376,113,48374,1,8,0:0:0:0:
398,228,48573,1,2,2:0:0:0:
402,239,48672,1,8,0:0:0:0:
407,250,48772,5,4,0:0:0:0:
376,113,48970,1,0,0:0:0:0:
273,92,49169,1,8,0:0:0:0:
238,202,49368,1,0,0:0:0:0:
428,168,49566,5,8,0:0:0:0:
452,54,49765,1,0,0:0:0:0:
331,16,49964,1,8,0:0:0:0:
335,224,50162,5,0,0:0:0:0:
459,250,50361,1,8,0:0:0:0:
501,118,50560,1,0,0:0:0:0:
383,303,50758,1,8,0:0:0:0:
376,108,50957,6,0,L|385:126,8,20.875,2|0|0|0|0|0|0|0|0,0:0|0:0|0:0|0:0|0:0|0:0|0:0|0:0|0:0,0:0:0:0:
393,144,51454,1,4,0:3:0:0:
399,160,51553,2,0,L|376:363,1,187.875007166863,14|0,0:0|0:0,0:0:0:0:
454,304,51950,6,0,P|410:285|358:283,1,83.5,4|2,0:0|0:0,0:0:0:0:
251,207,52347,2,0,P|207:226|155:228,1,83.5,8|2,0:0|0:0,0:0:0:0:
74,207,52744,1,0,0:0:0:0:
189,153,52943,1,0,0:0:0:0:
116,293,53142,5,8,0:0:0:0:
101,129,53340,1,2,0:0:0:0:
101,129,53440,1,0,0:0:0:0:
101,129,53539,2,0,L|76:40,1,83.5,0|0,0:0|0:0,0:0:0:0:
189,153,53936,2,0,B|230:135|269:141|269:141|317:111,1,125.25,10|0,0:0|0:0,0:0:0:0:
351,97,54334,6,0,L|346:188,1,83.5,4|2,0:0|0:0,0:0:0:0:
336,304,54731,1,8,0:0:0:0:
474,348,54930,1,2,0:0:0:0:
428,132,55128,2,0,P|415:192|441:254,1,125.25,0|0,0:0|2:0,0:0:0:0:
456,297,55526,5,8,0:0:0:0:
496,190,55724,1,2,0:0:0:0:
336,304,55923,1,0,0:0:0:0:
224,264,56122,1,2,0:2:0:0:
201,138,56320,2,0,P|212:99|245:65,1,83.5,10|0,0:0|0:0,0:0:0:0:
296,145,56718,6,0,P|226:122|156:51,1,167,0|10,0:0|0:0,0:0:0:0:
137,34,57214,1,0,0:0:0:0:
104,41,57314,1,8,0:0:0:0:
76,60,57413,1,0,0:0:0:0:
57,87,57512,6,0,B|34:170|34:170|47:228,1,125.25,4|0,0:0|0:0,0:0:0:0:
48,241,57910,1,8,0:0:0:0:
188,298,58108,2,0,L|200:210,1,83.5,2|0,0:0|0:0,0:0:0:0:
60,286,58506,1,0,0:0:0:0:
138,366,58704,1,8,0:0:0:0:
230,169,58903,1,2,0:0:0:0:
241,163,59002,1,0,0:0:0:0:
252,157,59102,6,0,P|260:111|249:70,1,83.5,0|2,0:0|0:0,0:0:0:0:
169,18,59499,1,8,0:0:0:0:
300,116,59698,1,0,0:0:0:0:
300,116,59797,2,0,L|439:108,1,125.25,8|0,0:0|0:0,0:0:0:0:
512,164,60294,1,10,0:0:0:0:
448,17,60492,5,2,0:0:0:0:
350,186,60691,2,0,L|339:283,1,83.5,4|0,0:0|0:0,0:0:0:0:
391,354,61088,2,0,P|324:361|271:335,1,125.25,8|0,0:0|0:0,0:0:0:0:
231,357,61486,1,0,0:0:0:0:
425,243,61684,1,2,0:0:0:0:
437,239,61784,1,8,0:0:0:0:
449,237,61883,5,0,0:0:0:0:
335,364,62082,2,0,L|206:356,1,125.25,4|0,0:0|0:0,0:0:0:0:
160,353,62479,1,0,0:0:0:0:
177,152,62678,1,8,0:0:0:0:
65,283,62877,5,4,3:2:0:0:
222,246,63075,1,2,2:0:0:0:
234,249,63175,1,8,0:0:0:0:
245,254,63274,1,0,0:0:0:0:
64,182,63473,1,8,0:0:0:0:
256,257,63671,5,2,2:2:0:0:
268,260,63771,1,8,0:0:0:0:
280,264,63870,2,0,P|308:270|360:256,1,83.5,4|2,0:0|0:0,0:0:0:0:
452,216,64267,1,8,0:0:0:0:
408,47,64466,2,0,L|397:142,1,83.5,2|0,0:0|0:0,0:0:0:0:
428,261,64863,1,0,0:0:0:0:
321,154,65062,6,0,P|293:148|241:162,1,83.5,8|2,0:0|0:0,0:0:0:0:
231,170,65360,1,0,0:0:0:0:
220,176,65459,2,0,L|125:170,1,83.5,0|2,0:0|0:0,0:0:0:0:
36,168,65856,2,0,P|95:194|125:251,1,125.25,10|8,0:0|0:0,0:0:0:0:
144,316,66254,5,4,0:0:0:0:
44,252,66452,1,2,0:0:0:0:
137,88,66651,1,8,0:0:0:0:
231,170,66850,1,2,0:0:0:0:
138,303,67048,1,0,0:0:0:0:
114,181,67247,1,0,0:0:0:0:
154,322,67446,6,0,P|186:329|270:295,1,125.25,8|0,0:0|0:0,0:0:0:0:
298,255,67843,1,0,0:0:0:0:
256,83,68042,1,2,0:2:0:0:
215,197,68240,2,0,L|207:329,1,125.25,10|0,0:0|0:0,0:0:0:0:
206,372,68638,5,0,0:0:0:0:
350,334,68836,1,0,0:0:0:0:
459,223,69035,1,8,0:0:0:0:
452,212,69134,1,0,0:0:0:0:
445,200,69234,1,4,0:3:0:0:
438,189,69333,1,0,0:0:0:0:
432,178,69432,6,0,B|378:179|348:147|348:147|320:144|296:151,1,125.25,4|0,0:0|0:0,0:0:0:0:
266,165,69830,1,0,0:0:0:0:
410,100,70028,1,2,0:0:0:0:
294,256,70227,1,0,0:2:0:0:
390,202,70426,1,2,0:2:0:0:
315,62,70624,2,0,L|232:67,1,83.5,8|2,0:0|0:0,0:0:0:0:
410,29,71022,5,0,0:0:0:0:
293,142,71220,1,2,0:0:0:0:
419,198,71419,2,0,L|402:330,1,125.25,8|8,0:0|0:0,0:0:0:0:
393,371,71816,1,2,1:2:0:0:
393,371,72015,1,0,0:0:0:0:
325,282,72214,1,8,0:0:0:0:
483,318,72412,5,2,0:0:0:0:
324,282,72611,2,0,B|275:273|242:304|242:304|205:290|158:309,1,167,4|8,0:0|0:0,0:0:0:0:
70,339,73207,1,2,0:0:0:0:
139,227,73406,2,0,P|180:217|221:216,1,83.5,2|0,0:0|0:0,0:0:0:0:
264,239,73704,2,0,P|291:238|310:232,1,41.75,8|8,0:0|0:0,0:0:0:0:
154,52,74002,6,0,L|140:194,1,125.25,4|0,0:0|0:0,0:0:0:0:
139,227,74399,1,0,0:0:0:0:
239,24,74598,1,10,0:0:0:0:
73,107,74797,1,4,0:0:0:0:
237,149,74995,5,0,0:0:0:0:
267,157,75094,1,0,0:0:0:0:
298,156,75193,1,0,0:0:0:0:
327,146,75293,1,0,0:0:0:0:
352,127,75393,2,0,L|368:187,1,41.75,4|0,0:3|0:0,0:0:0:0:
424,69,75591,2,0,L|413:28,1,41.75,8|0,0:3|0:0,0:0:0:0:
457,182,75790,5,12,0:0:0:0:
393,292,75989,1,0,0:0:0:0:
353,127,76187,2,0,L|332:46,1,83.5,8|0,0:0|0:0,0:0:0:0:
370,209,76585,5,8,0:0:0:0:
258,278,76783,1,2,0:0:0:0:
276,151,76982,1,8,0:0:0:0:
396,317,77181,1,2,0:0:0:0:
276,151,77379,5,8,0:0:0:0:
258,278,77578,1,0,0:0:0:0:
353,127,77777,2,0,P|331:92|290:69,1,83.5,8|0,0:0|0:0,0:0:0:0:
372,240,78174,5,10,0:0:0:0:
381,32,78373,1,2,0:0:0:0:
262,148,78571,2,0,L|275:246,1,83.5,10|2,0:0|0:0,0:0:0:0:
325,354,78969,5,12,0:0:0:0:
480,324,79167,1,0,0:0:0:0:
328,270,79366,1,8,0:0:0:0:
229,329,79565,1,0,0:0:0:0:
413,377,79763,5,8,0:0:0:0:
467,240,79962,1,2,0:0:0:0:
381,145,80161,1,10,0:0:0:0:
400,306,80359,1,4,0:0:0:0:
435,85,80558,5,2,0:0:0:0:
247,121,80757,1,0,0:0:0:0:
327,216,80955,1,0,0:0:0:0:
336,224,81055,1,8,0:0:0:0:
344,233,81154,1,0,0:0:0:0:
188,173,81353,2,0,B|159:146|98:169|98:169|85:210|41:226,1,167,8|0,0:0|0:0,0:0:0:0:
42,230,81850,1,8,0:0:0:0:
32,240,81949,1,4,1:3:0:0:
255,99,82148,6,0,L|343:90,1,83.5,4|2,0:0|0:0,0:0:0:0:
252,240,82545,2,0,L|168:248,1,83.5,8|2,0:0|0:0,0:0:0:0:
320,168,82942,1,0,0:0:0:0:
352,328,83141,1,0,0:0:0:0:
252,240,83340,2,0,L|113:254,1,125.25,8|0,0:0|0:0,0:0:0:0:
80,264,83737,5,0,0:0:0:0:
108,162,83936,1,2,0:2:0:0:
220,336,84134,2,0,P|183:342|136:324,1,83.5,8|0,0:0|0:0,0:0:0:0:
324,232,84532,2,0,P|360:226|408:244,1,83.5,0|2,0:2|0:2,0:0:0:0:
352,328,84929,1,8,0:0:0:0:
243,176,85128,1,2,3:2:0:0:
243,176,85227,1,8,0:0:0:0:
243,176,85326,6,0,L|231:75,1,83.5,0|2,0:0|0:0,0:0:0:0:
128,278,85724,2,0,L|143:154,1,125.25,8|0,0:0|0:0,0:0:0:0:
147,127,86121,1,0,0:0:0:0:
208,256,86320,1,2,0:2:0:0:
52,178,86518,1,8,0:0:0:0:
212,86,86717,6,0,L|306:76,1,83.5,2|4,0:2|0:0,0:0:0:0:
306,83,87015,1,0,0:0:0:0:
316,89,87114,1,0,0:0:0:0:
327,95,87214,1,0,0:0:0:0:
337,100,87313,1,8,0:0:0:0:
208,256,87512,6,0,L|169:342,1,83.5,4|2,0:0|0:0,0:0:0:0:
324,208,87909,1,4,0:0:0:0:
200,136,88108,1,2,0:0:0:0:
288,356,88306,1,4,0:0:0:0:
256,192,88406,12,0,90889,0:0:0:0:
