osu file format v12

[General]
AudioFilename: Little Busters! (TV Size) [-Sekai-].mp3
AudioLeadIn: 0
PreviewTime: 48207
Countdown: 0
SampleSet: Soft
StackLeniency: 0.7
Mode: 0
LetterboxInBreaks: 0

[Editor]
Bookmarks: 6882,87740
DistanceSpacing: 1.1
BeatDivisor: 4
GridSize: 4

[Metadata]
Title:Little Busters! -TV animation ver.-
TitleUnicode:Little Busters! -TV animation ver.-
Artist:Rita
ArtistUnicode:Rita
Creator:Sekai-nyan
Version:Hard
Source:Little Busters!
Tags:key opening DarknessAngel Mikan BeatofIke Verdisphena KinomiCandy Quilt
BeatmapID:243851
BeatmapSetID:56940

[Difficulty]
HPDrainRate:6
CircleSize:4
OverallDifficulty:6
ApproachRate:7
SliderMultiplier:1.4
SliderTickRate:1

[Events]
//Background and Video events
0,0,"BG.jpg",0,0
Video,0,"Little Busters! OP.flv"
//Break Periods
//Storyboard Layer 0 (Background)
//Storyboard Layer 1 (Fail)
//Storyboard Layer 2 (Pass)
//Storyboard Layer 3 (Foreground)
//Storyboard Sound Samples
//Background Colour Transformations
3,100,163,162,255

[TimingPoints]
525,397.350993377483,4,2,1,60,1,0
25955,-100,4,2,1,60,0,0
38273,-100,4,1,1,50,0,0
38670,-100,4,2,1,70,0,0
50789,-100,4,1,1,60,0,0
51385,397.350993377483,3,2,1,70,1,0
51385,-100,3,2,1,70,0,1
56947,397.350993377483,4,2,1,70,1,1
63304,397.350993377483,3,2,1,70,1,1
68866,397.350993377483,4,2,1,70,1,1
75224,-100,4,2,1,70,0,0
86250,-100,4,2,1,40,0,0
86846,-100,4,2,1,70,0,0

[Colours]
Combo1 : 251,228,134
Combo2 : 248,139,171
Combo3 : 157,158,225
Combo4 : 187,186,192

[HitObjects]
84,328,6882,1,4,0:0:0:0:
52,176,7279,1,2,0:0:0:0:
136,44,7677,1,0,0:0:0:0:
288,28,8074,1,2,0:0:0:0:
324,96,8273,1,0,0:0:0:0:
380,44,8472,2,0,P|464:44|504:100,1,140,0|2,0:0|0:0,0:0:0:0:
456,144,9068,1,0,0:0:0:0:
428,216,9266,2,0,P|396:268|400:292,1,70
464,316,9664,2,0,P|432:344|404:348,1,70,2|8,0:0|0:0,0:0:0:0:
336,320,10061,6,0,P|272:292|200:328,1,140,0|2,0:0|0:0,0:0:0:0:
140,344,10657,1,0,0:0:0:0:
80,292,10856,2,0,P|100:220|56:148,1,140,0|2,0:0|0:0,0:0:0:0:
60,88,11452,1,0,0:0:0:0:
120,40,11650,2,8,L|176:32,4,35
152,112,12246,1,4,0:0:0:0:
308,112,12644,2,0,P|352:92|424:144,1,140,4|0,0:0|0:0,0:0:0:0:
356,168,13240,5,4,0:0:0:0:
400,228,13438,1,0,0:0:0:0:
344,280,13637,2,0,P|292:312|196:300,1,140,8|0,0:0|0:0,0:0:0:0:
148,348,14233,1,0,0:0:0:0:
108,284,14432,2,0,P|100:244|120:208,1,70,8|0,0:0|0:0,0:0:0:0:
64,156,14829,6,0,P|128:140|188:208,1,140,0|8,0:0|0:0,0:0:0:0:
252,216,15425,1,0,0:0:0:0:
252,216,15624,2,0,P|324:228|372:160,1,140,0|8,0:0|0:0,0:0:0:0:
444,192,16220,1,0,0:0:0:0:
460,268,16419,6,0,P|460:328|388:364,2,140,2|8|2,0:0|0:0|0:0,0:0:0:0:
444,192,17412,1,0,0:0:0:0:
472,120,17611,1,8,0:0:0:0:
428,56,17809,1,0,0:0:0:0:
360,92,18008,2,0,L|212:92,1,140,2|8,0:0|0:0,0:0:0:0:
156,132,18604,1,0,0:0:0:0:
116,196,18803,2,0,L|104:244,2,35,0|0|0,0:0|0:0|0:0,0:0:0:0:
192,200,19200,2,0,L|204:240,2,35,8|0|0,0:0|0:0|0:0,0:0:0:0:
156,132,19597,6,0,P|96:120|40:176,1,140,4|8,0:0|0:0,0:0:0:0:
32,248,20193,1,0,0:0:0:0:
68,316,20392,2,0,B|132:348|132:348|208:312,1,140,0|8,0:0|0:0,0:0:0:0:
256,272,20988,1,0,0:0:0:0:
332,256,21187,2,0,B|396:232|396:232|464:264,1,140,0|8,0:0|0:0,0:0:0:0:
488,188,21783,1,0,0:0:0:0:
488,112,21981,2,0,P|448:100|424:72,1,70
384,16,22379,2,0,P|352:48|356:88,1,70,8|0,0:0|0:0,0:0:0:0:
316,140,22776,6,0,P|256:168|176:132,1,140,2|8,0:0|0:0,0:0:0:0:
148,208,23372,2,0,P|116:132|152:80,1,140,2|0,0:0|0:0,0:0:0:0:
189,146,23968,2,0,P|221:222|185:274,1,140,8|2,0:0|0:0,0:0:0:0:
132,312,24564,1,0,0:0:0:0:
204,344,24763,2,0,L|288:344,1,70,8|0,0:0|0:0,0:0:0:0:
348,368,25160,2,0,P|352:324|320:288,1,70
272,264,25558,1,8,0:0:0:0:
424,244,25955,6,0,P|456:216|444:120,1,140,4|8,0:0|0:0,0:0:0:0:
444,48,26551,1,0,0:0:0:0:
450,126,26750,2,0,L|298:126,1,140,0|8,0:0|0:0,0:0:0:0:
256,72,27346,1,0,0:0:0:0:
202,126,27544,2,0,P|134:154|74:126,1,140,0|8,0:0|0:0,0:0:0:0:
136,76,28140,1,0,0:0:0:0:
136,76,28339,2,0,P|144:152|76:204,1,140,0|8,0:0|0:0,0:0:0:0:
52,252,28935,1,0,0:0:0:0:
72,332,29134,6,0,P|104:320|128:272,1,70
176,236,29531,2,0,P|208:252|224:296,1,70,8|0,0:0|0:0,0:0:0:0:
204,356,29928,2,0,P|260:356|292:272,1,140,0|8,0:0|0:0,0:0:0:0:
344,228,30524,1,0,0:0:0:0:
344,228,30723,2,0,P|408:200|472:244,2,140,0|8|0,0:0|0:0|0:0,0:0:0:0:
280,184,31717,1,0,0:0:0:0:
312,116,31915,1,8,0:0:0:0:
264,56,32114,1,0,0:0:0:0:
192,84,32313,6,0,B|120:68|128:120|44:88,1,140,4|8,0:0|0:0,0:0:0:0:
28,164,32909,1,0,0:0:0:0:
76,224,33107,2,0,P|144:236|212:192,1,140,0|8,0:0|0:0,0:0:0:0:
280,184,33703,1,0,0:0:0:0:
352,216,33902,2,0,P|385:275|373:343,2,140,0|8|0,0:0|0:0|0:0,0:0:0:0:
280,184,34895,1,0,0:0:0:0:
212,152,35094,2,0,P|240:116|268:108,1,70,8|0,0:0|0:0,0:0:0:0:
340,100,35491,6,0,P|320:52|232:40,2,140,0|8|0,0:0|0:0|0:0,0:0:0:0:
412,124,36485,1,0,0:0:0:0:
472,176,36683,1,8,0:0:0:0:
452,252,36882,1,0,0:0:0:0:
452,252,37081,2,0,P|392:264|304:252,1,140,0|8,0:0|0:0,0:0:0:0:
256,204,37677,1,0,0:0:0:0:
204,260,37875,2,0,P|144:248|56:260,1,140,0|8,0:0|0:0,0:0:0:0:
32,188,38472,1,0,0:0:0:0:
44,112,38670,5,4,0:0:0:0:
164,12,39068,1,8,0:0:0:0:
272,124,39465,1,0,0:0:0:0:
324,184,39664,1,0,0:0:0:0:
256,48,40061,1,8,0:0:0:0:
272,124,40260,6,0,P|244:184|292:256,1,140,0|8,0:0|0:0,0:0:0:0:
316,312,40856,1,0,0:0:0:0:
392,324,41054,2,0,P|422:262|394:202,1,140,0|12,0:0|0:0,0:0:0:0:
380,128,41650,1,0,0:0:0:0:
328,68,41849,1,0,0:0:0:0:
184,68,42246,1,8,0:0:0:0:
172,220,42644,1,0,0:0:0:0:
132,284,42842,1,0,0:0:0:0:
284,260,43240,5,8,0:0:0:0:
284,260,43438,2,0,B|360:284|344:240|432:260,1,140,0|8,0:0|0:0,0:0:0:0:
396,332,44034,1,0,0:0:0:0:
472,312,44233,2,0,L|488:280,3,35
496,244,44630,2,0,L|504:200,3,35,8|0|0|0,0:0|0:0|0:0|0:0,0:0:0:0:
504,172,45028,2,0,P|504:124|484:104,1,70,4|0,0:0|0:0,0:0:0:0:
428,156,45425,5,8,0:0:0:0:
424,80,45624,1,0,0:0:0:0:
360,40,45823,2,0,P|288:20|224:36,1,140,0|8,0:0|0:0,0:0:0:0:
204,108,46419,1,0,0:0:0:0:
264,156,46617,2,0,P|200:188|132:144,2,140,0|8|0,0:0|0:0|0:0,0:0:0:0:
332,196,47611,1,0,0:0:0:0:
356,124,47809,1,8,0:0:0:0:
424,160,48008,1,0,0:0:0:0:
396,232,48207,6,0,P|424:256|414:349,1,140,4|8,0:0|0:0,0:0:0:0:
352,300,48803,1,0,0:0:0:0:
276,304,49001,2,0,P|248:320|204:308,1,70
148,356,49399,2,0,P|136:308|156:276,1,70,8|0,0:0|0:0,0:0:0:0:
200,240,49796,2,0,P|164:216|72:256,2,140,0|8|0,0:0|0:0|0:0,0:0:0:0:
272,212,50789,2,0,L|308:196,2,35,0|0|8,0:0|0:0|0:0,0:0:0:0:
256,60,51385,5,4,0:0:0:0:
192,20,51583,1,0,0:0:0:0:
140,76,51782,1,8,0:0:0:0:
204,116,51981,1,0,0:0:0:0:
204,116,52179,2,0,P|152:156|84:128,1,140,0|8,0:0|0:0,0:0:0:0:
36,192,52775,5,0,0:0:0:0:
12,264,52974,1,0,0:0:0:0:
52,328,53173,1,0,0:0:0:0:
52,328,53371,2,0,P|116:312|192:336,1,140,8|4,0:0|0:0,0:0:0:0:
240,276,53967,1,0,0:0:0:0:
264,348,54166,2,0,P|328:352|388:304,1,140,8|0,0:0|0:0,0:0:0:0:
448,264,54762,1,0,0:0:0:0:
476,192,54961,5,8,0:0:0:0:
460,116,55159,2,0,P|424:56|352:52,1,140,0|0,0:0|0:0,0:0:0:0:
380,132,55755,1,8,0:0:0:0:
304,152,55954,1,0,0:0:0:0:
256,92,56153,1,4,0:0:0:0:
204,148,56351,1,0,0:0:0:0:
256,204,56550,2,0,L|256:252,4,35,8|0|0|0|4,0:0|0:0|0:0|0:0|0:0,0:0:0:0:
188,348,57344,6,0,P|120:320|52:356,2,140,8|0|8,0:0|0:0|0:0,0:0:0:0:
256,316,58337,1,0,0:0:0:0:
332,336,58536,2,0,P|400:364|457:339,1,140,0|8,0:0|0:0,0:0:0:0:
480,264,59132,1,0,0:0:0:0:
452,192,59331,2,0,P|384:164|326:188,1,140,0|8,0:0|0:0,0:0:0:0:
256,216,59927,5,0,0:0:0:0:
256,216,60026,1,0,0:0:0:0:
256,216,60125,2,0,B|228:160|284:116|252:72,2,140,4|8|0,0:0|0:0|0:0,0:0:0:0:
184,248,61119,1,0,0:0:0:0:
116,288,61317,2,0,P|104:248|120:212,1,70,8|0,0:0|0:0,0:0:0:0:
44,188,61715,2,0,P|88:152|172:176,1,140,0|8,0:0|0:0,0:0:0:0:
188,96,62311,2,0,P|264:112|308:76,1,140
372,36,62907,1,8,0:0:0:0:
448,28,63105,1,0,0:0:0:0:
432,104,63304,6,0,P|428:152|448:188,1,70,4|0,0:0|0:0,0:0:0:0:
508,204,63701,2,0,P|484:240|384:232,1,140,8|0,0:0|0:0,0:0:0:0:
340,296,64297,1,0,0:0:0:0:
300,232,64496,2,0,L|148:232,1,140,8|0,0:0|0:0,0:0:0:0:
112,172,65092,1,0,0:0:0:0:
152,108,65290,2,0,L|292:108,1,140,8|4,0:0|0:0,0:0:0:0:
340,48,65886,5,0,0:0:0:0:
376,116,66085,2,0,P|416:124|456:112,1,70,8|0,0:0|0:0,0:0:0:0:
504,72,66482,2,0,P|524:112|508:152,1,70
468,192,66880,2,0,P|448:260|488:332,1,140,8|0,0:0|0:0,0:0:0:0:
404,348,67476,1,0,0:0:0:0:
332,376,67674,1,8,0:0:0:0:
256,356,67873,1,0,0:0:0:0:
212,292,68072,2,0,B|184:224|184:224|212:152,1,140,0|8,0:0|0:0,0:0:0:0:
256,100,68668,5,0,0:0:0:0:
304,164,68866,2,0,B|332:232|332:232|304:304,1,140,4|8,0:0|0:0,0:0:0:0:
376,328,69462,2,0,L|408:252,1,70
468,220,69859,1,0,0:0:0:0:
396,188,70058,2,0,L|364:120,1,70,8|0,0:0|0:0,0:0:0:0:
388,52,70455,2,0,P|320:56|284:128,1,140,0|8,0:0|0:0,0:0:0:0:
240,176,71051,1,0,0:0:0:0:
184,124,71250,2,0,P|124:108|40:128,1,140,0|8,0:0|0:0,0:0:0:0:
32,200,71846,1,0,0:0:0:0:
16,276,72044,5,4,0:0:0:0:
88,304,72243,1,0,0:0:0:0:
108,228,72442,1,8,0:0:0:0:
108,228,72640,2,0,B|176:256|176:256|244:220,1,140,0|0,0:0|0:0,0:0:0:0:
280,160,73236,2,0,P|304:188|312:228,1,70,8|0,0:0|0:0,0:0:0:0:
336,292,73634,2,0,P|380:260|384:180,1,140,0|8,0:0|0:0,0:0:0:0:
456,156,74230,2,0,P|408:152|356:80,1,140
304,24,74826,1,8,0:0:0:0:
228,8,75024,1,0,0:0:0:0:
160,40,75223,5,4,0:0:0:0:
68,164,75620,1,8,0:0:0:0:
68,164,76018,1,8,0:0:0:0:
124,308,76415,1,8,0:0:0:0:
124,308,76813,5,8,0:0:0:0:
244,216,77210,1,8,0:0:0:0:
244,216,77607,1,8,0:0:0:0:
356,324,78005,1,8,0:0:0:0:
356,324,78402,5,8,0:0:0:0:
432,192,78799,1,8,0:0:0:0:
472,128,78998,1,0,0:0:0:0:
404,88,79197,1,8,0:0:0:0:
364,156,79395,1,0,0:0:0:0:
296,192,79594,2,0,L|224:192,1,70,8|0,0:0|0:0,0:0:0:0:
176,132,79991,1,4,0:0:0:0:
100,140,80190,6,0,L|52:112,2,35,0|0|8,0:0|0:0|0:0,0:0:0:0:
92,216,80587,2,0,L|52:236,2,35,0|0|8,0:0|0:0|0:0,0:0:0:0:
156,260,80985,1,0,0:0:0:0:
212,312,81183,1,8,0:0:0:0:
160,368,81382,1,0,0:0:0:0:
256,192,81582,12,0,85555,0:0:0:0:
256,192,86349,6,8,L|312:192,4,35
208,132,86945,1,4,0:0:0:0:
68,192,87342,1,4,0:0:0:0:
208,280,87740,1,4,0:0:0:0:
