osu file format v10

[General]
AudioFilename: Little Busters! (TV Size).mp3
AudioLeadIn: 0
PreviewTime: 48020
Countdown: 0
SampleSet: Normal
StackLeniency: 0.7
Mode: 0
LetterboxInBreaks: 0

[Editor]
DistanceSpacing: 0.4
BeatDivisor: 4
GridSize: 4

[Metadata]
Title:Little Busters! -TV animation ver.-
TitleUnicode:Little Busters! -TV animation ver.-
Artist:Rita
ArtistUnicode:Rita
Creator:Nyquill
Version:Insane
Source:Little Busters!
Tags:Makar xCherry Makar8000 Xakyrie Haruka sweet_serenitee opening jonathanlfj key
BeatmapID:170196
BeatmapSetID:56259

[Difficulty]
HPDrainRate:7
CircleSize:4
OverallDifficulty:7
ApproachRate:8
SliderMultiplier:1.8
SliderTickRate:1

[Events]
//Background and Video events
0,0,"bg.png"
Video,0,"Little Busters! OP [TV Size].AVI"
//Break Periods
//Storyboard Layer 0 (Background)
//Storyboard Layer 1 (Fail)
//Storyboard Layer 2 (Pass)
//Storyboard Layer 3 (Foreground)
//Storyboard Sound Samples
//Background Colour Transformations
3,100,163,162,255

[TimingPoints]
525,397.350993377483,4,2,1,50,1,0
9763,-100,4,1,1,50,0,0
9961,-100,4,2,1,50,0,0
12047,-100,4,1,1,50,0,0
25955,-100,4,2,1,50,0,0
32014,-100,4,1,1,50,0,0
32213,-100,4,2,1,50,0,0
38173,-100,4,1,1,50,0,0
38372,-100,4,2,1,50,0,0
38670,-100,4,1,1,50,0,0
51385,397.350993377483,6,1,1,50,1,1
53769,397.350993377483,4,1,1,50,1,1
62510,-100,4,1,1,50,0,0
63305,397.350993377483,6,1,1,50,1,1
65689,397.350993377483,4,1,1,50,1,1
72047,-100,4,1,1,50,0,1
81583,-100,4,1,1,50,0,0
88039,-100,4,2,1,15,0,0
89430,-100,4,2,1,5,0,0

[Colours]
Combo1 : 136,128,236
Combo2 : 56,158,188
Combo3 : 95,150,135

[HitObjects]
144,76,6882,1,10,0:0:0
108,160,7081,2,0,B|100:256,1,90,0|8,0:0|0:0,0:0:0
252,228,7478,2,0,B|260:120,1,90,0|8,0:0|0:0,0:0:0
144,76,7875,1,0,0:0:0
208,312,8074,2,0,B|316:316,1,90,10|0,0:0|0:0,0:0:0
456,248,8471,6,0,B|344:244,1,90,8|0,0:0|0:0,0:0:0
336,164,8869,1,8,0:0:0
200,64,9067,1,0,0:0:0
200,64,9167,1,0,0:0:0
200,64,9266,2,0,B|176:112|188:172,1,90,8|0,0:0|0:0,0:0:0
320,252,9663,2,0,B|344:204|332:144,1,90,10|8,0:0|0:0,0:0:0
272,112,10061,5,10,0:0:0
128,192,10259,1,0,0:0:0
284,280,10458,1,8,0:0:0
200,104,10657,1,0,0:0:0
200,104,10756,1,0,0:0:0
200,104,10855,2,0,B|100:96,1,90,8|0,0:0|0:0,0:0:0
108,260,11253,2,0,B|208:248,1,90,8|0,0:0|0:0,0:0:0
28,184,11650,5,8,0:0:0
20,204,11749,1,8,0:0:0
16,228,11849,1,8,0:0:0
20,252,11948,1,8,0:0:0
24,276,12047,2,0,B|20:368,1,90,8|4,0:0|0:0,0:0:0
120,68,12643,1,0,0:0:0
252,180,13041,5,0,0:0:0
252,180,13140,1,0,0:0:0
252,180,13239,2,0,B|236:232|184:256|140:256|92:232,1,180,4|8,0:0|0:0,0:0:0
64,156,13835,1,0,0:0:0
16,232,14034,2,0,B|8:344,1,90
188,360,14432,2,0,B|196:248,1,90,8|0,0:0|0:0,0:0:0
292,324,14829,5,0,0:0:0
392,348,15028,1,0,0:0:0
416,252,15226,1,8,0:0:0
320,228,15425,1,0,0:0:0
320,228,15524,1,0,0:0:0
320,228,15624,1,0,0:0:0
416,252,15822,1,0,0:0:0
448,152,16021,1,8,0:0:0
388,56,16220,5,0,0:0:0
388,56,16319,1,0,0:0:0
388,56,16418,2,0,B|340:36|292:40|252:76|244:128,1,180,4|8,0:0|0:0,0:0:0
248,232,17014,1,0,0:0:0
344,320,17213,2,0,B|352:264|328:216,1,90
160,168,17610,2,0,B|152:224|176:272,1,90,8|0,0:0|0:0,0:0:0
256,368,18008,6,0,B|244:164,1,180,0|8,0:0|0:0,0:0:0
332,148,18604,1,0,0:0:0
348,152,18703,1,0,0:0:0
364,156,18802,1,0,0:0:0
380,160,18902,1,0,0:0:0
396,164,19001,1,0,0:0:0
480,224,19200,1,8,0:0:0
396,300,19398,5,0,0:0:0
396,300,19498,1,0,0:0:0
396,300,19597,2,0,B|352:320|288:312|248:264|252:200,1,180,4|8,0:0|0:0,0:0:0
164,196,20193,1,0,0:0:0
164,196,20292,1,0,0:0:0
164,196,20392,2,0,B|152:100,1,90
320,40,20789,2,0,B|332:136,1,90,8|0,0:0|0:0,0:0:0
416,232,21186,5,0,0:0:0
336,284,21385,1,0,0:0:0
264,232,21584,2,0,B|212:216|172:228,1,90,8|0,0:0|0:0,0:0:0
216,304,21981,1,0,0:0:0
336,192,22180,1,0,0:0:0
192,148,22379,1,8,0:0:0
328,292,22577,5,0,0:0:0
328,292,22677,1,0,0:0:0
328,292,22776,2,0,B|384:280|408:240|416:192|376:140,1,180,4|8,0:0|0:0,0:0:0
252,236,23372,2,0,B|212:264|208:324|228:368|280:384,1,180,4|8,0:0|0:0,0:0:0
336,192,23968,2,0,B|316:140|272:112|216:116|168:140,1,180,4|8,0:0|0:0,0:0:0
104,188,24564,5,0,0:0:0
160,328,24763,1,8,0:0:0
240,216,24961,1,0,0:0:0
86,282,25160,1,0,0:0:0
71,289,25259,1,8,0:0:0
56,296,25359,1,0,0:0:0
41,303,25458,1,0,0:0:0
26,310,25557,1,8,0:0:0
352,216,25955,6,0,B|388:252|372:320,1,90,8|0,0:0|0:0,0:0:0
296,280,26352,1,8,0:0:0
300,364,26551,2,0,B|248:368|208:332|196:280|216:240,1,180,0|0,0:0|0:0,0:0:0
280,188,27147,1,8,0:0:0
296,280,27345,1,0,0:0:0
216,332,27544,5,8,0:0:0
120,292,27743,2,0,B|108:196,1,90,0|8,0:0|0:0,0:0:0
224,104,28140,2,0,B|212:196,1,90,0|8,0:0|0:0,0:0:0
112,96,28537,1,0,0:0:0
112,96,28637,1,0,0:0:0
112,96,28736,2,0,B|100:-8,1,90,8|0,0:0|0:0,0:0:0
324,20,29133,6,0,B|324:92|324:92|308:124|308:124|308:208,1,180,8|8,0:0|0:0,0:0:0
264,280,29730,1,0,0:0:0
192,224,29928,2,0,B|148:208|100:224,1,90,8|0,0:0|0:0,0:0:0
20,264,30326,1,8,0:0:0
20,264,30524,1,0,0:0:0
188,132,30723,2,0,B|232:120|280:132,1,90,8|0,0:0|0:0,0:0:0
352,160,31120,1,0,0:0:0
256,40,31319,2,0,B|208:16|160:20|116:44|96:92,1,180,8|8,0:0|0:0,0:0:0
188,132,31915,1,0,0:0:0
188,132,32114,1,8,0:0:0
260,204,32312,6,0,B|260:260|236:300|184:320|128:300,1,180,8|8,0:0|0:0,0:0:0
112,212,32908,1,0,0:0:0
164,136,33107,2,0,B|188:32,2,90,8|0|8,0:0|0:0|0:0,0:0:0
112,212,33703,1,0,0:0:0
28,268,33902,6,0,B|44:372,2,90,8|0|8,0:0|0:0|0:0,0:0:0
112,212,34498,1,0,0:0:0
212,172,34696,2,0,B|236:72,1,90,8|0,0:0|0:0,0:0:0
400,64,35094,2,0,B|376:164,1,90,8|0,0:0|0:0,0:0:0
272,272,35491,6,8,B|312:88,1,180
272,16,36087,1,0,0:0:0
208,80,36286,2,0,B|116:88,1,90,8|0,0:0|0:0,0:0:0
364,48,36683,2,0,B|456:40,1,90,8|0,0:0|0:0,0:0:0
420,140,37081,6,0,B|416:244,1,90,8|0,0:0|0:0,0:0:0
360,292,37478,1,0,0:0:0
212,204,37677,2,0,B|200:108,1,90,8|0,0:0|0:0,0:0:0
124,64,38074,1,0,0:0:0
72,244,38273,2,0,B|64:336,1,90,8|0,0:0|0:0,0:0:0
268,212,38670,6,0,B|252:20,2,180,4|8|0,0:0|0:0|0:0,0:0:0
328,296,39663,1,0,0:0:0
328,296,40061,1,8,0:0:0
396,224,40259,2,0,B|448:228|500:188,1,90
328,296,40657,2,0,B|300:340|324:408,1,90,8|0,0:0|0:0,0:0:0
448,304,41054,1,0,0:0:0
420,140,41253,1,0,0:0:0
296,224,41451,1,8,0:0:0
472,216,41650,5,0,0:0:0
472,216,41749,1,0,0:0:0
472,216,41849,2,0,B|512:184|512:116|476:72|432:60,2,180,4|8|0,0:0|0:0|0:0,0:0:0
340,88,42842,1,0,0:0:0
340,88,43239,1,0,0:0:0
252,124,43438,6,0,B|144:132,1,90
324,272,43835,2,0,B|424:264,1,90,8|0,0:0|0:0,0:0:0
216,340,44233,1,0,0:0:0
204,328,44332,1,0,0:0:0
196,312,44432,1,8,0:0:0
192,296,44531,1,0,0:0:0
192,280,44630,1,8,0:0:0
196,264,44730,1,8,0:0:0
204,248,44829,1,0,0:0:0
216,236,44928,1,0,0:0:0
232,228,45028,6,0,B|224:124,1,90
248,36,45425,1,8,0:0:0
340,144,45624,2,0,B|348:228|348:228|352:280|300:312,1,180
200,328,46220,2,0,B|96:308,1,90,8|0,0:0|0:0,0:0:0
52,228,46617,5,0,0:0:0
56,132,46816,1,0,0:0:0
144,92,47014,1,8,0:0:0
236,140,47213,1,0,0:0:0
236,140,47312,1,0,0:0:0
236,140,47412,1,0,0:0:0
144,92,47610,1,0,0:0:0
224,32,47809,1,8,0:0:0
320,80,48008,5,0,0:0:0
320,80,48107,1,0,0:0:0
320,80,48206,2,0,B|420:92,1,90
472,184,48604,1,8,0:0:0
412,272,48802,1,0,0:0:0
412,272,48902,1,0,0:0:0
412,272,49001,2,0,B|316:288,1,90
152,148,49398,1,8,0:0:0
92,88,49597,5,0,0:0:0
92,88,49696,1,0,0:0:0
92,88,49796,2,0,B|60:128|68:192,1,90
224,300,50193,2,0,B|256:260|248:196,1,90,8|0,0:0|0:0,0:0:0
208,52,50590,1,0,0:0:0
204,68,50690,1,0,0:0:0
200,84,50789,1,0,0:0:0
196,100,50888,1,0,0:0:0
192,116,50988,1,0,0:0:0
188,132,51087,1,0,0:0:0
184,148,51186,1,0,0:0:0
180,164,51286,1,0,0:0:0
176,180,51385,6,0,B|192:284,1,90,4|0,0:0|0:0,0:0:0
328,292,51782,1,8,0:0:0
412,196,51981,1,0,0:0:0
344,80,52179,2,0,B|268:80|268:80|232:104|232:104|164:104,1,180,0|8,0:0|0:0,0:0:0
72,176,52775,1,0,0:0:0
72,176,52875,1,0,0:0:0
72,176,52974,2,0,B|64:276,1,90
240,324,53371,2,0,B|248:216,1,90,8|0,0:0|0:0,0:0:0
244,216,53669,1,0,0:0:0
240,200,53769,5,4,0:0:0
192,112,53967,1,0,0:0:0
280,40,54166,1,8,0:0:0
328,140,54365,1,0,0:0:0
144,192,54563,2,0,B|95:205|44:188|20:135|25:83,1,180,0|8,0:0|0:0,0:0:0
112,16,55159,1,0,0:0:0
292,112,55358,6,0,B|298:201,1,90
132,272,55755,2,0,B|128:182,1,90,8|0,0:0|0:0,0:0:0
336,144,56153,2,0,B|360:183|364:235|334:283|292:302,1,180,0|0,0:0|0:0,0:0:0
272,288,56649,1,0,0:0:0
248,280,56749,1,0,0:0:0
220,284,56848,1,0,0:0:0
196,296,56947,6,0,B|144:272|92:280|56:308|36:364,1,180,4|8,0:0|0:0,0:0:0
40,224,57543,1,0,0:0:0
40,224,57643,1,0,0:0:0
40,224,57742,2,0,B|52:176|52:176|40:132,1,90
200,32,58139,2,0,B|188:80|188:80|200:124,1,90,8|0,0:0|0:0,0:0:0
324,24,58537,5,0,0:0:0
420,68,58735,2,0,B|528:68,1,90,0|8,0:0|0:0,0:0:0
264,136,59133,1,0,0:0:0
264,136,59232,1,0,0:0:0
264,136,59331,2,0,B|148:136,1,90
372,184,59729,1,8,0:0:0
280,240,59927,5,0,0:0:0
280,240,60027,1,0,0:0:0
280,240,60126,2,0,B|216:240|216:240|176:216|176:216|104:216,1,180,4|8,0:0|0:0,0:0:0
264,136,60722,2,0,B|288:84|264:32,1,90
76,172,61119,1,0,0:0:0
76,172,61219,1,8,0:0:0
76,172,61318,2,0,B|52:216|80:280,1,90,8|0,0:0|0:0,0:0:0
172,376,61716,2,0,B|188:176,1,180,0|8,0:0|0:0,0:0:0
224,72,62312,1,0,0:0:0
108,116,62510,1,0,0:0:0
88,116,62610,1,0,0:0:0
72,116,62709,1,8,0:0:0
56,116,62808,1,0,0:0:0
36,116,62908,1,8,0:0:0
172,56,63106,5,8,0:0:0
172,56,63206,1,0,0:0:0
172,56,63305,2,0,B|254:56|254:56|277:75|277:75|354:76,1,180,4|8,0:0|0:0,0:0:0
212,136,63901,1,0,0:0:0
128,164,64099,6,0,B|95:186|84:248|116:300|162:314,1,180,0|8,0:0|0:0,0:0:0
336,248,64695,2,0,B|336:176|336:176|352:136|352:136|352:64,1,180
264,88,65291,1,8,0:0:0
220,224,65490,5,0,0:0:0
220,224,65589,1,0,0:0:0
220,224,65689,2,0,B|168:240|116:220|100:152|128:112,1,180,4|8,0:0|0:0,0:0:0
176,48,66285,1,0,0:0:0
208,136,66483,2,0,B|164:344,1,180,0|8,0:0|0:0,0:0:0
276,260,67079,6,0,B|88:232,1,180
196,336,67675,2,0,B|188:208,1,90,8|0,0:0|0:0,0:0:0
20,152,68073,2,0,B|4:252,1,90
196,104,68470,1,8,0:0:0
192,88,68569,1,0,0:0:0
188,72,68669,1,0,0:0:0
184,56,68768,1,0,0:0:0
180,40,68867,6,0,B|104:40|104:40|56:60|56:60|-12:60,1,180,4|8,0:0|0:0,0:0:0
32,156,69463,1,0,0:0:0
32,156,69563,1,0,0:0:0
32,156,69662,1,0,0:0:0
108,304,69861,1,0,0:0:0
208,176,70059,1,8,0:0:0
28,248,70258,5,0,0:0:0
208,264,70457,1,0,0:0:0
128,124,70655,1,0,0:0:0
128,124,70755,1,0,0:0:0
128,124,70854,2,0,B|132:28,1,90,8|0,0:0|0:0,0:0:0
224,180,71251,2,0,B|216:368,1,180,0|8,0:0|0:0,0:0:0
84,272,71847,1,0,0:0:0
48,184,72046,6,0,B|20:148|16:92|56:48|108:48,1,180,4|8,0:0|0:0,0:0:0
212,104,72642,2,0,B|228:156|196:200,1,90
128,136,73039,1,0,0:0:0
128,136,73139,1,0,0:0:0
128,136,73238,1,8,0:0:0
188,28,73437,1,4,0:0:0
300,76,73636,6,0,B|332:108|348:160|332:216|276:260,1,180,0|8,0:0|0:0,0:0:0
216,312,74232,1,0,0:0:0
232,148,74430,1,0,0:0:0
224,120,74530,1,0,0:0:0
204,100,74629,1,0,0:0:0
180,92,74728,1,0,0:0:0
152,100,74828,1,0,0:0:0
132,120,74927,1,0,0:0:0
124,148,75026,1,0,0:0:0
128,176,75126,1,0,0:0:0
140,200,75225,6,0,B|40:192,1,90,8|0,0:0|0:0,0:0:0
232,148,75622,2,0,B|332:156,1,90,8|0,0:0|0:0,0:0:0
152,100,76020,2,0,B|164:-8,1,90,8|0,0:0|0:0,0:0:0
224,240,76417,2,0,B|216:332,1,90,8|0,0:0|0:0,0:0:0
220,348,76715,1,0,0:0:0
224,364,76814,6,0,B|272:376|319:362,1,90,8|0,0:0|0:0,0:0:0
376,192,77212,2,0,B|328:180|280:193,1,90,8|0,0:0|0:0,0:0:0
460,272,77609,2,0,B|484:232|468:176,1,90,8|0,0:0|0:0,0:0:0
212,24,78006,2,0,B|188:64|200:124,1,90,8|0,0:0|0:0,0:0:0
204,128,78304,1,0,0:0:0
212,144,78404,6,0,B|112:136,1,90,8|0,0:0|0:0,0:0:0
64,272,78801,2,0,B|164:264,1,90,8|0,0:0|0:0,0:0:0
256,232,79198,1,8,0:0:0
344,292,79397,1,0,0:0:0
356,308,79496,1,0,0:0:0
368,324,79596,2,0,B|408:280|388:224,1,90
200,88,79993,6,0,B|160:132|180:188,1,90,0|8,0:0|0:0,0:0:0
272,156,80390,1,0,0:0:0
272,156,80490,1,0,0:0:0
272,156,80589,1,8,0:0:0
396,132,80788,1,0,0:0:0
409,106,80887,1,8,0:0:0
405,78,80987,1,0,0:0:0
387,57,81086,1,0,0:0:0
360,49,81185,1,8,0:0:0
333,57,81285,1,0,0:0:0
314,78,81384,1,8,0:0:0
312,180,81583,1,4,0:0:0
256,192,81781,12,8,85953,0:0:0
206,201,86351,1,0,0:0:0
229,219,86450,1,0,0:0:0
256,228,86549,1,0,0:0:0
287,219,86649,1,0,0:0:0
308,200,86748,1,8,0:0:0
412,104,86947,5,0,0:0:0
112,96,87344,1,0,0:0:0
256,320,87741,1,4,0:0:0
256,192,87940,12,0,89530,0:0:0
