osu file format v10

[General]
AudioFilename: Little Busters TV Size.mp3
AudioLeadIn: 2000
PreviewTime: 51227
Countdown: 0
SampleSet: Normal
StackLeniency: 0.7
Mode: 1
LetterboxInBreaks: 0

[Editor]
DistanceSpacing: 0.9
BeatDivisor: 4
GridSize: 8

[Metadata]
Title:Little Busters! -TV animation ver.-
TitleUnicode:Little Busters! -TV animation ver.-
Artist:Rita
ArtistUnicode:Rita
Creator:NatsumeRin
Version:Taiko Muzukashii
Source:Little Busters!
Tags:key jun maeda shinji orito kanpakyin climbb65588 KanaRin
BeatmapID:189995
BeatmapSetID:60697

[Difficulty]
HPDrainRate:5
CircleSize:5
OverallDifficulty:5
ApproachRate:5
SliderMultiplier:1.4
SliderTickRate:1

[Events]
//Background and Video events
0,0,"muZU.png"
//Break Periods
//Storyboard Layer 0 (Background)
//Storyboard Layer 1 (Fail)
//Storyboard Layer 2 (Pass)
//Storyboard Layer 3 (Foreground)
//Storyboard Sound Samples
//Background Colour Transformations
3,100,163,162,255

[TimingPoints]
471,397.350993377483,4,1,1,60,1,0
51331,397.350993377483,6,1,1,60,1,1
53715,397.350993377483,4,1,1,60,1,1
63251,397.350993377483,6,1,1,60,1,1
65635,397.350993377483,4,1,1,60,1,1
75171,-100,4,1,1,60,0,0

[Colours]
Combo1 : 105,165,245
Combo2 : 66,196,66
Combo3 : 222,122,222
Combo4 : 233,188,123

[HitObjects]
216,176,471,1,8,0:0:0
216,176,669,1,8,0:0:0
184,360,1663,1,8,0:0:0
192,304,1861,1,8,0:0:0
200,256,2060,1,0,0:0:0
208,208,2259,1,8,0:0:0
216,168,2656,1,8,0:0:0
216,104,3053,1,0,0:0:0
192,232,3649,1,8,0:0:0
248,200,3848,1,8,0:0:0
208,208,4047,1,0,0:0:0
208,208,4245,1,0,0:0:0
208,208,4841,1,8,0:0:0
208,208,5040,1,8,0:0:0
208,208,5239,1,0,0:0:0
208,208,5437,1,0,0:0:0
208,208,5835,1,8,0:0:0
200,328,6232,1,8,0:0:0
200,264,6828,1,0,0:0:0
200,208,7027,1,8,0:0:0
208,152,7225,1,0,0:0:0
184,216,7424,1,8,0:0:0
192,264,7623,1,0,0:0:0
96,208,8020,1,0,0:0:0
200,264,8219,1,8,0:0:0
200,264,8417,1,0,0:0:0
192,264,8815,1,0,0:0:0
80,160,9014,1,8,0:0:0
192,264,9212,1,0,0:0:0
192,264,9312,1,0,0:0:0
200,264,9411,1,8,0:0:0
208,208,9610,1,0,0:0:0
216,152,9808,1,8,0:0:0
216,152,10007,1,0,0:0:0
192,264,10404,1,0,0:0:0
128,136,10603,1,8,0:0:0
216,152,10802,1,0,0:0:0
216,152,11199,1,0,0:0:0
168,96,11398,1,8,0:0:0
136,248,11596,1,0,0:0:0
152,240,11696,1,0,0:0:0
192,184,11795,1,0,0:0:0
200,168,11894,1,0,0:0:0
232,184,11994,1,8,0:0:0
176,200,12192,1,4,0:0:0
224,88,12590,1,12,0:0:0
232,64,12987,1,12,0:0:0
224,120,13186,1,4,0:0:0
224,120,13583,1,8,0:0:0
224,120,13980,1,0,0:0:0
224,120,14179,1,0,0:0:0
224,120,14378,1,8,0:0:0
224,120,14576,1,0,0:0:0
224,120,14775,1,0,0:0:0
152,128,14874,1,0,0:0:0
224,120,14974,1,0,0:0:0
152,128,15172,1,8,0:0:0
152,128,15570,1,0,0:0:0
152,128,15669,1,0,0:0:0
152,128,15769,1,0,0:0:0
208,112,15967,1,8,0:0:0
152,128,16365,1,0,0:0:0
152,128,16563,1,0,0:0:0
152,128,16762,1,8,0:0:0
152,128,16961,1,0,0:0:0
152,128,17358,1,0,0:0:0
152,128,17557,1,8,0:0:0
152,128,17755,1,0,0:0:0
152,128,17954,1,0,0:0:0
152,128,18153,1,0,0:0:0
200,136,18351,1,8,0:0:0
200,136,18550,1,0,0:0:0
200,136,18649,1,0,0:0:0
200,136,18749,1,8,0:0:0
200,136,18947,1,0,0:0:0
200,136,19146,1,12,0:0:0
200,136,19543,1,4,0:0:0
232,256,19941,1,8,0:0:0
200,144,20338,1,0,0:0:0
216,200,20537,1,0,0:0:0
216,200,20735,1,8,0:0:0
216,200,20934,1,0,0:0:0
216,200,21133,1,0,0:0:0
216,200,21331,1,0,0:0:0
184,144,21530,1,8,0:0:0
184,168,21629,1,8,0:0:0
216,200,21729,1,8,0:0:0
184,152,21927,1,0,0:0:0
216,200,22126,1,0,0:0:0
184,152,22325,1,8,0:0:0
216,200,22523,1,0,0:0:0
184,152,22722,1,0,0:0:0
216,264,23120,1,8,0:0:0
200,216,23318,1,0,0:0:0
184,152,23716,1,0,0:0:0
184,208,23914,1,8,0:0:0
192,88,24312,1,8,0:0:0
184,144,24510,1,0,0:0:0
176,200,24709,1,0,0:0:0
176,200,24908,1,8,0:0:0
176,200,25106,1,0,0:0:0
176,200,25206,1,0,0:0:0
176,200,25305,1,0,0:0:0
176,200,25504,1,8,0:0:0
248,104,25901,1,0,0:0:0
208,152,26100,1,0,0:0:0
176,200,26298,1,8,0:0:0
240,104,26696,1,8,0:0:0
192,216,27093,1,0,0:0:0
216,168,27292,1,0,0:0:0
352,224,27391,1,0,0:0:0
232,112,27490,1,8,0:0:0
216,224,27888,1,0,0:0:0
224,168,28086,1,8,0:0:0
192,120,28285,1,0,0:0:0
208,56,28484,1,0,0:0:0
216,128,28683,1,8,0:0:0
192,168,28881,1,8,0:0:0
192,168,28980,1,8,0:0:0
200,152,29080,1,0,0:0:0
200,152,29278,1,0,0:0:0
200,152,29477,1,8,0:0:0
200,152,29874,1,8,0:0:0
200,152,30272,1,0,0:0:0
200,152,30470,1,0,0:0:0
224,208,30669,1,8,0:0:0
176,88,31067,1,0,0:0:0
200,144,31265,1,8,0:0:0
248,120,31464,1,0,0:0:0
240,256,31663,1,8,0:0:0
224,208,31861,1,8,0:0:0
200,160,32060,1,4,0:0:0
232,216,32259,1,0,0:0:0
224,208,32656,1,8,0:0:0
248,160,32855,1,0,0:0:0
224,208,33053,1,8,0:0:0
104,240,33451,1,0,0:0:0
176,224,33649,1,0,0:0:0
216,208,33848,1,8,0:0:0
208,144,34047,1,0,0:0:0
184,128,34146,1,0,0:0:0
200,224,34245,1,0,0:0:0
176,168,34444,1,8,0:0:0
192,224,34643,1,0,0:0:0
200,232,35040,1,8,0:0:0
176,184,35239,1,8,0:0:0
192,216,35338,1,8,0:0:0
192,176,35437,1,0,0:0:0
176,168,35636,1,0,0:0:0
176,168,35835,1,8,0:0:0
176,168,36232,1,8,0:0:0
176,168,36431,1,0,0:0:0
176,168,36629,1,0,0:0:0
176,168,36828,1,0,0:0:0
176,168,37027,1,8,0:0:0
176,168,37225,1,0,0:0:0
176,168,37325,1,0,0:0:0
176,168,37424,1,0,0:0:0
176,168,37623,1,8,0:0:0
176,168,37821,1,0,0:0:0
168,88,38020,1,0,0:0:0
176,168,38219,1,8,0:0:0
144,112,38418,1,8,0:0:0
176,168,38616,1,0,0:0:0
176,168,39014,1,8,0:0:0
176,168,39411,1,0,0:0:0
176,168,39610,1,0,0:0:0
176,168,40007,1,8,0:0:0
176,168,40206,1,0,0:0:0
176,168,40404,1,0,0:0:0
176,168,40603,1,8,0:0:0
176,168,41000,1,0,0:0:0
176,168,41199,1,0,0:0:0
184,104,41398,1,8,0:0:0
176,168,41596,1,8,0:0:0
200,168,41696,1,8,0:0:0
176,168,41795,1,0,0:0:0
176,168,42192,1,8,0:0:0
224,280,42590,1,0,0:0:0
200,224,42788,1,0,0:0:0
184,96,43186,1,8,0:0:0
192,160,43583,1,0,0:0:0
200,104,43782,1,8,0:0:0
208,88,44179,1,0,0:0:0
200,152,44378,1,0,0:0:0
200,120,44477,1,0,0:0:0
200,104,44576,1,8,0:0:0
184,96,44676,1,8,0:0:0
184,96,44775,1,0,0:0:0
184,96,44974,1,4,0:0:0
184,96,45172,1,0,0:0:0
184,96,45371,1,8,0:0:0
160,144,45570,1,0,0:0:0
216,48,45967,1,0,0:0:0
176,112,46166,1,8,0:0:0
248,200,46365,1,8,0:0:0
216,160,46563,1,0,0:0:0
176,104,46961,1,8,0:0:0
224,136,47159,1,0,0:0:0
128,72,47557,1,0,0:0:0
168,104,47755,1,8,0:0:0
216,160,47954,1,8,0:0:0
216,160,48053,1,8,0:0:0
216,160,48153,1,0,0:0:0
224,136,48351,1,0,0:0:0
224,136,48550,1,8,0:0:0
224,136,48749,1,8,0:0:0
224,136,48848,1,8,0:0:0
216,160,48947,1,0,0:0:0
216,160,49146,1,0,0:0:0
160,192,49345,1,8,0:0:0
224,136,49543,1,8,0:0:0
224,136,49742,1,0,0:0:0
224,136,49941,1,0,0:0:0
224,136,50139,1,0,0:0:0
224,136,50338,1,0,0:0:0
224,136,50537,1,8,0:0:0
224,136,50934,1,4,0:0:0
224,136,51331,1,0,0:0:0
224,136,51529,1,0,0:0:0
224,136,51629,1,0,0:0:0
224,136,51728,1,8,0:0:0
224,136,51927,1,8,0:0:0
224,136,52125,1,0,0:0:0
224,136,52523,1,8,0:0:0
224,136,52721,1,8,0:0:0
224,136,52821,1,8,0:0:0
224,136,52920,1,0,0:0:0
224,136,53119,1,0,0:0:0
224,136,53317,1,8,0:0:0
224,136,53715,1,0,0:0:0
224,136,53913,1,0,0:0:0
224,136,54013,1,0,0:0:0
224,136,54112,1,8,0:0:0
224,136,54311,1,8,0:0:0
224,136,54509,1,0,0:0:0
224,136,54907,1,8,0:0:0
224,136,55105,1,8,0:0:0
224,136,55205,1,8,0:0:0
224,136,55304,1,0,0:0:0
224,136,55503,1,0,0:0:0
224,136,55701,1,8,0:0:0
248,192,55900,1,0,0:0:0
232,128,56099,1,0,0:0:0
224,136,56298,1,0,0:0:0
240,168,56496,1,8,0:0:0
240,168,56596,1,8,0:0:0
240,168,56695,1,8,0:0:0
240,168,56794,1,8,0:0:0
224,120,56893,1,0,0:0:0
104,152,57291,1,8,0:0:0
224,120,57688,1,0,0:0:0
240,168,57887,1,0,0:0:0
168,136,58085,1,8,0:0:0
240,168,58284,1,0,0:0:0
240,168,58483,1,0,0:0:0
240,168,58681,1,0,0:0:0
240,168,58880,1,8,0:0:0
200,128,59079,1,8,0:0:0
240,168,59178,1,8,0:0:0
240,168,59277,1,0,0:0:0
240,168,59476,1,0,0:0:0
216,144,59575,1,0,0:0:0
144,88,59675,1,8,0:0:0
216,144,59873,1,8,0:0:0
216,144,60072,1,4,0:0:0
280,256,60469,1,8,0:0:0
224,160,60668,1,8,0:0:0
224,160,60867,1,0,0:0:0
224,160,61065,1,0,0:0:0
216,144,61165,1,0,0:0:0
224,160,61264,1,8,0:0:0
216,144,61463,1,4,0:0:0
224,160,61860,1,0,0:0:0
224,160,62059,1,8,0:0:0
224,160,62258,1,0,0:0:0
224,160,62456,1,8,0:0:0
224,160,62655,1,8,0:0:0
224,160,62854,1,0,0:0:0
224,160,62953,1,0,0:0:0
224,160,63052,1,8,0:0:0
224,160,63251,1,0,0:0:0
176,120,63449,1,0,0:0:0
200,136,63549,1,0,0:0:0
200,136,63648,1,8,0:0:0
200,136,63847,1,8,0:0:0
208,200,64045,1,0,0:0:0
200,72,64443,1,8,0:0:0
200,104,64641,1,0,0:0:0
200,104,64840,1,0,0:0:0
200,104,64939,1,0,0:0:0
200,104,65039,1,0,0:0:0
200,104,65237,1,8,0:0:0
224,160,65635,1,0,0:0:0
176,120,65833,1,0,0:0:0
200,136,65933,1,0,0:0:0
200,136,66032,1,8,0:0:0
200,136,66231,1,8,0:0:0
208,200,66429,1,0,0:0:0
200,72,66827,1,8,0:0:0
200,104,67025,1,0,0:0:0
200,104,67224,1,0,0:0:0
200,104,67323,1,0,0:0:0
200,104,67423,1,0,0:0:0
200,104,67621,1,8,0:0:0
192,216,68019,1,0,0:0:0
192,216,68416,1,8,0:0:0
200,104,68515,1,8,0:0:0
200,104,68615,1,8,0:0:0
200,104,68714,1,8,0:0:0
200,104,68813,1,0,0:0:0
200,104,69211,1,8,0:0:0
200,104,69608,1,0,0:0:0
200,104,69807,1,0,0:0:0
200,104,70005,1,8,0:0:0
176,48,70204,1,8,0:0:0
200,104,70303,1,8,0:0:0
200,104,70403,1,0,0:0:0
200,104,70601,1,0,0:0:0
200,104,70800,1,8,0:0:0
224,168,70999,1,8,0:0:0
224,176,71098,1,8,0:0:0
160,200,71197,1,0,0:0:0
192,128,71396,1,0,0:0:0
224,176,71595,1,8,0:0:0
136,104,71992,1,4,0:0:0
200,192,72389,1,8,0:0:0
200,192,72588,1,0,0:0:0
200,192,72787,1,0,0:0:0
200,192,72886,1,0,0:0:0
200,192,72985,1,0,0:0:0
200,192,73085,1,0,0:0:0
200,192,73184,1,8,0:0:0
200,192,73383,1,4,0:0:0
304,264,73780,1,0,0:0:0
256,232,73979,1,8,0:0:0
216,200,74178,1,0,0:0:0
216,200,74376,1,0,0:0:0
176,152,74476,1,0,0:0:0
176,152,74575,1,0,0:0:0
192,112,74774,1,0,0:0:0
216,200,74972,1,0,0:0:0
176,152,75171,1,4,0:0:0
208,104,75370,1,0,0:0:0
176,152,75469,1,0,0:0:0
176,152,75568,1,8,0:0:0
176,152,75966,1,8,0:0:0
176,152,76164,1,0,0:0:0
192,112,76264,1,0,0:0:0
176,152,76363,1,8,0:0:0
176,88,76562,1,0,0:0:0
176,56,76661,1,0,0:0:0
280,232,76760,1,8,0:0:0
176,88,76959,1,0,0:0:0
176,88,77158,1,8,0:0:0
176,88,77555,1,8,0:0:0
176,88,77754,1,0,0:0:0
176,88,77853,1,0,0:0:0
176,88,77952,1,8,0:0:0
176,88,78151,1,0,0:0:0
200,104,78250,1,0,0:0:0
200,104,78350,1,8,0:0:0
208,160,78548,1,0,0:0:0
176,152,78747,1,8,0:0:0
176,144,79144,1,8,0:0:0
200,104,79343,1,0,0:0:0
208,128,79442,1,0,0:0:0
232,160,79542,1,8,0:0:0
208,128,79740,1,4,0:0:0
208,128,80138,1,8,0:0:0
208,128,80336,1,0,0:0:0
208,128,80535,1,0,0:0:0
208,128,80734,1,8,0:0:0
208,128,81131,1,0,0:0:0
208,128,81231,1,0,0:0:0
208,128,81330,1,0,0:0:0
224,192,81529,1,12,0:0:0
224,80,81926,1,8,0:0:0
224,200,82323,1,0,0:0:0
216,144,82522,1,0,0:0:0
224,200,82721,1,8,0:0:0
216,144,82919,1,8,0:0:0
224,200,83118,1,0,0:0:0
224,176,83217,1,0,0:0:0
216,152,83317,1,0,0:0:0
224,216,83515,1,8,0:0:0
216,144,83913,1,0,0:0:0
216,144,84012,1,0,0:0:0
216,152,84111,1,0,0:0:0
216,144,84310,1,8,0:0:0
216,152,84707,1,0,0:0:0
216,152,84906,1,0,0:0:0
216,152,85105,1,8,0:0:0
216,152,85303,1,0,0:0:0
216,152,85701,1,0,0:0:0
216,152,85899,1,8,0:0:0
216,152,86098,1,8,0:0:0
216,152,86297,1,0,0:0:0
216,152,86396,1,0,0:0:0
216,152,86495,1,8,0:0:0
216,152,86595,1,0,0:0:0
216,152,86694,1,8,0:0:0
216,152,86893,1,4,0:0:0
216,152,87290,1,4,0:0:0
88,152,87687,1,4,0:0:0
