osu file format v10

[General]
AudioFilename: Little Busters TV Size.mp3
AudioLeadIn: 2000
PreviewTime: 51227
Countdown: 0
SampleSet: Normal
StackLeniency: 0.7
Mode: 0
LetterboxInBreaks: 0

[Editor]
DistanceSpacing: 0.8
BeatDivisor: 4
GridSize: 8

[Metadata]
Title:Little Busters! -TV animation ver.-
TitleUnicode:Little Busters! -TV animation ver.-
Artist:Rita
ArtistUnicode:Rita
Creator:NatsumeRin
Version:Rin
Source:Little Busters!
Tags:key jun maeda shinji orito kanpakyin climbb65588 KanaRin
BeatmapID:188439
BeatmapSetID:60697

[Difficulty]
HPDrainRate:6
CircleSize:4
OverallDifficulty:8
ApproachRate:8
SliderMultiplier:2
SliderTickRate:1

[Events]
//Background and Video events
0,0,"BG.jpg"
Video,0,"little busters.avi"
//Break Periods
//Storyboard Layer 0 (Background)
//Storyboard Layer 1 (Fail)
//Storyboard Layer 2 (Pass)
//Storyboard Layer 3 (Foreground)
//Storyboard Sound Samples
//Background Colour Transformations
3,100,163,162,255

[TimingPoints]
471,397.350993377483,4,2,1,40,1,0
471,-125,4,2,1,40,0,0
868,-125,4,2,1,10,0,0
1265,-125,4,2,1,40,0,0
2855,-125,4,2,1,10,0,0
3053,-125,4,2,1,40,0,0
3252,-125,4,2,1,10,0,0
3451,-125,4,2,1,20,0,0
3649,-125,4,2,1,40,0,0
5636,-125,4,2,1,10,0,0
5835,-125,4,2,1,40,0,0
6033,-125,4,2,1,10,0,0
6232,-125,4,2,1,40,0,0
6431,-125,4,2,1,10,0,0
6629,-125,4,2,1,20,0,0
6828,-125,4,2,1,50,0,0
9808,-125,4,2,2,30,0,0
10007,-125,4,2,1,50,0,0
11596,-125,4,1,1,30,0,0
12192,-100,4,1,1,40,0,0
12391,-100,4,2,1,15,0,0
12590,-100,4,1,1,40,0,0
12788,-100,4,2,1,15,0,0
12987,-100,4,1,1,30,0,0
13186,-100,4,1,1,50,0,0
13384,-100,4,2,1,50,0,0
13583,-100,4,1,1,50,0,0
13782,-100,4,2,1,50,0,0
13980,-100,4,1,1,50,0,0
14179,-100,4,2,1,50,0,0
14378,-100,4,1,1,50,0,0
14576,-100,4,2,1,50,0,0
14775,-100,4,1,1,50,0,0
14974,-100,4,2,1,50,0,0
15172,-100,4,1,1,50,0,0
15371,-100,4,2,1,50,0,0
15570,-100,4,1,1,50,0,0
15769,-100,4,2,1,50,0,0
15967,-100,4,1,1,50,0,0
16166,-100,4,2,1,50,0,0
16365,-100,4,1,1,50,0,0
16563,-100,4,2,1,50,0,0
16762,-100,4,1,1,50,0,0
16961,-100,4,2,1,50,0,0
17159,-100,4,1,1,50,0,0
17358,-100,4,2,1,50,0,0
17557,-100,4,1,1,50,0,0
17755,-100,4,2,1,50,0,0
17954,-100,4,1,1,50,0,0
18153,-100,4,2,1,50,0,0
18351,-100,4,1,1,50,0,0
18550,-100,4,2,1,50,0,0
18749,-100,4,1,1,50,0,0
18848,-100,4,1,1,35,0,0
18947,-100,4,2,1,50,0,0
19146,-100,4,1,1,50,0,0
19345,-100,4,2,1,50,0,0
19543,-100,4,1,1,50,0,0
19742,-100,4,2,1,50,0,0
19941,-100,4,1,1,50,0,0
20139,-100,4,2,1,50,0,0
20338,-100,4,1,1,50,0,0
20537,-100,4,2,1,50,0,0
20735,-100,4,1,1,50,0,0
20934,-100,4,2,1,50,0,0
21133,-100,4,1,1,50,0,0
21331,-100,4,2,1,50,0,0
21530,-100,4,1,1,50,0,0
21729,-100,4,2,1,50,0,0
21927,-100,4,1,1,50,0,0
22126,-100,4,2,1,50,0,0
22325,-100,4,1,1,50,0,0
22523,-100,4,2,1,50,0,0
22722,-100,4,1,1,50,0,0
22921,-100,4,2,1,50,0,0
23120,-100,4,1,1,50,0,0
23318,-100,4,2,1,50,0,0
23517,-100,4,1,1,50,0,0
23716,-100,4,2,1,50,0,0
23914,-100,4,1,1,50,0,0
24113,-100,4,2,1,20,0,0
24312,-100,4,1,1,40,0,0
24510,-100,4,1,1,30,0,0
24709,-100,4,1,1,50,0,0
24908,-100,4,1,1,40,0,0
25106,-100,4,1,1,50,0,0
25702,-100,4,1,1,40,0,0
26100,-100,4,2,1,50,0,0
26298,-100,4,1,1,50,0,0
26497,-100,4,2,1,50,0,0
26696,-100,4,1,1,50,0,0
26894,-100,4,2,1,50,0,0
27093,-100,4,1,1,50,0,0
27292,-100,4,2,1,50,0,0
27490,-100,4,1,1,50,0,0
27689,-100,4,2,1,50,0,0
27888,-100,4,1,1,50,0,0
28086,-100,4,2,1,50,0,0
28285,-100,4,1,1,50,0,0
28484,-100,4,2,1,50,0,0
28682,-100,4,1,1,50,0,0
28881,-100,4,2,1,50,0,0
29080,-100,4,1,1,50,0,0
29278,-100,4,2,1,50,0,0
29477,-100,4,1,1,50,0,0
29676,-100,4,2,1,50,0,0
29874,-100,4,1,1,50,0,0
30073,-100,4,2,1,50,0,0
30272,-100,4,1,1,50,0,0
30470,-100,4,2,1,50,0,0
30669,-100,4,1,1,50,0,0
30868,-100,4,2,1,50,0,0
31067,-100,4,1,1,50,0,0
31265,-100,4,2,1,50,0,0
31464,-100,4,1,1,50,0,0
31663,-100,4,2,1,50,0,0
31861,-100,4,1,1,50,0,0
32060,-100,4,2,1,50,0,0
32259,-100,4,1,1,40,0,0
32457,-100,4,2,1,50,0,0
32656,-100,4,1,1,50,0,0
32855,-100,4,2,1,50,0,0
33053,-100,4,1,1,50,0,0
33252,-100,4,2,1,50,0,0
33451,-100,4,1,1,50,0,0
33649,-100,4,2,1,50,0,0
33848,-100,4,1,1,50,0,0
34047,-100,4,2,1,50,0,0
34245,-100,4,1,1,50,0,0
34444,-100,4,2,1,50,0,0
34643,-100,4,1,1,50,0,0
34841,-100,4,2,1,50,0,0
35040,-100,4,1,1,50,0,0
35239,-100,4,2,1,50,0,0
35437,-100,4,1,1,50,0,0
35636,-100,4,2,1,50,0,0
35835,-100,4,1,1,50,0,0
36033,-100,4,2,1,50,0,0
36232,-100,4,1,1,50,0,0
36431,-100,4,2,1,50,0,0
36629,-100,4,1,1,50,0,0
36828,-100,4,2,1,50,0,0
37027,-100,4,1,1,50,0,0
37225,-100,4,2,1,50,0,0
37424,-100,4,1,1,50,0,0
37623,-100,4,2,1,50,0,0
37821,-100,4,1,1,50,0,0
38020,-100,4,2,1,50,0,0
38219,-100,4,1,1,50,0,0
38418,-100,4,2,1,50,0,0
38616,-100,4,1,1,60,0,0
40007,-100,4,1,1,40,0,0
40206,-100,4,1,1,50,0,0
41000,-100,4,1,1,55,0,0
41795,-100,4,1,1,60,0,0
43186,-100,4,1,1,40,0,0
43384,-100,4,1,1,50,0,0
44179,-100,4,1,1,30,0,0
44974,-100,4,1,1,40,0,0
45172,-100,4,2,1,50,0,0
45371,-100,4,1,1,50,0,0
45570,-100,4,2,1,50,0,0
45769,-100,4,1,1,50,0,0
45967,-100,4,2,1,50,0,0
46166,-100,4,1,1,50,0,0
46365,-100,4,2,1,50,0,0
46563,-100,4,1,1,50,0,0
46762,-100,4,2,1,50,0,0
46961,-100,4,1,1,50,0,0
47159,-100,4,2,1,50,0,0
47358,-100,4,1,1,50,0,0
47557,-100,4,2,1,50,0,0
47755,-100,4,1,1,50,0,0
47954,-100,4,2,1,50,0,0
48153,-100,4,1,1,40,0,0
48550,-100,4,1,1,45,0,0
48947,-100,4,1,1,50,0,0
49345,-100,4,1,1,55,0,0
49742,-100,4,1,1,60,0,0
50338,-66.6666666666667,4,2,1,70,0,0
50735,-66.6666666666667,4,1,1,50,0,0
51133,-100,4,1,1,40,0,0
51331,397.350993377483,6,1,1,60,1,1
51529,-100,6,2,1,60,0,1
51728,-100,6,1,1,60,0,1
51927,-100,6,2,1,60,0,1
52125,-100,6,1,1,60,0,1
52324,-100,6,2,1,60,0,1
52523,-100,6,1,1,60,0,1
52721,-100,6,2,1,60,0,1
52920,-100,6,1,1,60,0,1
53119,-100,6,2,1,60,0,1
53317,-100,6,1,1,60,0,1
53516,-100,6,2,1,60,0,1
53715,397.350993377483,4,1,1,60,1,1
53913,-100,4,2,1,60,0,1
54112,-100,4,1,1,60,0,1
54311,-100,4,2,1,60,0,1
54509,-100,4,1,1,60,0,1
54708,-100,4,2,1,60,0,1
54907,-100,4,1,1,60,0,1
55105,-100,4,2,1,60,0,1
55304,-100,4,1,1,60,0,1
55503,-100,4,2,1,60,0,1
55701,-100,4,1,1,60,0,1
55900,-100,4,2,1,60,0,1
56099,-100,4,1,1,60,0,1
56297,-100,4,2,1,60,0,1
56496,-100,4,1,1,50,0,1
56595,-100,4,1,1,40,0,1
56893,-100,4,1,1,60,0,1
57092,-100,4,2,1,60,0,1
57291,-100,4,1,1,60,0,1
57489,-100,4,2,1,60,0,1
57688,-100,4,1,1,60,0,1
57887,-100,4,2,1,60,0,1
58085,-100,4,1,1,60,0,1
58284,-100,4,2,1,60,0,1
58483,-100,4,1,1,60,0,1
58681,-100,4,2,1,60,0,1
58880,-100,4,1,1,60,0,1
59079,-100,4,2,1,60,0,1
59277,-100,4,1,1,60,0,1
59476,-100,4,2,1,60,0,1
59675,-100,4,1,1,60,0,1
59873,-100,4,2,1,60,0,1
60072,-100,4,1,1,60,0,1
60271,-100,4,2,1,60,0,1
60469,-100,4,1,1,60,0,1
60668,-100,4,2,1,60,0,1
60867,-100,4,1,1,60,0,1
61065,-100,4,2,1,60,0,1
61264,-100,4,1,1,60,0,1
61463,-100,4,1,1,50,0,1
62456,-100,4,1,1,60,0,1
63052,-100,4,1,1,40,0,1
63251,397.350993377483,6,1,1,60,1,1
63449,-100,6,2,1,60,0,1
63648,-100,6,1,1,60,0,1
63847,-100,6,2,1,60,0,1
64045,-100,6,1,1,60,0,1
64244,-100,6,2,1,60,0,1
64443,-100,6,1,1,60,0,1
64641,-100,6,2,1,60,0,1
64840,-100,6,1,1,60,0,1
65039,-100,6,2,1,60,0,1
65237,-100,6,1,1,60,0,1
65436,-100,6,2,1,60,0,1
65635,397.350993377483,4,1,1,60,1,1
65833,-100,4,2,1,60,0,1
66032,-100,4,1,1,60,0,1
66231,-100,4,2,1,60,0,1
66429,-100,4,1,1,60,0,1
66628,-100,4,2,1,60,0,1
66827,-100,4,1,1,60,0,1
67025,-100,4,2,1,60,0,1
67224,-100,4,1,1,60,0,1
67423,-100,4,2,1,60,0,1
67621,-100,4,1,1,60,0,1
67820,-100,4,2,1,60,0,1
68019,-100,4,1,1,60,0,1
68217,-100,4,2,1,60,0,1
68416,-100,4,1,1,50,0,1
68515,-100,4,1,1,40,0,1
68813,-100,4,1,1,60,0,1
69012,-100,4,2,1,60,0,1
69211,-100,4,1,1,60,0,1
69409,-100,4,2,1,60,0,1
69608,-100,4,1,1,60,0,1
69807,-100,4,2,1,60,0,1
70005,-100,4,1,1,60,0,1
70204,-100,4,2,1,60,0,1
70403,-100,4,1,1,60,0,1
70601,-100,4,2,1,60,0,1
70800,-100,4,1,1,60,0,1
70999,-100,4,2,1,60,0,1
71197,-100,4,1,1,60,0,1
71396,-100,4,2,1,60,0,1
71595,-100,4,1,1,60,0,1
71793,-100,4,2,1,60,0,1
71992,-100,4,1,1,60,0,1
72191,-100,4,2,1,60,0,1
72389,-100,4,1,1,60,0,1
72588,-100,4,2,1,60,0,1
72787,-100,4,1,1,60,0,1
72985,-100,4,2,1,60,0,1
73184,-100,4,1,1,60,0,1
73383,-100,4,2,1,60,0,1
73582,-100,4,1,1,60,0,1
73780,-100,4,2,1,60,0,1
73979,-100,4,1,1,60,0,1
74178,-100,4,1,1,45,0,1
74376,-100,4,1,1,35,0,1
75171,-100,4,1,1,50,0,0
75370,-100,4,2,1,50,0,0
75568,-100,4,1,1,50,0,0
75767,-100,4,2,1,50,0,0
75966,-100,4,1,1,50,0,0
76164,-100,4,2,1,50,0,0
76363,-100,4,1,1,50,0,0
76562,-100,4,2,1,50,0,0
76760,-100,4,1,1,50,0,0
76959,-100,4,2,1,50,0,0
77158,-100,4,1,1,50,0,0
77356,-100,4,2,1,50,0,0
77555,-100,4,1,1,50,0,0
77754,-100,4,2,1,50,0,0
77952,-100,4,1,1,50,0,0
78151,-100,4,2,1,50,0,0
78350,-100,4,1,1,50,0,0
78548,-100,4,2,1,50,0,0
78747,-100,4,1,1,50,0,0
78946,-100,4,2,1,50,0,0
79144,-100,4,1,1,50,0,0
79343,-100,4,2,1,50,0,0
79542,-100,4,1,1,50,0,0
79740,-100,4,1,1,35,0,0
79939,-100,4,1,1,50,0,0
80336,-100,4,1,1,40,0,0
80734,-100,4,1,1,55,0,0
80933,-100,4,1,1,40,0,0
81727,-100,4,1,1,20,0,0
86297,-100,4,1,1,45,0,0
87687,-100,4,1,1,30,0,0

[Colours]
Combo1 : 105,165,245
Combo2 : 66,196,66
Combo3 : 222,122,222
Combo4 : 233,188,123
SliderBorder : 255,255,255

[HitObjects]
112,136,471,1,2,0:0:0
112,136,669,2,0,B|136:224,1,80,2|0,0:0|0:0,0:0:0
184,104,1663,5,2,0:0:0
184,104,1861,1,0,0:0:0
240,160,2060,1,2,0:0:0
240,160,2259,1,0,0:0:0
320,288,2656,6,0,B|296:208,1,80,2|0,0:0|0:0,0:0:0
336,64,3053,2,0,B|312:144,2,80,2|0|0,0:0|0:0|0:0,0:0:0
440,176,3649,5,2,0:0:0
440,176,3848,1,0,0:0:0
368,192,4047,1,2,0:0:0
368,192,4245,1,0,0:0:0
424,248,4841,5,2,0:0:0
424,248,5040,1,0,0:0:0
352,264,5239,1,2,0:0:0
352,264,5437,2,0,B|240:296,1,80,0|0,0:0|0:0,0:0:0
176,312,5835,6,0,B|160:264|192:232,1,80,2|0,0:0|0:0,0:0:0
280,168,6232,2,0,B|256:128|208:128,2,80,2|0|0,0:0|0:0|0:0,0:0:0
160,56,6828,5,10,0:0:0
152,64,7027,1,2,0:0:0
128,152,7225,1,8,0:0:0
120,160,7424,2,0,B|56:224,1,80,0|8,0:0|0:0,0:0:0
288,176,8020,5,10,0:0:0
296,184,8219,1,2,0:0:0
320,272,8418,1,8,0:0:0
328,280,8616,2,0,B|392:344,1,80,0|8,0:0|0:0,0:0:0
496,352,9014,6,0,B|504:304|472:272,1,80,2|8,0:0|0:0,0:0:0
440,112,9411,2,0,B|408:144|424:192,2,80,2|8|8,0:0|0:0|0:0,0:0:0
392,24,10007,5,10,0:0:0
384,28,10206,1,2,0:0:0
288,56,10404,1,8,0:0:0
280,60,10603,2,0,B|184:96,1,80,0|8,0:0|0:0,0:0:0
48,216,11199,5,10,0:0:0
56,220,11398,1,2,0:0:0
152,248,11596,5,8,0:0:0
160,264,11696,1,8,0:0:0
168,280,11795,1,0,0:0:0
176,296,11894,1,0,0:0:0
184,312,11994,1,0,0:0:0
64,224,12192,6,0,B|80:168|136:160,1,100,4|0,0:0|0:0,0:0:0
288,144,12590,2,0,B|344:144|376:192,1,100,4|0,0:0|0:0,0:0:0
448,336,12987,5,0,0:0:0
432,296,13086,1,0,0:0:0
432,256,13186,2,0,B|432:200|488:160,1,100,0|2,0:0|0:0,0:0:0
440,56,13583,2,0,B|384:64|336:16,1,100,10|0,0:0|0:0,0:0:0
216,32,13980,1,0,0:0:0
144,144,14179,2,0,B|152:208|104:248,1,100,0|8,0:0|0:0,0:0:0
160,360,14576,1,0,0:0:0
160,360,14676,1,0,0:0:0
160,360,14775,6,0,B|264:304,1,100,2|2,0:0|0:0,0:0:0
392,328,15172,2,0,B|408:272|376:232,1,100,8|0,0:0|0:0,0:0:0
504,184,15570,1,2,0:0:0
400,104,15769,2,0,B|368:56|312:56,1,100,2|8,0:0|0:0,0:0:0
168,64,16166,1,0,0:0:0
136,96,16265,1,0,0:0:0
112,128,16365,6,0,B|72:168|96:232,1,100,0|2,0:0|0:0,0:0:0
264,208,16762,2,0,B|312:232|320:288,1,100,10|0,0:0|0:0,0:0:0
184,304,17159,1,0,0:0:0
256,128,17358,2,0,B|304:104|352:120,1,100,2|8,0:0|0:0,0:0:0
472,248,17755,6,0,B|432:152,1,100,2|0,0:0|0:0,0:0:0
304,80,18153,2,0,B|288:184,1,100,2|8,0:0|0:0,0:0:0
96,232,18550,2,0,B|168:144,1,100,2|0,0:0|0:0,0:0:0
176,120,18848,1,8,0:0:0
192,88,18947,1,2,0:0:0
40,104,19146,1,8,0:0:0
40,280,19345,5,0,0:0:0
80,304,19444,1,0,0:0:0
120,304,19543,2,0,B|168:304|208:264,1,100,0|2,0:0|0:0,0:0:0
248,96,19941,2,0,B|232:144|264:200,1,100,10|0,0:0|0:0,0:0:0
360,304,20338,1,0,0:0:0
496,216,20537,2,0,B|472:168|408:160,1,100,0|8,0:0|0:0,0:0:0
312,48,20934,1,0,0:0:0
224,200,21133,6,0,B|176:104,1,100,2|2,0:0|0:0,0:0:0
72,40,21530,2,0,B|24:72|40:128,1,100,8|0,0:0|0:0,0:0:0
48,160,21828,1,0,0:0:0
64,192,21927,2,0,B|176:240,1,100,2|2,0:0|0:0,0:0:0
232,336,22325,1,8,0:0:0
360,312,22523,1,0,0:0:0
360,312,22623,1,0,0:0:0
360,312,22722,6,0,B|408:296|424:240,1,100,2|0,0:0|0:0,0:0:0
424,96,23120,1,8,0:0:0
296,128,23318,6,0,B|285:177|326:219,1,100,2|0,0:0|0:0,0:0:0
480,272,23716,1,0,0:0:0
464,112,23914,6,0,B|432:64|368:48|320:72,1,150,10|0,0:0|0:0,0:0:0
264,40,24312,5,8,0:0:0
152,56,24510,1,0,0:0:0
64,128,24709,1,0,0:0:0
32,240,24908,1,8,0:0:0
56,352,25106,1,0,0:0:0
56,352,25206,1,0,0:0:0
56,352,25305,2,0,B|104:368,3,33.3333333333333,0|0|0|8,0:0|0:0|0:0|0:0,0:0:0
192,328,25702,2,0,B|248:352|304:312,1,100,0|4,0:0|0:0,0:0:0
496,272,26100,5,2,0:0:0
384,264,26298,1,0,0:0:0
448,168,26497,1,2,0:0:0
352,104,26696,2,0,B|296:88|256:128,1,100
192,216,27093,1,0,0:0:0
88,264,27292,1,2,0:0:0
16,168,27490,6,0,B|0:112|40:72,1,100,0|2,0:0|0:0,0:0:0
144,24,27888,1,0,0:0:0
248,208,28086,2,0,B|208:168|224:104,1,100,0|0,0:0|0:0,0:0:0
312,40,28484,1,2,0:0:0
480,168,28682,2,0,B|424:144|416:88,1,100,0|10,0:0|0:0,0:0:0
496,280,29080,6,0,B|456:320|392:304,1,100,0|2,0:0|0:0,0:0:0
256,176,29477,2,0,B|312:272,1,100,0|2,0:0|0:0,0:0:0
120,288,29874,2,0,B|232:320,1,100,0|2,0:0|0:0,0:0:0
56,192,30272,1,0,0:0:0
104,96,30470,1,0,0:0:0
200,40,30669,6,0,B|232:88|208:136,1,100,2|0,0:0|0:0,0:0:0
288,216,31067,1,0,0:0:0
312,72,31265,2,0,B|368:72|400:120,1,100,2|0,0:0|0:0,0:0:0
432,272,31663,2,0,B|448:328|416:376,1,100,2|0,0:0|0:0,0:0:0
376,200,32060,1,8,0:0:0
184,296,32259,5,4,0:0:0
96,232,32457,1,2,0:0:0
128,128,32656,2,0,B|104:24,1,100,0|2,0:0|0:0,0:0:0
320,64,33053,2,0,B|264:48|224:88,1,100,0|0,0:0|0:0,0:0:0
408,120,33451,1,0,0:0:0
496,72,33649,1,2,0:0:0
448,208,33848,5,0,0:0:0
392,288,34047,2,0,B|344:256|352:192,1,100,2|0,0:0|0:0,0:0:0
288,64,34444,1,0,0:0:0
184,48,34643,1,0,0:0:0
96,104,34841,2,0,B|120:152|184:152,1,100,2|0,0:0|0:0,0:0:0
264,296,35239,1,2,0:0:0
160,264,35437,6,0,B|104:248|56:288,1,100,0|2,0:0|0:0,0:0:0
192,360,35835,1,0,0:0:0
240,208,36033,1,2,0:0:0
392,256,36232,2,0,B|496:256,1,100,0|2,0:0|0:0,0:0:0
296,312,36629,1,0,0:0:0
344,152,36828,1,0,0:0:0
432,72,37027,6,0,B|400:32|344:32,1,100,2|0,0:0|0:0,0:0:0
248,88,37424,1,0,0:0:0
208,192,37623,2,0,B|184:248|112:256,1,100,2|0,0:0|0:0,0:0:0
32,216,38020,1,2,0:0:0
32,216,38120,1,0,0:0:0
32,216,38219,1,8,0:0:0
112,48,38418,1,8,0:0:0
232,32,38616,5,0,0:0:0
336,312,39014,1,8,0:0:0
296,88,39411,1,0,0:0:0
272,256,39610,1,0,0:0:0
360,144,40007,5,8,0:0:0
360,144,40106,1,0,0:0:0
360,144,40206,2,0,B|320:184|256:168,1,100,0|8,0:0|0:0,0:0:0
160,80,40603,2,0,B|104:72|64:112,1,100,0|0,0:0|0:0,0:0:0
40,208,41000,1,8,0:0:0
80,304,41199,1,0,0:0:0
176,344,41398,1,0,0:0:0
280,336,41596,1,8,0:0:0
280,336,41696,1,0,0:0:0
280,336,41795,5,0,0:0:0
408,112,42192,1,8,0:0:0
352,304,42590,1,0,0:0:0
336,144,42788,1,0,0:0:0
424,272,43186,5,8,0:0:0
264,176,43384,2,0,B|288:224|352:224,1,100
472,168,43782,2,0,B|504:128|480:72,1,100,8|0,0:0|0:0,0:0:0
360,24,44179,1,0,0:0:0
320,16,44278,1,0,0:0:0
280,24,44378,1,0,0:0:0
248,48,44477,1,0,0:0:0
232,88,44576,1,8,0:0:0
216,128,44676,1,8,0:0:0
200,168,44775,1,0,0:0:0
184,208,44874,1,0,0:0:0
168,248,44974,6,0,B|136:304|64:304,1,100,2|0,0:0|0:0,0:0:0
72,192,45371,1,8,0:0:0
104,88,45570,2,0,B|152:56|208:80,1,100,2|0,0:0|0:0,0:0:0
304,136,45967,1,2,0:0:0
344,256,46166,2,0,B|376:296|432:296,1,100,8|0,0:0|0:0,0:0:0
472,296,46464,1,0,0:0:0
504,280,46563,6,0,B|480:176,1,100,0|2,0:0|0:0,0:0:0
472,32,46961,2,0,B|416:24|384:72,1,100,8|2,0:0|0:0,0:0:0
368,176,47358,1,0,0:0:0
296,256,47557,1,0,0:0:0
200,304,47755,2,0,B|144:320|104:288,1,100,10|0,0:0|0:0,0:0:0
72,256,48053,1,0,0:0:0
48,216,48153,5,0,0:0:0
120,104,48351,1,0,0:0:0
248,128,48550,1,0,0:0:0
264,256,48749,1,0,0:0:0
144,312,48947,5,0,0:0:0
312,320,49146,1,0,0:0:0
376,168,49345,1,0,0:0:0
248,64,49543,1,0,0:0:0
104,144,49742,5,0,0:0:0
184,16,49941,1,0,0:0:0
328,48,50139,1,0,0:0:0
352,200,50338,6,0,B|376:248|344:320|272:336|200:296|192:232|240:168,1,300.000011444092,12|0,0:0|0:0,0:0:0
416,112,50934,5,8,0:0:0
464,248,51133,1,0,0:0:0
464,248,51232,1,0,0:0:0
464,248,51331,5,4,0:0:0
368,352,51529,2,0,B|328:392|256:376,1,100,2|8,0:0|0:0,0:0:0
80,216,51927,1,2,0:0:0
208,176,52125,2,0,B|272:184|296:248,1,100,2|0,0:0|0:0,0:0:0
384,56,52523,5,8,0:0:0
264,88,52721,2,0,B|208:112|160:72,1,100,2|0,0:0|0:0,0:0:0
416,176,53119,1,2,0:0:0
376,288,53317,2,0,B|352:344|288:352,1,100,10|0,0:0|0:0,0:0:0
104,312,53715,5,0,0:0:0
72,200,53913,2,0,B|64:144|104:104,1,100,2|8,0:0|0:0,0:0:0
344,104,54311,1,2,0:0:0
272,184,54509,2,0,B|224:208|176:184,1,100,2|0,0:0|0:0,0:0:0
224,336,54907,5,8,0:0:0
336,296,55105,2,0,B|384:272|400:216,1,100,2|0,0:0|0:0,0:0:0
440,40,55503,1,2,0:0:0
336,48,55701,1,8,0:0:0
256,120,55900,1,2,0:0:0
240,224,56099,6,0,B|136:256,1,100,2|0,0:0|0:0,0:0:0
56,176,56496,1,10,0:0:0
48,208,56595,1,0,0:0:0
40,240,56695,1,0,0:0:0
32,272,56794,1,0,0:0:0
24,304,56893,6,0,B|40:360|104:376,1,100
224,360,57291,1,8,0:0:0
320,272,57489,2,0,B|344:224|320:176,1,100
232,40,57887,1,2,0:0:0
160,120,58085,1,8,0:0:0
176,224,58284,1,2,0:0:0
344,352,58483,6,0,B|392:328|400:272,1,100
496,184,58880,1,10,0:0:0
448,64,59079,1,0,0:0:0
408,40,59178,1,0,0:0:0
360,32,59277,2,0,B|304:24|256:64,1,100,0|2,0:0|0:0,0:0:0
224,176,59675,1,8,0:0:0
280,288,59873,1,0,0:0:0
168,344,60072,6,0,B|120:368|69:349,1,100,2|0,0:0|0:0,0:0:0
112,232,60469,1,8,0:0:0
32,136,60668,2,0,B|72:96|128:104,1,100,2|0,0:0|0:0,0:0:0
240,48,61065,1,2,0:0:0
248,64,61165,1,8,0:0:0
256,80,61264,1,8,0:0:0
376,136,61463,6,0,B|408:192|408:192|376:224|392:296|440:312,1,200,2|0,0:0|0:0,0:0:0
488,240,62059,1,10,0:0:0
376,136,62258,1,0,0:0:0
344,280,62456,5,0,0:0:0
448,80,62655,1,8,0:0:0
224,88,62854,1,8,0:0:0
176,192,63052,1,0,0:0:0
160,224,63152,1,0,0:0:0
144,256,63251,5,4,0:0:0
80,152,63449,2,0,B|96:104|152:88,1,100,2|8,0:0|0:0,0:0:0
344,152,63847,1,2,0:0:0
304,264,64045,2,0,B|264:304|208:288,1,100,2|0,0:0|0:0,0:0:0
272,96,64443,5,8,0:0:0
400,80,64641,2,0,B|448:112|432:176,1,100,2|0,0:0|0:0,0:0:0
256,184,65039,1,2,0:0:0
192,288,65237,2,0,B|136:304|96:264,1,100,10|0,0:0|0:0,0:0:0
176,104,65635,5,0,0:0:0
120,8,65833,2,0,B|64:32|56:96,1,100,2|8,0:0|0:0,0:0:0
288,72,66231,1,2,0:0:0
336,176,66429,2,0,B|360:232|328:280,1,100,2|0,0:0|0:0,0:0:0
488,224,66827,5,8,0:0:0
440,120,67025,2,0,B|408:64|336:56,1,100,2|0,0:0|0:0,0:0:0
216,48,67423,1,2,0:0:0
88,120,67621,2,0,B|40:152|40:216,1,100,2|0,0:0|0:0,0:0:0
112,344,68019,6,0,B|224:312,1,100,2|0,0:0|0:0,0:0:0
344,336,68416,1,10,0:0:0
360,304,68515,1,0,0:0:0
376,272,68615,1,0,0:0:0
392,240,68714,1,0,0:0:0
408,208,68813,6,0,B|432:152|400:104,1,100
296,32,69211,1,8,0:0:0
160,48,69409,2,0,B|104:64|88:136,1,100
56,296,69807,1,2,0:0:0
152,288,70005,1,8,0:0:0
224,224,70204,1,2,0:0:0
376,136,70403,6,0,B|432:120|472:160,1,100
400,272,70800,1,10,0:0:0
280,328,70999,1,0,0:0:0
240,344,71098,1,0,0:0:0
200,352,71197,2,0,B|144:368|104:328,1,100,0|2,0:0|0:0,0:0:0
48,216,71595,1,8,0:0:0
80,96,71793,1,0,0:0:0
240,32,71992,6,0,B|280:72|256:128,1,100,2|0,0:0|0:0,0:0:0
344,216,72389,1,8,0:0:0
464,176,72588,2,0,B|488:128|472:72,1,100,2|0,0:0|0:0,0:0:0
432,288,72985,1,2,0:0:0
400,320,73085,1,0,0:0:0
360,336,73184,2,0,B|304:344|264:304,1,100,8|2,0:0|0:0,0:0:0
200,200,73582,6,0,B|88:224,1,100,0|8,0:0|0:0,0:0:0
16,304,73979,1,8,0:0:0
88,104,74178,1,0,0:0:0
115,74,74277,1,0,0:0:0
151,57,74376,1,0,0:0:0
191,52,74476,1,0,0:0:0
230,59,74575,1,0,0:0:0
265,76,74674,1,0,0:0:0
291,106,74774,1,0,0:0:0
305,143,74873,1,0,0:0:0
309,182,74972,1,0,0:0:0
296,220,75072,1,0,0:0:0
272,256,75171,6,0,B|288:360,1,100,8|0,0:0|0:0,0:0:0
440,200,75568,2,0,B|456:304,1,100,8|0,0:0|0:0,0:0:0
344,64,75966,6,0,B|328:168,1,100,8|0,0:0|0:0,0:0:0
176,8,76363,2,0,B|160:112,1,100,8|0,0:0|0:0,0:0:0
48,240,76760,6,0,B|144:320,1,100,8|0,0:0|0:0,0:0:0
208,176,77158,2,0,B|304:256,1,100,8|0,0:0|0:0,0:0:0
322,273,77456,1,0,0:0:0
360,304,77555,5,8,0:0:0
464,216,77754,2,0,B|496:176|480:112,1,100,4|8,0:0|0:0,0:0:0
376,32,78151,1,8,0:0:0
336,40,78250,1,8,0:0:0
296,48,78350,6,0,B|176:72,1,100,8|0,0:0|0:0,0:0:0
152,216,78747,2,0,B|32:240,1,100,8|0,0:0|0:0,0:0:0
264,176,79144,6,0,B|384:200,1,100,8|0,0:0|0:0,0:0:0
312,328,79541,2,0,B|432:352,1,100,8|0,0:0|0:0,0:0:0
448,336,79840,1,0,0:0:0
488,320,79939,5,0,0:0:0
456,160,80138,1,8,0:0:0
352,264,80336,1,0,0:0:0
352,264,80436,1,0,0:0:0
352,264,80535,1,0,0:0:0
440,80,80734,1,8,0:0:0
272,144,80933,1,0,0:0:0
272,144,81032,1,0,0:0:0
272,144,81131,5,0,0:0:0
264,184,81231,1,0,0:0:0
240,216,81330,1,0,0:0:0
208,232,81429,1,0,0:0:0
168,240,81529,1,4,0:0:0
256,192,81727,12,0,85899,0:0:0
256,192,86297,5,8,0:0:0
200,96,86495,1,0,0:0:0
200,96,86595,1,0,0:0:0
200,96,86694,1,0,0:0:0
184,280,86893,5,0,0:0:0
416,192,87290,1,0,0:0:0
184,280,87687,1,4,0:0:0
