osu file format v10

[General]
AudioFilename: Little Busters TV Size.mp3
AudioLeadIn: 2000
PreviewTime: 51227
Countdown: 0
SampleSet: Normal
StackLeniency: 0.7
Mode: 0
LetterboxInBreaks: 0

[Editor]
DistanceSpacing: 1.3
BeatDivisor: 4
GridSize: 8

[Metadata]
Title:Little Busters! -TV animation ver.-
TitleUnicode:Little Busters! -TV animation ver.-
Artist:Rita
ArtistUnicode:Rita
Creator:NatsumeRin
Version:Normal
Source:Little Busters!
Tags:key jun maeda shinji orito kanpakyin climbb65588 KanaRin
BeatmapID:189294
BeatmapSetID:60697

[Difficulty]
HPDrainRate:4
CircleSize:3
OverallDifficulty:4
ApproachRate:5
SliderMultiplier:1.28
SliderTickRate:1

[Events]
//Background and Video events
0,0,"BG.jpg"
Video,0,"little busters.avi"
//Break Periods
//Storyboard Layer 0 (Background)
//Storyboard Layer 1 (Fail)
//Storyboard Layer 2 (Pass)
//Storyboard Layer 3 (Foreground)
//Storyboard Sound Samples
//Background Colour Transformations
3,100,163,162,255

[TimingPoints]
471,397.350993377483,4,2,1,40,1,0
471,-100,4,2,1,40,0,0
868,-100,4,2,1,10,0,0
1265,-100,4,2,1,40,0,0
2855,-100,4,2,1,10,0,0
3053,-100,4,2,1,40,0,0
3252,-100,4,2,1,10,0,0
3451,-100,4,2,1,20,0,0
3649,-100,4,2,1,40,0,0
5636,-100,4,2,1,10,0,0
5835,-100,4,2,1,40,0,0
6033,-100,4,2,1,10,0,0
6232,-100,4,2,1,40,0,0
6431,-100,4,2,1,10,0,0
6629,-100,4,2,1,20,0,0
6828,-100,4,2,1,50,0,0
9808,-100,4,2,2,40,0,0
10007,-100,4,2,1,50,0,0
11596,-100,4,1,1,30,0,0
12192,-100,4,1,1,40,0,0
12391,-100,4,2,1,15,0,0
12590,-100,4,1,1,40,0,0
12788,-100,4,2,1,15,0,0
12987,-100,4,1,1,30,0,0
13186,-100,4,1,1,50,0,0
13384,-100,4,2,1,50,0,0
13583,-100,4,1,1,50,0,0
13782,-100,4,2,1,50,0,0
13980,-100,4,1,1,50,0,0
14179,-100,4,2,1,50,0,0
14378,-100,4,1,1,50,0,0
14576,-100,4,2,1,50,0,0
14775,-100,4,1,1,50,0,0
14974,-100,4,2,1,50,0,0
15172,-100,4,1,1,50,0,0
15371,-100,4,2,1,50,0,0
15570,-100,4,1,1,50,0,0
15769,-100,4,2,1,50,0,0
15967,-100,4,1,1,50,0,0
16166,-100,4,2,1,50,0,0
16365,-100,4,1,1,50,0,0
16563,-100,4,2,1,50,0,0
16762,-100,4,1,1,50,0,0
16961,-100,4,2,1,50,0,0
17159,-100,4,1,1,50,0,0
17358,-100,4,2,1,50,0,0
17557,-100,4,1,1,50,0,0
17755,-100,4,2,1,50,0,0
17954,-100,4,1,1,50,0,0
18153,-100,4,2,1,50,0,0
18351,-100,4,1,1,50,0,0
18550,-100,4,2,1,50,0,0
18749,-100,4,1,1,50,0,0
18848,-100,4,1,1,35,0,0
18947,-100,4,2,1,50,0,0
19146,-100,4,1,1,50,0,0
19345,-100,4,2,1,50,0,0
19543,-100,4,1,1,50,0,0
19742,-100,4,2,1,50,0,0
19941,-100,4,1,1,50,0,0
20139,-100,4,2,1,50,0,0
20338,-100,4,1,1,50,0,0
20537,-100,4,2,1,50,0,0
20735,-100,4,1,1,50,0,0
20934,-100,4,2,1,50,0,0
21133,-100,4,1,1,50,0,0
21331,-100,4,2,1,50,0,0
21530,-100,4,1,1,50,0,0
21729,-100,4,2,1,50,0,0
21927,-100,4,1,1,50,0,0
22126,-100,4,2,1,50,0,0
22325,-100,4,1,1,50,0,0
22523,-100,4,2,1,50,0,0
22722,-100,4,1,1,50,0,0
22921,-100,4,2,1,50,0,0
23120,-100,4,1,1,50,0,0
23318,-100,4,2,1,50,0,0
23517,-100,4,1,1,50,0,0
23716,-100,4,2,1,50,0,0
23914,-100,4,1,1,50,0,0
24113,-100,4,2,1,50,0,0
24312,-100,4,1,1,50,0,0
24510,-100,4,1,1,30,0,0
24709,-100,4,1,1,50,0,0
24908,-100,4,1,1,40,0,0
25106,-100,4,1,1,50,0,0
25702,-100,4,1,1,40,0,0
26100,-100,4,2,1,50,0,0
26298,-100,4,1,1,50,0,0
26497,-100,4,2,1,50,0,0
26696,-100,4,1,1,50,0,0
26894,-100,4,2,1,50,0,0
27093,-100,4,1,1,50,0,0
27292,-100,4,2,1,50,0,0
27490,-100,4,1,1,50,0,0
27689,-100,4,2,1,50,0,0
27888,-100,4,1,1,50,0,0
28086,-100,4,2,1,50,0,0
28285,-100,4,1,1,50,0,0
28484,-100,4,2,1,50,0,0
28682,-100,4,1,1,50,0,0
28881,-100,4,2,1,50,0,0
29080,-100,4,1,1,50,0,0
29278,-100,4,2,1,50,0,0
29477,-100,4,1,1,50,0,0
29676,-100,4,2,1,50,0,0
29874,-100,4,1,1,50,0,0
30073,-100,4,2,1,50,0,0
30272,-100,4,1,1,50,0,0
30470,-100,4,2,1,50,0,0
30669,-100,4,1,1,50,0,0
30868,-100,4,2,1,50,0,0
31067,-100,4,1,1,50,0,0
31265,-100,4,2,1,50,0,0
31464,-100,4,1,1,50,0,0
31663,-100,4,2,1,50,0,0
31861,-100,4,1,1,50,0,0
32060,-100,4,2,1,50,0,0
32259,-100,4,1,1,40,0,0
32457,-100,4,2,1,50,0,0
32656,-100,4,1,1,50,0,0
32855,-100,4,2,1,50,0,0
33053,-100,4,1,1,50,0,0
33252,-100,4,2,1,50,0,0
33451,-100,4,1,1,50,0,0
33649,-100,4,2,1,50,0,0
33848,-100,4,1,1,50,0,0
34047,-100,4,2,1,50,0,0
34245,-100,4,1,1,50,0,0
34444,-100,4,2,1,50,0,0
34643,-100,4,1,1,50,0,0
34841,-100,4,2,1,50,0,0
35040,-100,4,1,1,50,0,0
35239,-100,4,2,1,50,0,0
35437,-100,4,1,1,50,0,0
35636,-100,4,2,1,50,0,0
35835,-100,4,1,1,50,0,0
36033,-100,4,2,1,50,0,0
36232,-100,4,1,1,50,0,0
36431,-100,4,2,1,50,0,0
36629,-100,4,1,1,50,0,0
36828,-100,4,2,1,50,0,0
37027,-100,4,1,1,50,0,0
37225,-100,4,2,1,50,0,0
37424,-100,4,1,1,50,0,0
37623,-100,4,2,1,50,0,0
37821,-100,4,1,1,50,0,0
38020,-100,4,2,1,50,0,0
38219,-100,4,1,1,50,0,0
38418,-100,4,2,1,50,0,0
38616,-100,4,1,1,60,0,0
40007,-100,4,1,1,40,0,0
40206,-100,4,1,1,50,0,0
41000,-100,4,1,1,55,0,0
41795,-100,4,1,1,60,0,0
43186,-100,4,1,1,40,0,0
43384,-100,4,1,1,50,0,0
44179,-100,4,1,1,30,0,0
44974,-100,4,1,1,40,0,0
45172,-100,4,2,1,50,0,0
45371,-100,4,1,1,50,0,0
45570,-100,4,2,1,50,0,0
45769,-100,4,1,1,50,0,0
45967,-100,4,2,1,50,0,0
46166,-100,4,1,1,50,0,0
46365,-100,4,2,1,50,0,0
46563,-100,4,1,1,50,0,0
46762,-100,4,2,1,50,0,0
46961,-100,4,1,1,50,0,0
47159,-100,4,2,1,50,0,0
47358,-100,4,1,1,50,0,0
47557,-100,4,2,1,50,0,0
47755,-100,4,1,1,50,0,0
47954,-100,4,2,1,50,0,0
48153,-100,4,1,1,40,0,0
48550,-100,4,1,1,45,0,0
48947,-100,4,1,1,50,0,0
49345,-100,4,1,1,55,0,0
49742,-100,4,1,1,60,0,0
50735,-66.6666666666667,4,1,1,50,0,0
51133,-100,4,1,1,40,0,0
51331,397.350993377483,6,1,1,60,1,1
53715,397.350993377483,4,1,1,60,1,1
63251,397.350993377483,6,1,1,60,1,1
65635,397.350993377483,4,1,1,60,1,1
74376,-100,4,1,1,35,0,1
75171,-100,4,1,1,50,0,0
77754,-100,4,2,1,50,0,0
77952,-100,4,1,1,50,0,0
80336,-100,4,1,1,40,0,0
80734,-100,4,1,1,55,0,0
80933,-100,4,1,1,40,0,0
81529,-100,4,1,1,30,0,0
81727,-100,4,1,1,20,0,0
86297,-100,4,1,1,45,0,0
87687,-100,4,1,1,30,0,0

[Colours]
Combo1 : 105,165,245
Combo2 : 66,196,66
Combo3 : 222,122,222
Combo4 : 233,188,123
SliderBorder : 255,255,255

[HitObjects]
160,168,471,2,0,B|240:136,1,64,2|2,0:0|0:0,0:0:0
304,168,1663,6,0,B|384:136,1,64,2|0,0:0|0:0,0:0:0
432,200,2060,2,0,B|512:168,1,64,2|0,0:0|0:0,0:0:0
352,240,2656,2,0,B|320:264|248:256|232:216,1,128,2|2,0:0|0:0,0:0:0
48,88,3649,6,0,B|80:184,1,64,2|0,0:0|0:0,0:0:0
136,96,4047,2,0,B|168:192,1,64,2|0,0:0|0:0,0:0:0
368,256,4841,6,0,B|336:352,1,64,2|0,0:0|0:0,0:0:0
280,264,5239,2,0,B|248:360,1,64,2|0,0:0|0:0,0:0:0
312,184,5835,2,0,B|336:152|408:152|432:192,1,128,2|2,0:0|0:0,0:0:0
224,56,6828,5,2,0:0:0
224,56,7027,1,0,0:0:0
152,96,7225,2,0,B|64:144,1,64,2|0,0:0|0:0,0:0:0
336,112,8020,5,2,0:0:0
336,112,8219,1,0,0:0:0
408,152,8418,2,0,B|496:200,1,64,2|0,0:0|0:0,0:0:0
368,312,9014,2,0,B|352:352|280:368|240:328,2,128,2|2|8,0:0|0:0|0:0,0:0:0
296,264,10007,6,0,B|280:176,1,64,2|0,0:0|0:0,0:0:0
232,136,10404,2,0,B|216:48,1,64,2|0,0:0|0:0,0:0:0
56,264,11199,6,0,B|72:176,1,64,2|0,0:0|0:0,0:0:0
120,136,11596,1,0,0:0:0
136,56,11795,2,0,B|160:24|224:16|256:48,2,128,0|0|4,0:0|0:0|0:0,0:0:0
288,120,12987,1,0,0:0:0
288,120,13186,6,0,B|312:144|384:144|408:104,1,128,0|8,0:0|0:0,0:0:0
496,248,13980,2,0,B|472:320,2,64,0|0|8,0:0|0:0|0:0,0:0:0
336,288,14775,2,0,B|280:328|208:312,1,128,0|8,0:0|0:0,0:0:0
136,296,15371,2,0,B|64:288|24:224,1,128,2|0,0:0|0:0,0:0:0
8,152,15967,1,8,0:0:0
120,32,16365,5,0,0:0:0
264,112,16762,1,8,0:0:0
424,64,17159,2,0,B|480:208,1,128,0|8,0:0|0:0,0:0:0
448,264,17755,6,0,B|400:312|328:288,1,128,2|2,0:0|0:0,0:0:0
184,200,18550,2,0,B|112:176|64:224,2,128,2|2|0,0:0|0:0|0:0,0:0:0
256,248,19543,6,0,B|312:96,1,128,4|8,0:0|0:0,0:0:0
440,216,20338,2,0,B|464:144,1,64
432,72,20735,1,8,0:0:0
272,32,21133,1,0,0:0:0
192,32,21331,2,0,B|104:32,1,64,2|8,0:0|0:0,0:0:0
232,160,21927,1,0,0:0:0
152,160,22126,2,0,B|56:160,1,64,2|8,0:0|0:0,0:0:0
192,288,22722,6,0,B|240:320|336:296|344:224,2,192,0|2|0,0:0|0:0|0:0,0:0:0
296,152,24312,2,0,B|344:32,1,128,0|8,0:0|0:0,0:0:0
456,152,25106,2,0,B|488:64,2,64,0|0|8,0:0|0:0|0:0,0:0:0
456,320,25901,6,0,B|416:344|352:320|344:272,1,128
200,200,26696,1,0,0:0:0
104,336,27093,2,0,B|32:352,2,64,0|2|0,0:0|0:0|0:0,0:0:0
120,168,27888,1,0,0:0:0
232,48,28285,2,0,B|256:128,1,64,0|2,0:0|0:0,0:0:0
320,56,28682,2,0,B|344:136,1,64,0|2,0:0|0:0,0:0:0
416,152,29080,6,0,B|448:176|456:240|432:280,2,128
368,312,30272,1,0,0:0:0
288,296,30470,1,0,0:0:0
208,280,30669,2,0,B|160:128,1,128
240,120,31265,2,0,B|224:80|176:80,1,64,2|0,0:0|0:0,0:0:0
112,96,31663,2,0,B|88:120|88:160,2,64,2|0|8,0:0|0:0|0:0,0:0:0
136,16,32259,5,0,0:0:0
304,16,32656,1,0,0:0:0
440,112,33053,2,0,B|464:144|456:208|424:232,1,128
368,288,33649,1,2,0:0:0
288,312,33848,2,0,B|248:336|184:328|160:296,1,128
96,152,34643,2,0,B|16:168,1,64,0|2,0:0|0:0,0:0:0
48,80,35040,2,0,B|128:64,1,64,0|2,0:0|0:0,0:0:0
176,120,35437,6,0,B|208:136|272:128|296:88,1,128
440,24,36232,2,0,B|480:168,1,128
440,224,36828,1,0,0:0:0
400,296,37027,2,0,B|368:320|304:312|280:280,1,128
184,152,37821,2,0,B|152:240,1,64,8|0,0:0|0:0,0:0:0
96,160,38219,2,0,B|64:248,1,64,8|0,0:0|0:0,0:0:0
8,168,38616,5,0,0:0:0
80,16,39014,1,8,0:0:0
232,88,39411,2,0,B|320:136,1,64
440,192,40007,1,8,0:0:0
440,192,40206,6,0,B|456:264|416:312,1,128,0|8,0:0|0:0,0:0:0
256,352,41000,2,0,B|240:280|280:232,1,128,0|8,0:0|0:0,0:0:0
328,160,41596,1,0,0:0:0
400,120,41795,5,0,0:0:0
272,16,42192,1,8,0:0:0
168,152,42590,2,0,B|120:216,1,64
48,56,43186,1,8,0:0:0
48,56,43384,6,0,B|72:80|144:88|192:56,1,128,0|8,0:0|0:0,0:0:0
336,88,44179,2,0,B|368:24,1,64,0|8,0:0|0:0,0:0:0
432,80,44576,2,0,B|400:144,1,64,8|0,0:0|0:0,0:0:0
424,216,44974,6,0,B|360:344,1,128,4|8,0:0|0:0,0:0:0
288,304,45570,2,0,B|232:344|160:328,1,128,2|2,0:0|0:0,0:0:0
88,304,46166,1,0,0:0:0
32,152,46563,6,0,B|88:32,1,128,0|8,0:0|0:0,0:0:0
240,96,47358,1,0,0:0:0
392,32,47755,1,8,0:0:0
464,184,48153,6,0,B|480:240|440:272,2,96
384,208,48947,2,0,B|368:152|408:120,2,96
360,288,49742,1,0,0:0:0
360,288,49941,2,0,B|216:288,1,128
112,72,50934,1,8,0:0:0
192,216,51331,6,0,B|168:248|104:256|72:232,2,128,4|8|0,0:0|0:0|0:0,0:0:0
272,72,52523,2,0,B|296:40|360:32|392:56,1,128,8|0,0:0|0:0,0:0:0
488,184,53317,1,8,0:0:0
424,336,53715,6,0,B|288:304,2,128,0|8|0,0:0|0:0|0:0,0:0:0
408,168,54907,2,0,B|272:136,1,128,8|0,0:0|0:0,0:0:0
144,232,55701,1,8,0:0:0
8,136,56099,5,0,0:0:0
144,40,56496,2,0,B|216:32|280:80|280:160|224:208,1,256,8|8,0:0|0:0,0:0:0
128,344,57688,1,0,0:0:0
296,360,58085,1,8,0:0:0
448,288,58483,6,0,B|424:216|480:160,1,128,0|8,0:0|0:0,0:0:0
344,56,59277,2,0,B|272:80,2,64,0|0|8,0:0|0:0|0:0,0:0:0
408,112,59873,1,0,0:0:0
368,184,60072,2,0,B|320:240|240:232,1,128,0|8,0:0|0:0,0:0:0
168,88,60867,2,0,B|104:80|56:136,1,128,0|8,0:0|0:0,0:0:0
32,216,61463,6,0,B|72:360,1,128
144,360,62059,1,8,0:0:0
304,304,62456,2,0,B|384:320,2,64,0|8|8,0:0|0:0|0:0,0:0:0
232,152,63251,6,0,B|192:168|128:152|112:112,2,128,4|8|0,0:0|0:0|0:0,0:0:0
344,32,64443,2,0,B|384:16|448:32|464:72,1,128,8|0,0:0|0:0,0:0:0
496,224,65237,1,8,0:0:0
384,352,65635,6,0,B|344:216,2,128,0|8|0,0:0|0:0|0:0,0:0:0
224,304,66827,2,0,B|184:168,1,128,8|0,0:0|0:0,0:0:0
40,256,67621,1,8,0:0:0
136,120,68019,5,0,0:0:0
288,56,68416,2,0,B|320:80|368:88|408:64|408:64|496:176,1,256,8|8,0:0|0:0,0:0:0
318,154,69608,2,0,B|248:144|208:88,1,128,0|8,0:0|0:0,0:0:0
296,232,70403,2,0,B|232:264|160:248,1,128,0|8,0:0|0:0,0:0:0
328,312,71197,2,0,B|288:368,2,64,0|0|8,0:0|0:0|0:0,0:0:0
376,248,71793,1,0,0:0:0
392,168,71992,6,0,B|360:136|352:88|368:48,1,128,0|8,0:0|0:0,0:0:0
216,120,72787,2,0,B|192:152|128:160|88:128,1,128,0|8,0:0|0:0,0:0:0
16,168,73383,1,0,0:0:0
24,256,73582,2,0,B|112:360,1,128,0|8,0:0|0:0,0:0:0
192,352,74178,1,0,0:0:0
264,304,74376,2,0,B|344:304,1,64,0|0,0:0|0:0,0:0:0
400,256,74774,2,0,B|480:256,1,64,0|0,0:0|0:0,0:0:0
504,184,75171,5,8,0:0:0
424,40,75568,1,8,0:0:0
256,40,75966,1,8,0:0:0
176,184,76363,1,8,0:0:0
264,328,76760,2,0,B|240:368|176:376|136:344,1,128,8|8,0:0|0:0,0:0:0
48,216,77555,1,8,0:0:0
96,144,77754,2,0,B|144:64,1,64,4|8,0:0|0:0,0:0:0
296,72,78350,6,0,B|352:32|432:56,1,128,8|8,0:0|0:0,0:0:0
368,208,79144,2,0,B|328:240|264:224,2,96,8|0|0,0:0|0:0|0:0,0:0:0
416,136,79939,5,0,0:0:0
264,80,80336,2,0,B|232:16,2,64,8|0|0,0:0|0:0|0:0,0:0:0
232,160,80933,2,0,B|200:224,2,64,8|0|0,0:0|0:0|0:0,0:0:0
312,152,81529,5,4,0:0:0
256,192,81727,12,0,86297,0:0:0
168,256,86893,5,0,0:0:0
256,112,87290,1,0,0:0:0
344,256,87687,1,4,0:0:0
