osu file format v10

[General]
AudioFilename: Little Busters TV Size.mp3
AudioLeadIn: 2000
PreviewTime: 51227
Countdown: 0
SampleSet: Normal
StackLeniency: 0.7
Mode: 0
LetterboxInBreaks: 0

[Editor]
DistanceSpacing: 1.05
BeatDivisor: 2
GridSize: 8

[Metadata]
Title:Little Busters! -TV animation ver.-
TitleUnicode:Little Busters! -TV animation ver.-
Artist:Rita
ArtistUnicode:Rita
Creator:NatsumeRin
Version:Easy
Source:Little Busters!
Tags:key jun maeda shinji orito kanpakyin climbb65588 KanaRin
BeatmapID:189296
BeatmapSetID:60697

[Difficulty]
HPDrainRate:2
CircleSize:3
OverallDifficulty:2
ApproachRate:3
SliderMultiplier:0.8
SliderTickRate:1

[Events]
//Background and Video events
0,0,"BG.jpg"
Video,0,"little busters.avi"
//Break Periods
//Storyboard Layer 0 (Background)
//Storyboard Layer 1 (Fail)
//Storyboard Layer 2 (Pass)
//Storyboard Layer 3 (Foreground)
//Storyboard Sound Samples
//Background Colour Transformations
3,100,163,162,255

[TimingPoints]
471,397.350993377483,4,2,1,40,1,0
471,-100,4,2,1,40,0,0
868,-100,4,2,1,10,0,0
1265,-100,4,2,1,40,0,0
2855,-100,4,2,1,10,0,0
3053,-100,4,2,1,40,0,0
3252,-100,4,2,1,10,0,0
3451,-100,4,2,1,20,0,0
3649,-100,4,2,1,40,0,0
5636,-100,4,2,1,10,0,0
5835,-100,4,2,1,40,0,0
6033,-100,4,2,1,10,0,0
6232,-100,4,2,1,40,0,0
6431,-100,4,2,1,10,0,0
6629,-100,4,2,1,20,0,0
6828,-100,4,2,1,50,0,0
9808,-100,4,2,2,30,0,0
10007,-100,4,2,1,50,0,0
11596,-100,4,1,1,30,0,0
12192,-100,4,1,1,40,0,0
12391,-100,4,2,1,15,0,0
12590,-100,4,1,1,40,0,0
12788,-100,4,2,1,15,0,0
12987,-100,4,1,1,30,0,0
13186,-100,4,1,1,50,0,0
17755,-100,4,2,1,50,0,0
19543,-100,4,1,1,50,0,0
38616,-100,4,1,1,60,0,0
40007,-100,4,1,1,40,0,0
40206,-100,4,1,1,50,0,0
41000,-100,4,1,1,55,0,0
41398,-100,4,1,1,40,0,0
41795,-100,4,1,1,60,0,0
43186,-100,4,1,1,40,0,0
43384,-100,4,1,1,50,0,0
44179,-100,4,1,1,40,0,0
44974,-100,4,1,1,50,0,0
45172,-100,4,2,1,50,0,0
45371,-100,4,1,1,50,0,0
45570,-100,4,2,1,50,0,0
45769,-100,4,1,1,50,0,0
45967,-100,4,2,1,50,0,0
46166,-100,4,1,1,50,0,0
46365,-100,4,2,1,50,0,0
46563,-100,4,1,1,50,0,0
46762,-100,4,2,1,50,0,0
46961,-100,4,1,1,50,0,0
47159,-100,4,2,1,50,0,0
47358,-100,4,1,1,50,0,0
47557,-100,4,2,1,50,0,0
47755,-100,4,1,1,50,0,0
47954,-100,4,2,1,50,0,0
48153,-100,4,1,1,40,0,0
48550,-100,4,1,1,45,0,0
48947,-100,4,1,1,50,0,0
49345,-100,4,1,1,55,0,0
49742,-100,4,1,1,60,0,0
50338,-66.6666666666667,4,2,1,70,0,0
50735,-66.6666666666667,4,1,1,50,0,0
51133,-100,4,1,1,40,0,0
51331,397.350993377483,6,1,1,60,1,1
51529,-100,6,2,1,60,0,1
51728,-100,6,1,1,60,0,1
51927,-100,6,2,1,60,0,1
52125,-100,6,1,1,60,0,1
52324,-100,6,2,1,60,0,1
52523,-100,6,1,1,60,0,1
52721,-100,6,2,1,60,0,1
52920,-100,6,1,1,60,0,1
53119,-100,6,2,1,60,0,1
53317,-100,6,1,1,60,0,1
53516,-100,6,2,1,60,0,1
53715,397.350993377483,4,1,1,60,1,1
53913,-100,4,2,1,60,0,1
54112,-100,4,1,1,60,0,1
54311,-100,4,2,1,60,0,1
54509,-100,4,1,1,60,0,1
54708,-100,4,2,1,60,0,1
54907,-100,4,1,1,60,0,1
55105,-100,4,2,1,60,0,1
55304,-100,4,1,1,60,0,1
55503,-100,4,2,1,60,0,1
55701,-100,4,1,1,60,0,1
55900,-100,4,2,1,60,0,1
56099,-100,4,1,1,60,0,1
56297,-100,4,2,1,60,0,1
56496,-100,4,1,1,50,0,1
56595,-100,4,1,1,40,0,1
56893,-100,4,1,1,60,0,1
57092,-100,4,2,1,60,0,1
57291,-100,4,1,1,60,0,1
57489,-100,4,2,1,60,0,1
57688,-100,4,1,1,60,0,1
57887,-100,4,2,1,60,0,1
58085,-100,4,1,1,60,0,1
58284,-100,4,2,1,60,0,1
58483,-100,4,1,1,60,0,1
58681,-100,4,2,1,60,0,1
58880,-100,4,1,1,60,0,1
59079,-100,4,2,1,60,0,1
59277,-100,4,1,1,60,0,1
59476,-100,4,2,1,60,0,1
59675,-100,4,1,1,60,0,1
59873,-100,4,2,1,60,0,1
60072,-100,4,1,1,60,0,1
60271,-100,4,2,1,60,0,1
60469,-100,4,1,1,60,0,1
60668,-100,4,2,1,60,0,1
60867,-100,4,1,1,60,0,1
61065,-100,4,2,1,60,0,1
61264,-100,4,1,1,60,0,1
61463,-100,4,1,1,50,0,1
62456,-100,4,1,1,60,0,1
63052,-100,4,1,1,40,0,1
63251,397.350993377483,6,1,1,60,1,1
63449,-100,6,2,1,60,0,1
63648,-100,6,1,1,60,0,1
63847,-100,6,2,1,60,0,1
64045,-100,6,1,1,60,0,1
64244,-100,6,2,1,60,0,1
64443,-100,6,1,1,60,0,1
64641,-100,6,2,1,60,0,1
64840,-100,6,1,1,60,0,1
65039,-100,6,2,1,60,0,1
65237,-100,6,1,1,60,0,1
65436,-100,6,2,1,60,0,1
65635,397.350993377483,4,1,1,60,1,1
65833,-100,4,2,1,60,0,1
66032,-100,4,1,1,60,0,1
66231,-100,4,2,1,60,0,1
66429,-100,4,1,1,60,0,1
66628,-100,4,2,1,60,0,1
66827,-100,4,1,1,60,0,1
67025,-100,4,2,1,60,0,1
67224,-100,4,1,1,60,0,1
67423,-100,4,2,1,60,0,1
67621,-100,4,1,1,60,0,1
67820,-100,4,2,1,60,0,1
68019,-100,4,1,1,60,0,1
68217,-100,4,2,1,60,0,1
68416,-100,4,1,1,50,0,1
68515,-100,4,1,1,40,0,1
68813,-100,4,1,1,60,0,1
69012,-100,4,2,1,60,0,1
69211,-100,4,1,1,60,0,1
69409,-100,4,2,1,60,0,1
69608,-100,4,1,1,60,0,1
69807,-100,4,2,1,60,0,1
70005,-100,4,1,1,60,0,1
70204,-100,4,2,1,60,0,1
70403,-100,4,1,1,60,0,1
70601,-100,4,2,1,60,0,1
70800,-100,4,1,1,60,0,1
70999,-100,4,2,1,60,0,1
71197,-100,4,1,1,60,0,1
71396,-100,4,2,1,60,0,1
71595,-100,4,1,1,60,0,1
71793,-100,4,2,1,60,0,1
71992,-100,4,1,1,60,0,1
75171,-100,4,1,1,50,0,0
75370,-100,4,2,1,50,0,0
75568,-100,4,1,1,50,0,0
75767,-100,4,2,1,50,0,0
75966,-100,4,1,1,50,0,0
76164,-100,4,2,1,50,0,0
76363,-100,4,1,1,50,0,0
76562,-100,4,2,1,50,0,0
76760,-100,4,1,1,50,0,0
76959,-100,4,2,1,50,0,0
77158,-100,4,1,1,50,0,0
77356,-100,4,2,1,50,0,0
77555,-100,4,1,1,50,0,0
77754,-100,4,2,1,50,0,0
77952,-100,4,1,1,50,0,0
78151,-100,4,2,1,50,0,0
78350,-100,4,1,1,50,0,0
78548,-100,4,2,1,50,0,0
78747,-100,4,1,1,50,0,0
78946,-100,4,2,1,50,0,0
79144,-100,4,1,1,50,0,0
79343,-100,4,2,1,50,0,0
79542,-100,4,1,1,50,0,0
79740,-100,4,1,1,35,0,0
79939,-100,4,1,1,50,0,0
80336,-100,4,1,1,40,0,0
80734,-100,4,1,1,55,0,0
80933,-100,4,1,1,40,0,0
81529,-100,4,2,1,60,0,0
81727,-100,4,1,1,20,0,0
86297,-100,4,1,1,45,0,0
87687,-100,4,1,1,30,0,0

[Colours]
Combo1 : 105,165,245
Combo2 : 66,196,66
Combo3 : 222,122,222
Combo4 : 233,188,123
SliderBorder : 255,255,255

[HitObjects]
176,136,471,1,2,0:0:0
176,136,1663,2,0,P|208:216,1,80,2|0,0:0|0:0,0:0:0
320,272,2656,2,0,P|360:264|392:232,1,80,2|2,0:0|0:0,0:0:0
400,112,3649,6,0,P|320:136,1,80,2|0,0:0|0:0,0:0:0
323,134,4841,2,0,P|221:164,1,80,2|0,0:0|0:0,0:0:0
128,192,5835,2,0,P|120:152|136:112,1,80,2|2,0:0|0:0,0:0:0
232,40,6828,5,2,0:0:0
304,80,7225,1,0,0:0:0
456,160,8020,1,2,0:0:0
384,200,8418,1,0,0:0:0
384,328,9014,2,0,P|338:324|308:300,1,80,2|2,0:0|0:0,0:0:0
256,192,10007,5,2,0:0:0
232,272,10404,1,0,0:0:0
88,192,11199,1,2,0:0:0
64,272,11596,2,0,P|128:272|168:208,1,120,0|0,0:0|0:0,0:0:0
160,152,12590,1,0,0:0:0
216,40,13186,6,0,P|288:64|368:48,1,160
472,184,14775,2,0,P|400:224|304:224,1,160
168,296,16365,1,0,0:0:0
40,184,17159,1,0,0:0:0
128,88,17755,6,0,P|144:136|184:160,1,80,2|0,0:0|0:0,0:0:0
248,184,18550,2,0,P|288:184|328:160,1,80,2|0,0:0|0:0,0:0:0
256,56,19543,6,0,P|328:40|408:80,1,160
456,232,21133,2,0,P|380:267|308:251,1,160
168,168,22722,2,0,P|40:168,2,120
208,328,24709,2,0,P|168:340|128:326,2,80,0|0|0,0:0|0:0|0:0,0:0:0
280,288,25901,5,0,0:0:0
360,288,26298,2,0,P|440:288,1,80
400,120,27490,2,0,P|464:112|520:152,2,120
320,88,29080,6,0,P|232:88,1,80
168,48,29874,1,0,0:0:0
48,168,30669,2,0,P|24:216|40:288,2,120
104,232,32259,6,0,P|200:232,1,80
256,280,33053,1,0,0:0:0
416,232,33848,2,0,P|432:296|392:352,2,120
376,160,35437,5,0,0:0:0
325,92,35835,2,0,P|298:126|291:168,1,80
128,136,37027,2,0,P|88:152|40:144|16:112,2,120,0|0|8,0:0|0:0|0:0,0:0:0
208,168,38616,6,0,P|240:248,1,80,0|8,0:0|0:0,0:0:0
272,320,39411,2,0,P|336:320,1,40
432,352,40206,6,0,P|440:314|429:273,1,80
392,200,41000,1,0,0:0:0
432,128,41398,1,4,0:0:0
392,56,41795,6,0,P|296:56,1,80,0|8,0:0|0:0,0:0:0
224,56,42590,2,0,P|200:112,1,40
88,136,43384,6,0,P|64:176|72:224,1,80
80,288,44179,2,0,P|96:328|136:352,1,80
208,336,44974,6,0,P|352:336,2,120,0|2|0,0:0|0:0|0:0,0:0:0
224,256,46563,1,0,0:0:0
312,256,46961,2,0,P|376:248|408:160,1,160
376,88,48153,5,0,0:0:0
216,144,48947,1,0,0:0:0
56,200,49742,2,0,P|40:144|64:80,2,120,0|2|0,0:0|0:0|0:0,0:0:0
112,264,51331,6,0,P|192:272|264:216,1,160,4|0,0:0|0:0,0:0:0
304,160,52523,2,0,P|320:80|280:8,1,160
352,56,53715,6,0,P|432:64|504:128,1,160
496,192,54907,2,0,P|434:239|354:247,1,160
280,216,56099,5,0,0:0:0
240,144,56496,2,0,P|200:72|128:64|72:96|40:176|104:256,1,320,0|0,0:0|0:0,0:0:0
144,320,58483,6,0,P|312:304,1,160
440,200,60072,1,0,0:0:0
376,48,60867,2,0,P|432:24|496:48,2,120,0|0|8,0:0|0:0|0:0,0:0:0
304,96,62456,1,0,0:0:0
232,48,62854,1,8,0:0:0
160,96,63251,6,0,P|104:136|16:120,1,160,4|0,0:0|0:0,0:0:0
48,200,64443,2,0,P|104:352,1,160
184,320,65635,6,0,P|256:352|336:328,1,160
400,280,66827,2,0,P|464:120,1,160
440,48,68019,5,0,0:0:0
360,16,68416,2,0,P|352:88|296:120|216:112|184:56|184:56|72:56,1,320
40,112,70403,6,0,P|16:184|48:264,1,160
192,344,71992,2,0,P|256:344|304:304,2,120
224,264,73582,2,0,P|267:231|331:231,2,120
152,216,75171,5,8,0:0:0
216,64,75966,1,8,0:0:0
384,40,76760,2,0,P|480:64|504:120,1,160,8|8,0:0|0:0,0:0:0
464,192,77952,1,0,0:0:0
504,272,78350,5,8,0:0:0
352,344,79144,1,8,0:0:0
200,272,79939,2,0,P|176:192|200:112,2,160,8|8|12,0:0|0:0|0:0,0:0:0
256,192,81727,12,0,86297,0:0:0
214,224,86893,5,0,0:0:0
256,152,87290,1,0,0:0:0
298,224,87687,1,4,0:0:0
