osu file format v9

[General]
AudioFilename: op00.mp3
AudioLeadIn: 1000
PreviewTime: 72677
Countdown: 0
SampleSet: Soft
StackLeniency: 0.7
Mode: 0
LetterboxInBreaks: 0

[Editor]
DistanceSpacing: 0.8
BeatDivisor: 4
GridSize: 4

[Metadata]
Title:Little Busters! -Ecstasy Ver.-
Artist:Rita
Creator:Kawayi Rika
Version:Zero
Source:Little Busters! EX
Tags:Hellzero OzzyOzrock opening key galgame

[Difficulty]
HPDrainRate:7
CircleSize:4
OverallDifficulty:7
ApproachRate:8
SliderMultiplier:1.6
SliderTickRate:2

[Events]
//Background and Video events
Video,0,"video.flv"
0,0,"BG.jpg"
//Break Periods
2,34982,46748
//Storyboard Layer 0 (Background)
//Storyboard Layer 1 (Fail)
//Storyboard Layer 2 (Pass)
//Storyboard Layer 3 (Foreground)
//Storyboard Sound Samples
//Background Colour Transformations
3,100,163,162,255

[TimingPoints]
1406,397.350993377483,4,2,1,50,1,0
1406,-166.666666666667,4,2,1,50,0,0
18094,-166.666666666667,4,2,1,5,0,0
18194,-166.666666666667,4,2,1,70,0,0
20478,-166.666666666667,4,2,1,5,0,0
21571,-100,4,2,1,60,0,0
60114,-100,4,2,1,70,0,0
65667,-100,4,1,1,40,0,0
66660,-100,4,2,1,70,0,0
69651,-100,4,1,1,40,0,0
72929,-100,4,1,1,50,0,1
103127,-166.666666666667,4,2,1,50,0,0
111074,-166.666666666667,4,2,1,30,0,0
111174,-166.666666666667,4,2,1,50,0,0
115048,-100,4,2,1,60,0,0
128359,-166.666666666667,4,2,1,40,0,0
139684,-100,4,1,1,50,0,1
176240,-100,4,1,1,50,0,0
176339,-100,4,1,0,50,0,0

[Colours]
Combo1 : 221,15,205
Combo2 : 16,252,3
Combo3 : 14,32,250
SliderBorder : 250,245,167

[HitObjects]
196,68,1406,2,0,B|224:24|288:24|316:68,2,144.000003433228,2|0|2
256,144,2995,1,0
256,240,3392,1,0
316,315,3790,6,0,B|288:360|224:360|196:316,2,144.000003433228,2|0|2
380,244,5379,1,0
460,192,5776,1,0
380,140,6174,6,0,B|368:56|276:48,1,144.000003433228,2|0
256,192,7366,1,2
300,276,7763,2,0,B|345:276|345:244|389:244,1,96.0000022888184
227,335,8558,6,0,B|144:328|132:244,1,144.000003433228,2|0
256,192,9750,1,2
212,108,10147,2,0,B|166:107|166:139|122:139,1,96.0000022888184
300,108,10942,5,2
348,112,11141,1,0
392,132,11339,1,2
428,164,11538,1,0
452,208,11737,1,2
448,316,12134,2,0,B|360:308|336:216,2,144.000003433228,2|0|2
468,272,13525,5,0
472,224,13723,1,2
464,176,13922,1,0
440,132,14121,1,2
364,72,14518,2,0,B|312:14|230:48,2,144.000003433228,2|0|2
256,192,15909,12,0,18094
256,192,18293,12,0,20478
256,128,21670,5,2
176,268,22068,6,0,B|144:296|80:300,1,80,6|0
112,216,22465,2,0,B|144:188|208:184,1,80,8|0
256,232,22862,1,2
320,184,23061,1,0
400,180,23260,1,8
452,240,23458,2,0,B|472:277|456:317,2,80,0|2|0
384,280,24055,1,8
304,296,24253,2,0,B|234:357|138:308,2,160,2|2|2
412,196,25247,6,0,B|400:106|310:85,1,160,4|8
256,192,25843,1,0
200,85,26041,2,0,B|110:106|99:195,1,160,0|8
256,304,26637,6,0,B|256:348,4,40,0|8|0|8|8
256,224,27233,1,8
256,192,27333,1,0
256,160,27432,1,0
256,128,27531,1,8
256,96,27631,1,8
340,88,27829,5,8
172,88,28028,1,8
384,156,28227,1,4
128,156,28425,1,4
176,280,28624,6,0,B|144:304|92:304,2,80,0|8|0
256,296,29220,2,0,B|320:320|360:260|416:284,1,160,2|8
472,228,29816,1,0
428,160,30015,6,0,B|336:136|332:32,1,160,2|8
256,68,30611,1,0
256,148,30809,1,2
256,308,31207,1,0
256,308,31405,1,8
212,232,31604,6,0,B|172:209|163:154,2,80,2|0|8
300,232,32200,2,0,B|339:209|348:154,2,80,2|0|0
256,164,32796,1,8
256,164,32995,1,0
256,84,33194,6,8,B|256:28,4,40,8|8|0|8|8
360,132,33790,1,10
152,132,34187,1,10
256,312,34584,2,0,B|256:252,2,40,8|8|4
212,64,47498,5,2
136,92,47697,1,0
84,152,47896,2,0,B|48:116|60:64,2,80,2|0|2
156,188,48492,1,0
204,252,48690,1,2
188,332,48889,1,0
124,260,49088,6,0,B|132:168|252:140,1,160,2|2
300,128,49684,1,0
364,172,49882,2,0,B|412:164|432:128,1,80,2|0
433,39,50280,2,0,B|385:47|368:80,1,80,2|0
304,232,50677,6,0,B|256:300|144:296,1,160,2|0
88,272,51273,1,2
148,220,51472,2,0,B|116:176|48:204,2,80,0|0|2
148,220,52068,1,0
256,144,52266,6,0,B|324:100,1,80,2|0
344,192,52664,2,0,B|424:192,1,80,2|0
256,240,53061,2,0,B|324:284,1,80,2|0
424,268,53458,1,0
424,116,53657,1,0
344,192,53856,6,0,B|248:192,2,80,2|0|2
220,120,54452,2,0,B|160:192|220:264,1,160,2|0
152,324,55048,1,2
92,268,55247,1,2
116,192,55445,6,0,B|32:192,2,80,2|0|0
92,116,56041,1,2
152,60,56240,2,0,B|196:32|256:44,1,80,2|0
371,113,56637,2,0,B|328:140|296:132,1,80,2|0
176,192,57035,6,0,B|120:260,1,80,2|0
336,192,57432,2,0,B|392:260,1,80,2|0
256,260,57829,1,2
256,260,58028,1,0
256,152,58227,2,0,B|256:64,1,80,2|0
256,340,58624,5,2
336,192,58823,1,2
176,192,59021,1,0
356,312,59220,5,2
256,180,59419,1,2
156,312,59617,1,0
256,340,59816,2,0,B|256:260,1,80,8|0
184,164,60213,6,0,B|256:103|328:163,1,160,4|8
404,192,60809,1,0
396,112,61008,2,0,B|368:76|312:64,2,80,8|8|0
181,68,61604,2,8,B|144:76|116:112,1,80
44,192,62002,5,0
111,259,62200,1,8
178,191,62399,1,0
256,240,62598,2,0,B|256:340,2,80,8|0|8
334,191,63194,1,0
256,136,63392,6,0,B|216:88|148:88|104:136,1,160,4|8
178,191,63988,1,0
256,248,64187,2,0,B|280:288|328:288,2,80,8|8|0
332,192,64783,1,8
384,108,64982,6,0,B|360:68|300:48,1,80,8|0
187,57,65379,2,0,B|152:68|128:107,1,80
140,204,65776,1,0
152,244,65876,1,0
180,272,65975,1,0
216,288,66074,1,0
256,296,66174,1,8
296,288,66273,1,8
332,272,66372,1,8
360,244,66472,1,8
372,204,66571,1,12
192,80,66968,6,0,B|160:56|116:64,1,80,10|0
136,144,67366,2,0,B|96:139|62:168,1,80,2|0
120,224,67763,2,0,B|83:239|68:281,1,80,10|0
144,300,68160,5,2
212,344,68359,1,0
292,344,68558,2,0,B|396:328,1,80,10|0
479,243,68955,2,0,B|400:256,1,80,2|0
352,192,69353,1,10
332,116,69551,1,0
180,116,69750,5,12
352,192,69949,1,8
160,192,70147,1,8
332,116,70346,1,8
208,260,70545,6,0,B|180:296|132:296,1,80
256,332,70942,1,0
304,260,71141,1,0
304,260,71240,1,0
304,260,71339,2,0,B|332:296|380:296,2,80
256,168,71935,1,0
256,72,72134,2,0,B|256:24,4,40,0|0|0|0|8
104,116,72929,6,0,B|148:116|180:96,2,80,4|0|8
256,36,73525,1,0
407,115,73723,2,0,B|364:116|331:95,1,80
472,188,74121,1,8
404,256,74319,5,0
404,256,74419,1,0
404,256,74518,2,0,B|368:276|296:276,1,80,0|0
256,340,74915,1,0
256,208,75114,2,0,B|256:152,2,40,0|0|4
185,274,75511,2,0,B|144:276|108:256,2,80,0|8|0
168,180,76107,6,0,B|156:84|56:68,1,160,0|8
72,168,76704,1,0
72,168,76803,1,0
72,168,76902,2,0,B|72:228|112:252,1,80
192,268,77300,1,8
256,340,77498,1,0
320,268,77697,1,4
192,136,78094,5,8
220,112,78194,1,8
256,100,78293,1,8
292,112,78392,1,8
320,136,78492,1,12
400,188,78690,6,0,B|444:220|456:268,2,80,0|8|0
360,276,79286,1,0
296,348,79485,2,0,B|256:332|216:348,2,80,0|8|0
152,276,80081,1,2
100,196,80280,1,0
128,104,80478,1,8
216,64,80677,1,0
256,64,80776,1,0
296,64,80876,6,0,B|368:64|368:64|416:64|448:116,1,160,0|8
372,144,81472,1,0
480,176,81670,1,2
480,288,81869,1,0
380,328,82068,2,0,B|348:356|284:340,1,80,8|0
256,280,82465,5,2
144,300,82664,1,0
144,300,82763,1,0
144,300,82862,1,8
112,192,83061,2,0,B|4:192,1,80
88,96,83458,5,0
256,72,83657,1,0
424,96,83856,1,0
424,288,84055,6,0,B|448:332|492:344,1,80
424,192,84452,1,8
404,192,84551,1,8
384,192,84651,1,8
364,192,84750,1,0
344,192,84849,2,0,B|260:192,1,80,4|0
168,192,85247,1,8
72,240,85445,1,0
140,312,85644,6,0,B|200:312|216:356,1,80
256,260,86041,1,8
302,343,86240,2,0,B|312:312|372:312,2,80
256,260,86836,1,8
256,164,87035,1,0
256,164,87134,1,0
256,164,87233,1,4
164,192,87432,5,0
256,68,87631,1,8
348,192,87829,1,0
170,103,88028,6,0,B|108:80|64:128|14:101,1,160,0|8
341,103,88624,2,0,B|404:80|448:128|497:101,1,160,0|0
256,192,89220,1,8
256,192,89319,1,0
256,192,89419,1,0
112,136,89617,6,0,B|152:120|176:72,1,80,4|0
256,112,90015,1,8
256,152,90114,1,8
256,192,90213,1,8
256,232,90313,1,8
256,272,90412,1,12
164,348,90611,5,0
256,316,90809,1,8
348,348,91008,1,0
452,260,91207,6,0,B|452:204|424:184,1,80
332,188,91604,2,0,B|307:170|307:114,1,80,8|0
204,114,92002,2,0,B|204:170|180:188,1,80
84,186,92399,2,0,B|60:204|60:260,1,80,8|0
140,316,92796,5,0
140,316,92896,1,0
140,316,92995,1,0
184,232,93194,2,0,B|256:171|328:231,1,160,8|4
256,292,93790,1,0
340,340,93988,1,8
420,288,94187,2,0,B|472:268|480:224,1,80
388,192,94584,5,0
388,192,94684,1,0
388,192,94783,1,8
304,144,94982,1,4
208,144,95180,1,0
120,192,95379,1,0
120,192,95478,1,0
120,192,95578,1,8
256,344,95776,5,0
256,312,95876,1,0
256,280,95975,1,0
256,248,96074,1,0
256,216,96174,1,0
256,184,96273,1,0
256,152,96372,2,8,B|256:104,3,40
220,92,96770,6,0,B|184:60|132:60,1,80,8|0
84,232,97167,2,0,B|120:264|172:264,1,80,8|0
355,263,97564,2,0,B|392:264|428:232,1,80,8|0
364,60,97961,2,0,B|328:60|292:92,1,80,8|0
368,164,98359,6,8,B|412:160|440:133,2,80,8|8|0
142,163,98955,2,8,B|100:160|71:132,2,80
256,256,99551,2,0,B|256:296,2,40,8|0|0
188,192,99949,6,0,B|164:228|120:248,1,80,12|0
324,192,100346,2,0,B|348:228|392:248,1,80,8|0
200,328,100743,2,0,B|160:344|120:340,1,80,8|0
312,328,101141,2,0,B|352:344|392:340,1,80,8|0
256,256,101538,5,8
256,160,101737,1,8
224,132,101836,1,0
236,96,101935,1,8
276,96,102035,1,0
288,132,102134,1,8
152,84,102333,2,0,B|120:56|64:44,1,80,8|0
360,84,102730,2,0,B|392:56|448:44,1,80,8|0
256,124,103127,5,4
188,304,103922,6,0,B|240:328,1,48.0000011444092,2|0
324,304,104319,2,0,B|272:328,1,48.0000011444092,0|2
256,236,104915,2,0,B|256:128,2,96.0000022888184
360,60,106107,5,0
360,60,106306,1,2
256,44,106704,1,0
256,44,106902,1,2
156,60,107300,1,0
156,60,107498,1,2
180,148,107896,6,0,B|120:164,1,48.0000011444092,2|0
116,204,108293,2,0,B|69:216,1,48.0000011444092,2|0
32,304,108889,1,2
128,296,109286,5,0
128,296,109485,2,0,B|184:352|272:332,1,144.000003433228,2|2
324,264,110478,2,0,B|364:264|400:244,2,72.0000017166138,2|2|6
256,84,111869,1,2
256,192,112664,12,0,114253
256,104,115445,6,0,B|256:60,2,40,8|0|0
196,156,115843,5,2
124,188,116041,1,0
111,269,116240,2,0,B|104:316|71:334,1,80,2|0
188,244,116637,6,0,B|232:244|272:212,1,80,2|0
340,192,117035,1,2
416,216,117233,2,0,B|400:312|484:344,2,160,2|2|2
468,152,118227,1,0
404,104,118425,1,2
404,104,118525,1,0
404,104,118624,2,0,B|368:76|324:76,1,80,2|0
256,120,119021,6,0,B|168:120,1,80,2|0
136,192,119419,2,0,B|48:192,1,80,2|0
36,268,119816,1,2
100,312,120015,1,2
180,312,120213,1,2
244,268,120412,1,0
304,212,120611,6,0,B|340:180|392:180,2,80,2|0|0
168,156,121207,2,0,B|136:120|136:68,2,80,2|0|0
244,268,121803,2,0,B|208:300|156:300,1,80,2|0
304,344,122200,6,0,B|396:328,1,80,2|0
408,252,122598,2,0,B|448:224|456:164,2,80,2|2|0
372,184,123194,1,2
304,144,123392,1,2
256,80,123591,1,0
208,144,123790,6,0,B|144:80,1,80,2|2
40,80,124187,2,0,B|104:144,1,80,0|0
40,192,124584,2,0,B|60:288|156:288,2,160,2|2|2
136,196,125578,5,0
208,228,125776,1,2
232,304,125975,1,0
304,344,126174,2,0,B|344:356|392:344,1,80,2|0
478,253,126571,2,0,B|439:242|400:252,1,80,2|0
432,144,126968,6,0,B|340:144|308:52,1,160,2|2
80,144,127763,2,0,B|172:144|204:52,1,160,2|2
32,284,128558,5,0
80,284,128756,2,0,B|192:284,1,96.0000022888184,2|0
224,284,129353,1,2
480,212,129750,5,0
432,212,129949,2,0,B|320:212,1,96.0000022888184,2|0
288,212,130545,1,2
200,80,130942,5,0
200,80,131141,1,2
312,80,131538,1,0
312,80,131737,1,2
152,192,132134,6,0,B|108:228,1,48.0000011444092,0|2
136,300,132730,2,0,B|180:264,1,48.0000011444092,0|2
360,192,133326,6,0,B|404:228,1,48.0000011444092,0|2
376,300,133922,2,0,B|332:264,1,48.0000011444092,0|2
144,140,134518,5,0
144,92,134717,1,2
256,56,135114,2,0,B|256:120,1,48.0000011444092,0|2
368,244,135710,5,0
368,292,135909,1,2
256,328,136306,2,0,B|256:264,1,48.0000011444092,0|2
208,176,136902,5,0
208,176,137101,2,0,B|256:160|304:176,1,96.0000022888184,2|0
302,175,137697,1,2
256,192,137896,12,8,139286
72,188,139684,6,0,B|120:112,1,80,4|0
212,128,140081,1,8
212,128,140180,1,0
212,128,140280,1,0
256,44,140478,2,0,B|304:68|312:124,1,80
392,152,140876,1,0
392,152,140975,1,0
392,152,141074,1,0
448,232,141273,6,0,B|403:261|350:240,1,80
316,324,141670,1,8
256,248,141869,1,0
256,208,141968,1,0
256,168,142068,1,4
328,108,142266,2,0,B|256:48|184:108,1,160
184,304,142862,6,0,B|256:364|328:304,1,160,0|8
412,256,143458,1,0
484,192,143657,1,0
484,192,143756,1,0
484,192,143856,2,0,B|448:156|404:164,1,80,0|8
328,208,144253,1,0
159,221,144452,2,0,B|192:192|232:192,1,80,0|0
312,108,144849,5,8
292,72,144949,1,8
256,56,145048,1,8
220,72,145147,1,8
200,108,145247,1,12
112,196,145445,6,0,B|68:164|56:116,2,80,0|0|0
188,252,146041,1,0
256,184,146240,1,0
324,252,146439,1,8
400,196,146637,2,0,B|444:164|456:116,2,80,0|8|0
324,252,147233,1,8
296,280,147333,1,8
256,292,147432,1,8
216,280,147531,1,8
188,252,147631,6,0,B|144:172|44:176,1,160,8|8
88,276,148227,1,0
188,252,148425,1,4
256,172,148624,1,0
256,68,148823,1,8
348,116,149021,5,8
348,116,149121,1,8
348,116,149220,1,8
164,116,149419,1,8
164,116,149518,1,8
164,116,149617,1,8
216,296,149816,5,0
256,172,150015,1,8
296,296,150213,1,0
192,220,150412,1,8
320,220,150611,1,0
424,192,150809,6,8,B|480:192,4,40,0|0|0|0|8
372,112,151406,1,0
340,92,151505,1,0
304,72,151604,2,0,B|268:44|224:44,1,80,4|0
140,80,152002,1,8
140,80,152200,1,0
104,172,152399,6,0,B|113:203|173:203,1,80
256,248,152796,1,0
407,172,152995,2,0,B|398:203|339:203,1,80
180,112,153392,1,8
332,112,153591,1,0
256,52,153790,2,0,B|256:0,2,40,0|0|4
216,240,154187,6,0,B|156:312|44:280,1,160
296,240,154783,2,0,B|356:312|468:280,1,160,0|8
328,168,155379,2,0,B|256:108|184:168,1,160
256,296,155975,1,0
256,296,156074,1,0
256,296,156174,1,0
168,332,156372,6,0,B|132:308|80:304,1,80,4|0
40,224,156770,1,8
52,184,156869,1,8
72,148,156968,1,8
104,124,157068,1,8
140,108,157167,1,12
256,56,157366,5,0
336,192,157564,1,8
176,192,157763,1,0
316,112,157962,6,0,B|340:88|389:87,1,80
392,248,158359,2,0,B|374:273|318:273,1,80,8|0
193,272,158756,2,0,B|138:273|120:248,1,80,8|0
122,87,159154,2,0,B|172:88|196:112,1,80,8|0
256,192,159551,6,0,B|256:256,2,40
256,112,159949,1,8
256,112,160147,1,0
332,88,160346,6,0,B|360:124|404:128,1,80,4|0
180,88,160743,2,0,B|152:124|108:128,1,80,8|0
60,208,161141,1,0
132,272,161339,1,0
132,272,161439,1,0
132,272,161538,1,8
216,228,161737,2,0,B|300:228,1,80,4|0
380,272,162134,1,0
380,272,162233,1,0
380,272,162333,1,8
452,208,162531,6,0,B|480:164,5,40
408,156,163127,2,8,B|380:112,3,40
400,56,163525,6,0,B|352:48|320:96,1,80,8|0
216,232,163922,2,0,B|192:265|144:257,1,80,8|0
112,56,164319,2,0,B|160:48|192:92,1,80,8|0
296,232,164717,2,0,B|319:265|367:257,1,80,8|0
184,156,165114,6,0,B|148:176|96:176,1,80,8|0
328,156,165511,2,0,B|364:176|416:176,1,80,8|0
256,48,165909,1,8
256,144,166107,1,0
256,176,166207,1,0
256,208,166306,2,0,B|256:320,1,80,8|0
176,104,166704,6,0,B|132:104|92:80,1,80,12|0
336,104,167101,2,0,B|380:104|420:80,1,80,8|0
172,192,167498,1,8
340,192,167697,1,8
140,192,167896,1,8
372,192,168094,1,8
256,160,168293,5,8
256,64,168492,2,0,B|256:0,4,40
256,160,169088,1,0
256,192,169187,1,0
256,224,169286,1,0
256,256,169386,1,0
256,288,169485,2,8,B|256:336,4,40,8|8|8|8|12
80,140,170280,6,0,B|44:110|38:73,1,80,8|0
124,234,170677,2,0,B|159:264|166:304,1,80,8|0
80,141,171074,1,8
124,234,171273,1,8
180,140,171472,6,0,B|220:52,1,80,8|0
332,140,171869,2,0,B|292:52,1,80,8|0
256,192,172266,1,8
256,212,172366,1,8
256,232,172465,1,8
256,252,172564,1,8
256,272,172664,1,8
256,112,172862,1,0
400,192,173061,5,12
400,192,173260,1,0
328,316,173458,1,8
328,316,173657,1,0
184,316,173856,1,8
184,316,174055,1,0
112,192,174253,1,8
112,192,174452,1,0
256,128,174651,6,0,B|256:40,1,80,8|0
256,256,175048,2,0,B|256:344,1,80,8|0
192,192,175445,1,0
192,192,175545,1,0
192,192,175644,1,0
320,192,175843,1,8
348,160,175942,1,8
384,172,176041,1,8
384,212,176141,1,8
348,224,176240,1,12
256,192,176339,12,0,179419
