osu file format v9

[General]
AudioFilename: op00.mp3
AudioLeadIn: 1000
PreviewTime: 72677
Countdown: 0
SampleSet: Soft
StackLeniency: 0.7
Mode: 0
LetterboxInBreaks: 0

[Editor]
DistanceSpacing: 1.5
BeatDivisor: 4
GridSize: 4

[Metadata]
Title:Little Busters! -Ecstasy Ver.-
Artist:Rita
Creator:Kawayi Rika
Version:Rin
Source:Little Busters! EX
Tags:Hellzero OzzyOzrock opening key galgame

[Difficulty]
HPDrainRate:5
CircleSize:4
OverallDifficulty:5
ApproachRate:7
SliderMultiplier:1.4
SliderTickRate:2

[Events]
//Background and Video events
Video,0,"video.flv"
0,0,"BG.jpg"
//Break Periods
2,34983,46201
2,103327,111764
//Storyboard Layer 0 (Background)
//Storyboard Layer 1 (Fail)
//Storyboard Layer 2 (Pass)
//Storyboard Layer 3 (Foreground)
//Storyboard Sound Samples
//Background Colour Transformations
3,100,163,162,255

[TimingPoints]
1406,397.350993377483,4,2,1,20,1,0
1505,-100,4,2,1,5,0,0
1902,-100,4,2,1,20,0,0
3889,-100,4,2,1,5,0,0
4286,-100,4,2,1,20,0,0
9849,-100,4,2,1,5,0,0
10445,-100,4,2,1,20,0,0
10843,-100,4,2,1,10,0,0
14816,-100,4,2,1,20,0,0
15710,-200,4,2,1,20,0,0
15809,-200,4,2,1,5,0,0
21472,-200,4,2,2,70,0,0
21869,-100,4,2,2,50,0,0
26141,-100,4,2,1,50,0,0
26339,-100,4,2,2,50,0,0
28525,-100,4,2,1,50,0,0
28723,-100,4,2,2,50,0,0
30114,-100,4,2,1,50,0,0
30313,-100,4,2,2,50,0,0
31704,-100,4,2,1,50,0,0
31902,-100,4,2,2,50,0,0
32498,-100,4,2,1,50,0,0
32697,-100,4,2,2,50,0,0
47995,-100,4,2,1,50,0,0
48194,-100,4,2,2,50,0,0
48790,-100,4,2,1,50,0,0
48988,-100,4,2,2,50,0,0
49187,-100,4,2,1,50,0,0
49386,-100,4,2,2,50,0,0
52763,-100,4,2,1,50,0,0
52962,-100,4,2,2,50,0,0
57134,-100,4,2,1,50,0,0
57333,-100,4,2,2,50,0,0
58723,-100,4,2,1,50,0,0
58922,-100,4,2,2,50,0,0
59121,-100,4,2,1,50,0,0
59319,-100,4,2,2,50,0,0
59617,-100,4,2,1,50,0,0
65776,-100,4,1,1,40,0,0
66670,-100,4,2,1,50,0,0
69750,-100,4,1,1,45,0,0
70545,-100,4,1,1,55,0,0
71339,-100,4,1,1,65,0,0
72333,-100,4,1,1,75,0,0
72929,-100,4,2,1,50,0,1
78094,-100,4,1,1,40,0,1
78591,-100,4,2,1,50,0,1
81968,-100,4,1,2,50,0,1
82167,-100,4,2,1,50,0,1
85147,-100,4,1,2,50,0,1
85346,-100,4,2,1,50,0,1
90015,-100,4,1,1,40,0,1
90511,-100,4,2,1,50,0,1
91505,-100,4,1,2,50,0,1
91704,-100,4,2,1,50,0,1
95776,-100,4,1,1,40,0,1
96770,-100,4,2,1,50,0,1
101637,-100,4,1,2,50,0,1
101836,-100,4,2,1,50,0,1
102631,-100,4,1,2,50,0,1
102829,-100,4,2,1,50,0,1
103127,-100,4,2,1,25,0,0
112465,-100,4,2,1,5,0,0
115048,-100,4,2,1,20,0,0
115644,-100,4,2,1,50,0,0
116141,-100,4,2,2,50,0,0
117531,-100,4,2,1,50,0,0
117730,-100,4,2,2,50,0,0
118326,-100,4,2,1,50,0,0
118525,-100,4,2,2,50,0,0
118723,-100,4,2,1,50,0,0
118922,-100,4,2,2,50,0,0
120710,-100,4,2,1,50,0,0
120909,-100,4,2,2,50,0,0
121107,-100,4,2,1,50,0,0
121306,-100,4,2,2,50,0,0
121704,-100,4,1,2,50,0,0
122101,-100,4,2,2,50,0,0
125379,-100,4,2,1,5,0,0
128458,-133.333333333333,4,2,1,25,0,0
139187,-133.333333333333,4,1,1,40,0,0
139684,-80,4,2,1,50,0,1
144849,-80,4,2,2,40,0,1
145346,-80,4,2,1,50,0,1
156770,-80,4,2,2,40,0,1
157266,-80,4,2,1,50,0,1
162531,-80,4,1,1,50,0,1
163525,-80,4,2,2,50,0,1
173061,-80,4,2,2,40,0,1
173856,-80,4,2,2,50,0,1
174651,-80,4,2,2,60,0,1
175445,-80,4,2,2,70,0,1
176240,-100,4,2,2,50,0,0
176339,-100,4,1,0,50,0,0

[Colours]
Combo1 : 221,15,205
Combo2 : 16,252,3
Combo3 : 14,32,250
SliderBorder : 250,245,167

[HitObjects]
124,68,1406,6,0,B|52:192|184:252,1,210,2|0
256,52,2598,1,2
256,52,2796,1,0
412,192,3392,1,2
412,192,3790,6,0,B|484:316|352:376,1,210,0|2
256,192,4982,1,0
256,192,5180,1,0
48,192,5776,1,2
152,284,6174,5,2
152,284,6372,1,0
256,192,6770,1,0
464,192,7366,1,2
256,74,8160,6,0,B|256:4,2,70,0|0|2
256,284,9154,1,2
124,120,9750,2,0,B|180:72|256:72|328:72|396:128,1,280,2|0
256,192,10942,12,0,13326
196,264,14915,5,2
344,208,15213,1,2
216,112,15511,1,2
216,112,15710,1,2
256,192,15909,12,0,17498
256,192,18094,12,0,20478
256,224,21670,5,12
300,292,22068,5,8
216,292,22266,1,0
164,224,22465,2,0,B|103:189,2,70,8|0|8
216,156,23061,1,0
300,156,23260,1,8
352,224,23458,1,0
352,224,23657,2,0,B|412:189,2,70,8|0|8
256,224,24253,5,2
164,84,24651,1,2
348,84,25048,1,2
432,84,25247,5,8
388,156,25445,1,0
388,240,25644,1,8
384,324,25843,2,0,B|256:324|256:180,1,210,0|8
256,24,26836,5,8
256,24,26935,1,8
256,24,27035,1,8
188,72,27233,2,0,B|157:89,1,35,8|8
160,172,27531,2,0,B|190:189,1,35,8|8
256,240,27829,1,8
256,240,28028,1,8
324,192,28227,1,4
324,192,28425,6,0,B|324:325|198:325,1,210,8|0
116,312,29220,1,8
116,228,29419,1,0
116,144,29617,1,8
116,60,29816,1,0
198,59,30015,2,0,B|324:59|324:192,1,210,8|0
240,192,30809,5,2
452,192,31207,1,2
284,320,31604,2,0,B|328:261|405:250,1,140,8|8
400,356,32200,1,0
400,356,32399,2,0,B|355:297|278:286,1,140,8|8
256,76,33194,6,8,B|256:116,4,35
256,180,33790,1,0
76,76,34187,1,0
436,76,34584,1,0
436,76,34783,1,12
256,192,47101,5,12
152,88,47498,5,12
152,88,47697,1,0
72,156,47896,2,0,B|76:236|152:260,1,140,8|8
256,276,48492,1,0
360,256,48690,2,0,B|434:232|438:152,2,140,8|8|8
308,348,49684,1,0
204,348,49882,6,0,B|164:324|160:268,2,70,8|0|8
256,256,50478,1,0
256,152,50677,1,8
256,48,50876,1,0
348,100,51074,6,0,B|388:124|392:180,2,70,8|0|8
256,152,51670,1,0
152,152,51869,2,0,B|112:128|108:72,2,70,8|0|8
112,248,52465,2,0,B|172:360|296:308,1,210,0|8
392,296,53260,2,0,B|437:312|462:287|488:262|465:216,1,140,0|0
416,128,53856,6,0,B|355:92,1,70,8|0
256,52,54253,2,0,B|195:87,1,70,8|0
112,156,54651,2,0,B|172:191,1,70,8|0
268,232,55048,2,0,B|328:197,2,70,8|0|8
172,280,55644,2,0,B|151:321|176:347|202:372|247:355,1,140
324,288,56240,1,8
400,216,56439,2,0,B|420:174|395:148|369:123|324:140,1,140
256,60,57035,6,0,B|182:67|139:129,1,140,8|8
56,192,57631,1,0
56,192,57829,1,8
56,296,58028,1,0
56,296,58227,1,8
148,248,58425,1,0
148,248,58624,2,0,B|221:256|264:318,2,140,8|8|8
360,248,59816,6,0,B|287:240|244:178,2,140,12|12|8
244,72,61008,1,8
244,72,61207,1,8
244,280,61604,5,8
140,260,61803,2,0,B|67:252|24:190,2,140,8|8|8
244,280,62796,1,8
348,280,62995,2,0,B|421:288|464:350,2,140,8|8|8
244,96,64187,1,8
244,96,64386,1,8
56,192,64982,5,0
152,236,65180,1,0
248,276,65379,1,0
348,312,65578,1,0
348,208,65776,2,0,B|348:244,8,35
348,104,66770,5,0
348,104,66869,1,0
348,104,66968,2,0,B|320:79|281:83,1,70,8|0
164,104,67366,2,0,B|191:79|230:83,1,70
164,172,67763,2,0,B|191:196|230:192,1,70,8|0
348,172,68160,2,0,B|320:196|281:192,1,70
256,296,68558,5,8
152,292,68756,1,0
68,228,68955,1,0
68,124,69154,1,0
152,60,69353,1,8
256,60,69551,5,0
256,60,69651,1,0
256,60,69750,2,0,B|304:108,1,70,4|0
388,44,70147,1,0
472,108,70346,1,0
472,212,70545,1,0
388,272,70743,1,0
304,208,70942,2,0,B|256:257,2,70
224,156,71538,2,0,B|156:156,2,70
208,260,72134,1,0
324,88,72531,5,4
384,288,72929,6,0,B|376:195|474:189,1,140,4|8
384,120,73525,1,0
384,120,73723,1,0
384,120,73922,1,0
296,60,74121,2,0,B|303:152|205:158,1,140,8|0
308,216,74717,1,0
308,216,74915,1,8
308,216,75114,1,0
220,276,75313,6,0,B|268:324,2,70,4|0|8
144,348,75909,1,0
144,244,76107,1,0
144,140,76306,1,0
220,212,76505,2,0,B|268:163,2,70,8|0|0
320,244,77101,1,0
412,192,77300,1,8
320,140,77498,1,0
384,56,77697,6,0,B|320:4|256:56,1,140,4|8
240,80,78194,1,0
224,100,78293,1,0
208,120,78392,1,0
192,140,78492,1,4
100,88,78690,1,0
92,192,78889,6,0,B|32:236|48:316,1,140,8|0
144,276,79485,1,0
216,200,79684,1,8
320,200,79882,1,0
424,200,80081,6,0,B|484:244|468:324,2,140,0|8|0
372,108,81074,1,0
268,108,81273,1,8
164,108,81472,1,0
84,176,81670,6,0,B|137:165|153:241|153:241|257:241,1,210,4|0
256,136,82465,1,0
256,32,82664,1,0
256,136,82862,1,8
256,241,83061,2,0,B|358:241|358:241|374:164|428:175,1,210,0|8
427,175,83856,1,0
292,72,84055,6,0,B|256:60|224:70,1,70,8|8
256,172,84452,1,8
152,172,84651,6,0,B|152:244,1,70,0|4
152,348,85048,2,0,B|64:352|56:240,1,140
60,160,85644,1,0
60,56,85843,1,0
164,56,86041,2,0,B|164:124,1,70,8|0
164,232,86439,2,0,B|252:236|260:124,1,140,0|8
257,148,87035,1,0
328,72,87233,6,0,B|304:36|263:40,2,70,4|0|8
392,163,87829,2,0,B|424:168|452:132,2,70,8|0|0
336,252,88425,1,8
256,324,88624,1,0
152,340,88823,1,0
52,304,89021,1,0
60,200,89220,1,8
164,184,89419,1,0
248,248,89617,6,0,B|248:104,1,140,4|8
220,108,90114,1,0
192,108,90213,1,0
164,108,90313,1,0
136,108,90412,1,12
72,192,90611,1,0
176,192,90809,1,8
92,256,91008,1,0
196,256,91207,1,0
300,256,91406,6,0,B|356:312|456:288,1,140
464,192,92002,2,0,B|464:122,1,70
464,228,92399,2,0,B|464:300,1,70,8|0
429,90,92796,2,0,B|356:72|300:128,1,140,0|8
220,192,93392,5,0
220,192,93492,1,0
220,192,93591,2,0,B|132:192|132:192|132:136,1,140,4|8
220,84,94187,1,0
256,184,94386,1,0
292,84,94584,1,0
292,192,94783,2,0,B|380:192|380:192|380:140,2,140,8|0|8
256,292,95776,6,0,B|256:332,8,35
156,324,96770,6,0,B|116:320|96:288,1,70,12|0
176,220,97167,2,0,B|216:216|236:184,1,70,8|0
256,84,97564,2,0,B|296:88|316:120,1,70,8|0
336,220,97962,2,0,B|296:216|276:184,1,70,8|0
180,152,98359,6,0,B|108:152,1,70,8|0
32,224,98756,2,0,B|32:296,1,70,8|0
112,360,99154,2,0,B|182:360,1,70,8|0
264,292,99551,2,0,B|264:222,1,70,8|0
200,136,99949,6,0,B|228:108|264:96|296:108|328:140,2,140,12|8|8
156,232,100942,1,0
256,268,101141,1,8
356,232,101339,1,0
384,132,101538,2,0,B|346:187|284:160|224:136|162:111|118:155,2,280,8|8|4
256,192,112664,12,0,115048
50,192,115843,6,0,B|88:88|88:88|128:136|176:112,1,210,4|0
152,224,116637,1,8
256,248,116836,1,0
360,224,117035,1,8
460,192,117233,6,0,B|422:87|422:87|382:135|334:111,1,210,0|8
256,180,118028,1,0
188,260,118227,2,0,B|256:288|332:260,2,140,8|8|8
108,192,119220,1,0
44,108,119419,1,8
124,44,119617,1,0
224,72,119816,6,0,B|256:60|256:60|288:72,2,70,8|0|8
256,172,120412,1,0
256,172,120611,2,0,B|256:312,2,140,8|8|8
256,172,121604,1,0
224,72,121803,1,0
132,124,122002,1,0
52,192,122200,6,0,B|80:220|124:224,1,70,8|0
204,280,122598,1,8
308,280,122796,1,0
256,188,122995,1,8
256,84,123194,1,0
356,56,123392,6,0,B|389:58|417:86,1,70,8|0
412,192,123790,2,0,B|432:220|484:220,2,70,8|0|8
308,192,124386,1,0
204,192,124584,1,8
100,192,124783,2,0,B|80:220|28:220,2,70,0|8|0
256,192,125379,12,0,128160
88,68,128558,5,2
56,140,128756,2,0,B|146:192,1,104.999996870756,0|2
108,260,129353,1,2
424,68,129750,1,2
456,140,129948,2,0,B|366:192,1,104.999996870756,0|2
404,260,130545,1,2
132,192,130942,6,0,B|156:276|272:268,1,157.499995306134,2|2
256,180,131737,1,2
376,193,132134,2,0,B|352:275|254:268,1,157.499995306134,2|2
254,268,132929,1,2
256,104,133326,5,2
176,104,133525,1,0
44,192,133922,2,0,B|96:192,1,52.4999984353781,2|2
256,280,134518,1,2
336,280,134717,1,0
468,192,135114,2,0,B|416:192,1,52.4999984353781,2|2
308,76,135710,6,0,B|255:76,1,52.4999984353781,2|0
120,156,136306,2,0,B|156:192,1,52.4999984353781,2|2
204,344,136902,2,0,B|256:344,1,52.4999984353781,2|0
385,253,137498,2,0,B|348:216,1,52.4999984353781,2|2
256,128,138094,5,2
192,172,138293,1,2
216,248,138492,1,2
296,248,138690,1,2
316,172,138889,1,2
256,192,139286,5,4
256,48,139684,6,0,B|152:12|112:120,1,174.999997392297,4|8
40,192,140280,1,0
76,296,140478,1,0
184,296,140677,1,0
220,192,140876,6,0,B|324:228|364:120,1,174.999997392297,8|0
436,48,141472,1,0
508,128,141670,1,8
436,212,141869,1,0
340,268,142068,6,0,B|292:268|292:268|216:236|216:236|172:236,2,174.999997392297,4|8|0
340,160,143061,1,0
340,160,143260,2,0,B|385:160|385:160|461:128|461:128|509:128,2,174.999997392297,8|0|8
340,52,144253,1,0
256,124,144452,1,0
172,192,144651,1,0
256,260,144849,6,0,B|256:304,4,43.7499993480742,0|0|0|0|4
256,152,145445,1,0
212,52,145644,2,0,B|256:28|304:56,2,87.4999986961484,8|0|0
112,100,146240,5,0
176,192,146439,1,8
256,268,146637,1,0
336,192,146836,2,0,B|380:268|380:268|336:344,2,174.999997392297,0|8|0
256,116,147829,1,0
176,192,148028,1,8
256,268,148227,5,0
176,192,148425,2,0,B|132:268|132:268|176:344,2,174.999997392297,4|8|0
256,116,149419,1,0
332,40,149617,1,8
360,144,149816,1,0
460,192,150015,2,0,B|484:293|371:330,1,174.999997392297,0|8
380,326,150611,1,0
296,256,150809,5,8
256,156,151008,1,8
216,256,151207,1,8
128,192,151406,5,0
128,192,151505,1,0
128,192,151604,2,0,B|223:180|256:284,1,174.999997392297,4|8
256,284,152200,1,0
256,284,152399,2,0,B|289:179|384:191,1,174.999997392297,0|8
384,191,152995,1,0
384,191,153194,2,0,B|289:203|256:99,1,174.999997392297,0|8
255,98,153790,1,0
255,98,153988,2,0,B|221:202|126:190,1,174.999997392297,0|8
72,284,154584,6,0,B|9:346,2,87.4999986961484
180,284,155180,2,0,B|242:346,2,87.4999986961484,8|0|0
124,192,155776,1,0
208,120,155975,2,0,B|121:72|41:120,2,174.999997392297,8|0|0
236,140,156869,5,0
256,168,156968,1,0
272,200,157068,1,0
272,236,157167,1,4
272,308,157366,1,0
272,308,157564,2,0,B|358:355|438:307,2,174.999997392297,8|0|8
256,200,158558,1,0
256,92,158756,1,0
256,200,158955,1,0
240,308,159154,2,0,B|153:355|73:307,2,174.999997392297,8|0|8
160,236,160147,5,0
160,128,160346,2,0,B|128:88|84:92,2,87.4999986961484,4|0|8
256,72,160942,1,0
352,128,161141,1,0
352,128,161339,2,0,B|383:88|427:92,2,87.4999986961484,0|8|4
256,184,161935,2,0,B|256:360,1,174.999997392297,0|8
188,272,162531,6,0,B|144:272,8,43.7499993480742
256,184,163525,6,0,B|180:136,1,87.4999986961484,12|0
256,184,163922,2,0,B|332:136,1,87.4999986961484,8|0
256,184,164319,2,0,B|332:232,1,87.4999986961484,8|0
256,184,164717,2,0,B|180:232,1,87.4999986961484,8|0
108,312,165114,6,0,B|196:312,1,87.4999986961484,8|0
304,312,165511,2,0,B|391:312,1,87.4999986961484,8|0
392,200,165909,2,0,B|328:136,1,87.4999986961484,8|0
240,200,166306,2,0,B|178:138,1,87.4999986961484,8|0
92,68,166704,5,12
196,32,166902,1,0
256,124,167101,1,8
316,32,167300,1,0
420,68,167498,1,8
360,160,167697,1,0
256,192,167896,1,8
256,300,168094,1,0
256,300,168293,2,0,B|336:240|424:304,2,174.999997392297,8|8|8
148,300,169286,6,0,B|148:344,4,43.7499993480742
160,192,169882,6,0,B|132:152|84:144,2,87.4999986961484,12|0|8
256,140,170478,1,0
352,192,170677,2,0,B|380:232|428:240,2,87.4999986961484,8|0|8
352,192,171273,1,0
256,240,171472,2,0,B|228:280|180:288,2,87.4999986961484,8|0|8
256,240,172068,1,0
256,132,172266,2,0,B|284:92|332:84,2,87.4999986961484,8|0|8
256,132,172862,1,0
168,64,173061,5,12
168,64,173260,1,8
168,64,173458,1,8
96,148,173657,1,8
96,148,173856,1,8
96,148,174055,1,8
168,228,174253,1,8
256,292,174452,1,8
256,184,174651,6,0,B|292:144,2,43.7499993480742,8|0|8
256,184,175048,2,0,B|220:144,2,43.7499993480742,8|0|8
256,184,175445,2,0,B|256:228,6,43.7499993480742,8|0|8|8|12|0|8
256,184,176240,5,12
256,192,176339,12,0,179419
