osu file format v9

[General]
AudioFilename: op00.mp3
AudioLeadIn: 1000
PreviewTime: 72677
Countdown: 0
SampleSet: Soft
StackLeniency: 0.7
Mode: 0
LetterboxInBreaks: 0

[Editor]
DistanceSpacing: 1.2
BeatDivisor: 4
GridSize: 4

[Metadata]
Title:Little Busters! -Ecstasy Ver.-
Artist:Rita
Creator:Kawayi Rika
Version:Rika
Source:Little Busters! EX
Tags:Hellzero OzzyOzrock opening key galgame

[Difficulty]
HPDrainRate:7
CircleSize:4
OverallDifficulty:7
ApproachRate:8
SliderMultiplier:1.6
SliderTickRate:2

[Events]
//Background and Video events
Video,0,"video.flv"
0,0,"BG.jpg"
//Break Periods
2,34983,46351
//Storyboard Layer 0 (Background)
//Storyboard Layer 1 (Fail)
//Storyboard Layer 2 (Pass)
//Storyboard Layer 3 (Foreground)
//Storyboard Sound Samples
//Background Colour Transformations
3,100,163,162,255

[TimingPoints]
1406,397.350993377483,4,2,1,20,1,0
2697,-100,4,2,1,5,0,0
3094,-100,4,2,1,20,0,0
3889,-100,4,2,1,5,0,0
4286,-100,4,2,1,20,0,0
5876,-100,4,2,1,5,0,0
6074,-100,4,2,1,20,0,0
7465,-100,4,2,1,5,0,0
7664,-100,4,2,1,20,0,0
9452,-100,4,2,1,5,0,0
9651,-100,4,2,1,20,0,0
10843,-100,4,2,1,10,0,0
13227,-200,4,2,1,5,0,0
14816,-100,4,2,1,20,0,0
15809,-100,4,2,1,5,0,0
17300,-100,4,2,1,20,0,0
17995,-200,4,2,1,5,0,0
21472,-100,4,1,1,50,0,0
21869,-100,4,2,2,50,0,0
26141,-100,4,2,1,50,0,0
26339,-100,4,2,2,50,0,0
32101,-100,4,2,1,50,0,0
32300,-100,4,2,2,50,0,0
33889,-100,4,2,1,50,0,0
34187,-100,4,2,2,50,0,0
49187,-100,4,2,1,50,0,0
49386,-100,4,2,2,50,0,0
49982,-100,4,2,1,50,0,0
50180,-100,4,2,2,50,0,0
55147,-100,4,2,1,50,0,0
55346,-100,4,2,2,50,0,0
56339,-100,4,2,1,50,0,0
56538,-100,4,2,2,50,0,0
58723,-100,4,2,1,50,0,0
58922,-100,4,2,2,50,0,0
59617,-100,4,2,1,50,0,0
65776,-100,4,1,1,40,0,0
66670,-100,4,2,1,50,0,0
69750,-100,4,1,1,45,0,0
70545,-100,4,1,1,55,0,0
71339,-100,4,1,1,65,0,0
72333,-100,4,1,1,75,0,0
72929,-100,4,2,1,50,0,1
78094,-100,4,1,1,40,0,1
78591,-100,4,2,1,50,0,1
90015,-100,4,1,1,40,0,1
90511,-100,4,2,1,50,0,1
95776,-100,4,1,1,40,0,1
96770,-100,4,2,1,50,0,1
101637,-100,4,1,2,50,0,1
101836,-100,4,2,1,50,0,1
103127,-200,4,2,1,25,0,0
104021,-200,4,2,1,5,0,0
104419,-200,4,2,1,25,0,0
105412,-200,4,2,1,5,0,0
105611,-200,4,2,1,25,0,0
105809,-200,4,2,1,5,0,0
106008,-200,4,2,1,25,0,0
107200,-200,4,2,1,5,0,0
107796,-200,4,2,1,25,0,0
111174,-200,4,2,1,5,0,0
115048,-200,4,2,1,25,0,0
115147,-200,4,2,1,5,0,0
115743,-200,4,2,1,50,0,0
116041,-100,4,2,2,50,0,0
121107,-100,4,2,1,50,0,0
121306,-100,4,2,2,50,0,0
121704,-100,4,1,2,50,0,0
122101,-100,4,2,2,50,0,0
125379,-100,4,1,0,50,0,0
128458,-133.333333333333,4,2,1,25,0,0
139187,-133.333333333333,4,1,1,40,0,0
139684,-66.6666666666667,4,2,1,50,0,1
144849,-66.6666666666667,4,2,2,40,0,1
145346,-66.6666666666667,4,2,1,50,0,1
156770,-66.6666666666667,4,2,2,40,0,1
157266,-66.6666666666667,4,2,1,50,0,1
162531,-66.6666666666667,4,1,1,50,0,1
163525,-66.6666666666667,4,2,2,50,0,1
168790,-66.6666666666667,4,2,1,50,0,1
168988,-66.6666666666667,4,2,2,50,0,1
173061,-66.6666666666667,4,2,2,40,0,1
173856,-66.6666666666667,4,2,2,50,0,1
174651,-66.6666666666667,4,2,2,60,0,1
175445,-66.6666666666667,4,2,2,70,0,1
176240,-100,4,2,2,50,0,0
176339,-100,4,1,0,50,0,0

[Colours]
Combo1 : 221,15,205
Combo2 : 16,252,3
Combo3 : 14,32,250
SliderBorder : 250,245,167

[HitObjects]
256,88,1406,2,0,B|256:168,1,80,2|0
256,360,2002,1,2
176,84,2598,2,0,B|176:44|208:4|256:-4|312:4|344:44|344:108,1,240,2|0
256,124,3392,1,2
424,220,3790,6,0,B|424:260|392:300|344:308|288:300|256:260|256:196,1,240,2|0
344,176,4584,1,2
256,4,4982,2,0,B|256:84,1,80,2|0
256,84,5379,1,0
156,248,5776,6,0,B|121:234|73:234|41:266|25:306,1,160,0|2
116,340,6372,1,0
212,340,6571,1,0
256,152,6968,1,2
304,340,7366,2,0,B|338:353|386:353|418:321|434:281,1,160,0|0
344,248,7962,1,0
256,208,8160,1,2
256,16,8558,5,2
180,72,8756,1,0
136,156,8955,1,2
328,156,9353,2,0,B|168:156,1,160,0|2
180,252,9949,1,0
256,312,10147,1,0
372,156,10545,1,2
256,192,10942,12,0,12929
256,312,13326,6,2,B|258:307|258:307|253:302|253:302|258:296|258:296|253:290|253:290|258:285|258:285|253:279|253:279|258:273|258:273|253:268|253:268|258:262|258:262|253:256|253:256|258:251|258:251|253:245|253:245|258:239|258:239|253:234|253:234|258:228|258:228|253:222|253:222|258:217|258:217|253:211|253:211|258:205|258:205|253:200|253:200|258:194|258:194|253:188|253:188|258:183|258:183|253:177|253:177|258:171|258:171|253:166|253:166|258:160|258:160|253:154|253:154|258:149|258:149|253:143|253:143|256:127,1,240,0|2
256,312,14915,5,2
392,192,15213,1,2
256,72,15511,1,2
256,192,15710,1,2
256,192,15909,12,0,17101
256,192,17498,5,2
288,92,18094,2,2,B|344:100|396:164|396:284|340:368|172:368|116:284|116:164|168:100|224:92,1,600,0|0
256,280,21670,5,4
256,120,22068,5,8
256,120,22266,1,0
140,144,22465,2,0,B|92:140|68:180,1,80,8|0
140,240,22862,2,0,B|188:244|212:204,1,80,8|0
375,235,23260,2,0,B|331:238|303:207,1,80,8|0
376,144,23657,2,0,B|419:140|447:171,1,80,8|0
448,268,24055,6,0,B|388:328,1,80,8|0
296,324,24452,2,0,B|216:324,1,80,8|0
63,267,24849,2,0,B|120:324,1,80,8|0
148,192,25247,5,8
256,156,25445,1,0
360,192,25644,1,8
256,232,25843,1,0
180,316,26041,2,0,B|256:364|336:312,1,160,8|8
400,224,26637,5,8
400,192,26737,1,8
400,160,26836,1,8
400,128,26935,1,8
400,96,27035,1,8
112,96,27233,5,8
112,96,27333,1,8
256,184,27531,1,8
256,184,27631,1,8
400,96,27829,1,8
256,184,28028,1,8
296,340,28227,1,4
296,340,28425,6,0,B|216:340,1,80,12|0
100,232,28823,2,0,B|100:152,1,80,8|0
216,44,29220,2,0,B|296:44,1,80,8|0
412,152,29617,2,0,B|412:232,1,80,8|0
256,192,30015,5,8
136,192,30213,1,0
236,124,30412,1,8
196,236,30611,1,0
264,268,30809,5,2
492,192,31207,1,2
56,192,31604,5,8
56,192,31704,1,0
56,192,31803,1,0
124,124,32002,2,0,B|164:72|224:72|260:132,1,160,8|8
188,192,32598,1,0
188,368,32796,2,0,B|188:288,1,80,8|0
300,244,33194,5,8
320,268,33293,1,8
340,292,33392,1,8
360,316,33492,1,8
380,340,33591,1,8
380,340,33790,2,0,B|428:336|452:312|456:276|460:240|424:212,1,160
436,224,34386,5,0
316,224,34584,1,0
372,116,34783,1,12
256,348,47101,5,12
128,232,47498,5,8
380,232,47697,1,0
192,168,47896,1,8
320,168,48094,1,0
256,108,48293,1,8
256,108,48492,1,0
256,204,48690,1,8
256,204,48889,1,0
416,208,49088,6,0,B|388:305|288:261,1,160,8|8
256,108,49684,1,0
96,208,49882,2,0,B|123:305|223:261,1,160,8|8
256,188,50478,2,0,B|256:108,1,80,0|8
176,52,50876,2,0,B|96:52,1,80,0|8
336,52,51273,2,0,B|416:52,1,80,0|8
256,108,51670,5,0
336,160,51869,1,8
336,256,52068,1,0
256,308,52266,1,8
160,308,52465,2,0,B|108:304|96:256,1,80,0|8
160,76,52862,2,0,B|108:80|96:128,1,80,0|8
96,192,53260,2,0,B|176:192,1,80,0|8
176,192,53657,1,4
272,192,53856,5,12
368,192,54055,1,0
320,112,54253,1,8
280,24,54452,2,0,B|320:0|356:24,2,80,0|8|0
256,116,55048,2,0,B|237:97|237:97|189:111|189:111|169:159|169:159|192:182,1,160,8|8
284,204,55644,1,0
368,120,55843,2,0,B|311:176,1,80,8|0
304,304,56240,2,0,B|322:322|322:322|370:308|370:308|390:260|390:260|367:237,1,160,8|8
284,204,56836,1,0
212,268,57035,6,0,B|168:272|136:236,1,80,8|0
208,172,57432,1,8
208,172,57631,1,0
300,268,57829,2,0,B|344:272|376:236,1,80,8|0
304,172,58227,1,8
304,172,58425,1,0
256,88,58624,2,0,B|172:147|128:103|84:59|32:111,1,240,8|0
32,110,59419,1,8
96,344,59816,6,0,B|152:287,1,80,8|0
228,348,60213,2,0,B|288:380|352:316|304:244,1,160,4|8
315,265,60809,1,0
228,224,61008,1,8
228,224,61107,1,0
228,224,61207,1,8
256,48,61604,5,0
164,72,61803,1,0
128,160,62002,1,0
164,248,62200,1,8
256,280,62399,1,0
348,248,62598,1,0
384,160,62796,1,0
348,72,62995,1,8
256,160,63194,5,0
196,232,63392,2,0,B|215:297|306:297|323:212,1,160,0|12
256,160,63988,1,0
256,64,64187,1,8
224,76,64286,1,0
200,96,64386,1,8
132,160,64584,1,0
256,328,64783,5,0
256,328,64882,1,0
256,328,64982,2,0,B|183:286,1,80
256,328,65379,2,0,B|325:288,1,80,8|0
256,220,65776,5,0
228,204,65876,1,0
212,176,65975,1,0
204,144,66074,1,0
212,112,66174,1,8
232,88,66273,1,0
260,76,66372,1,0
292,76,66472,1,0
324,88,66571,1,4
392,64,66770,5,0
392,64,66968,2,0,B|415:95|420:126|396:168|356:181|328:172|308:144,1,160,8|0
412,252,67564,2,0,B|332:252,1,80,0|8
256,192,67962,1,0
100,252,68160,2,0,B|180:252,1,80
256,312,68558,1,8
256,192,68756,1,0
184,128,68955,2,0,B|256:88|256:88|328:128,1,160,0|8
256,272,69551,5,0
148,324,69750,1,4
148,204,69949,1,0
256,152,70147,1,0
256,36,70346,1,0
360,96,70545,6,0,B|399:165,1,80
348,272,70942,1,0
152,96,71141,2,0,B|112:165,1,80
164,272,71538,1,0
256,152,71737,1,0
352,228,71935,1,0
160,228,72134,1,0
256,340,72531,5,4
120,60,72929,5,4
120,60,73127,2,0,B|160:60|160:60|196:80,1,80,0|8
256,184,73525,1,0
256,304,73723,1,0
256,184,73922,1,0
392,60,74121,1,8
392,60,74319,2,0,B|352:60|352:60|316:80,1,80
256,184,74717,1,0
256,184,74816,1,0
256,184,74915,6,0,B|256:344,1,160,8|4
160,340,75511,1,0
352,340,75710,1,8
352,340,75909,1,0
256,184,76107,1,0
256,184,76306,1,0
256,64,76505,5,8
232,88,76604,1,0
212,112,76704,1,0
212,112,76902,2,0,B|168:112|144:75,1,80
300,112,77300,2,0,B|339:108|367:148,1,80,8|0
366,147,77697,1,4
256,184,78094,5,8
256,216,78194,1,0
256,248,78293,1,0
256,280,78392,1,0
256,312,78492,1,4
176,212,78889,6,0,B|176:171|208:131|256:123|312:131|344:171|344:236,1,240,8|0
341,208,79684,1,8
341,208,79882,1,0
256,232,80081,1,0
256,232,80280,1,0
323,288,80478,2,0,B|284:332|224:332|184:284,1,160,8|0
88,280,81074,1,0
88,280,81174,1,0
88,280,81273,1,8
52,192,81472,5,0
112,120,81670,2,0,B|168:64|256:56,1,160,4|8
255,56,82266,1,0
256,152,82465,1,0
256,152,82664,1,0
256,152,82862,2,0,B|312:208,1,80,8|0
400,252,83260,2,0,B|344:308|256:316,1,160,0|8
256,315,83856,1,0
136,320,84055,5,8
44,240,84253,1,8
48,120,84452,1,8
152,64,84651,5,8
152,64,84750,1,0
152,64,84849,2,0,B|152:104|152:104|176:152|176:152|176:236,1,160,4|8
256,268,85445,1,0
256,172,85644,1,0
360,64,85843,1,0
360,64,85942,1,0
360,64,86041,2,0,B|360:104|360:104|336:152|336:152|336:236,1,160,8|0
256,268,86637,1,0
256,364,86836,1,8
52,272,87233,6,4,B|108:328,1,80
148,240,87631,1,8
148,144,87829,1,0
52,116,88028,2,0,B|108:59,1,80
460,272,88425,6,0,B|403:328,1,80,8|0
364,240,88823,1,0
364,144,89021,1,0
460,116,89220,2,0,B|403:59,1,80,8|0
256,192,89617,6,0,B|256:352,1,160,4|8
224,352,90114,1,0
192,352,90213,1,0
160,352,90313,1,0
128,352,90412,1,4
8,352,90611,1,0
68,248,90809,1,8
188,248,91008,1,0
128,144,91207,1,0
216,64,91406,6,0,B|256:40|308:72,2,80,0|8|0
256,180,92002,1,0
256,300,92200,1,0
148,244,92399,1,8
148,124,92598,1,0
148,124,92796,2,0,B|174:32|270:48,1,160,0|8
348,140,93392,5,0
269,199,93591,2,0,B|174:215|148:124,1,160,4|8
28,124,94187,1,0
28,244,94386,1,0
96,344,94584,2,0,B|136:364|184:340,1,80,0|8
373,344,94982,2,0,B|336:364|296:344,1,80
232,244,95379,1,0
232,244,95578,1,8
232,124,95776,5,0
256,100,95876,1,0
284,88,95975,1,0
316,80,96074,1,0
348,76,96174,1,0
380,76,96273,1,0
412,80,96372,1,0
444,88,96472,1,0
472,100,96571,1,0
496,116,96670,1,0
496,148,96770,6,0,B|456:217,1,80,12|0
336,300,97167,2,0,B|336:220,1,80,8|0
216,216,97564,2,0,B|176:146,1,80,8|0
76,216,97962,2,0,B|76:296,1,80,8|0
188,340,98359,5,8
280,260,98558,1,0
164,228,98756,1,8
324,340,98955,5,0
232,260,99154,1,8
348,228,99353,1,0
292,120,99551,2,0,B|276:100|240:98|220:122,1,80,8|0
84,220,99949,5,12
136,328,100147,1,0
256,328,100346,1,8
376,328,100545,1,0
432,220,100743,1,8
256,160,100942,2,0,B|256:240,2,80,0|8|0
148,104,101538,6,0,B|216:44|304:44|384:120,1,240,12|8
364,224,102333,1,8
364,224,102531,1,0
296,324,102730,2,8,B|256:340|212:324,2,80,0|0|12
112,156,103922,6,0,B|160:108|236:120,1,120,2|2
196,236,104915,1,2
312,200,105313,2,0,B|392:236,2,80,0|0|2
232,148,106505,1,2
232,148,106704,1,2
256,56,107101,6,0,B|84:80,1,160,2|0
188,156,108293,1,2
188,216,108492,1,2
256,336,109485,5,2
196,296,109684,1,2
316,296,109882,1,2
256,256,110081,1,2
256,136,110478,1,2
136,128,110876,1,2
120,72,111074,6,0,B|176:16|256:56|340:92|392:28,1,280
256,192,112664,12,0,114253
208,136,115048,6,0,B|232:85|232:85|280:85|280:85|304:137,1,160,2|4
256,220,116041,2,0,B|256:300,1,80,0|8
168,220,116439,2,0,B|128:289,1,80,0|8
344,220,116836,2,0,B|384:289,1,80,0|8
256,128,117233,1,0
348,48,117432,6,0,B|388:32|428:48,2,80,8|0|8
164,48,118028,2,0,B|124:32|84:48,2,80,0|8|0
256,128,118624,1,8
256,248,118823,1,0
256,368,119021,1,8
256,128,119419,1,8
48,252,119816,5,8
48,252,119915,1,0
48,252,120015,1,0
136,336,120213,1,8
192,232,120412,1,0
312,232,120611,1,8
376,336,120809,1,0
256,336,121008,2,0,B|256:172,1,160,8|8
124,56,121803,5,0
388,56,122002,1,0
256,336,122200,5,12
176,280,122399,1,0
144,188,122598,1,8
144,188,122796,2,0,B|184:172|224:188,2,80,0|8|0
332,280,123392,1,8
364,188,123591,1,0
364,188,123790,2,0,B|324:172|284:188,2,80,8|0|8
332,280,124386,1,0
256,336,124584,5,8
180,280,124783,1,0
140,192,124982,1,8
180,104,125180,1,0
256,192,125379,12,0,128160
68,104,128558,6,0,B|119:134,1,59.9999982118607,2|0
216,204,129154,1,2
216,204,129353,1,2
444,104,129750,2,0,B|392:134,1,59.9999982118607,2|0
296,204,130346,1,2
296,204,130545,1,2
256,44,130942,6,0,B|256:104,1,59.9999982118607,2|0
256,224,131538,1,2
256,224,131737,1,2
168,308,132134,1,2
168,308,132333,1,0
344,308,132730,1,2
344,308,132929,1,2
68,156,133326,6,0,B|88:188|124:196,1,59.9999982118607,2|0
232,192,133922,2,0,B|212:160|176:152,1,59.9999982118607,2|2
444,156,134518,2,0,B|424:188|388:196,1,59.9999982118607,2|0
280,192,135114,2,0,B|300:160|336:152,1,59.9999982118607,2|2
168,76,135710,5,2
168,76,135909,1,0
344,76,136306,1,2
344,76,136505,1,2
168,308,136902,1,2
168,308,137101,1,0
344,308,137498,1,2
344,308,137697,1,2
164,164,138094,5,2
352,164,138293,1,2
196,280,138492,1,2
256,84,138690,1,2
316,280,138889,1,2
256,192,139286,5,4
256,72,139684,5,4
256,72,139783,1,0
256,72,139882,1,0
176,192,140081,1,8
56,272,140280,2,0,B|84:328|152:336,1,119.999996423721
256,72,140677,5,0
256,72,140776,1,0
256,72,140876,1,8
336,192,141074,1,0
336,192,141273,1,0
456,272,141472,2,0,B|428:328|360:336,1,119.999996423721,0|8
256,336,141869,1,0
136,192,142068,5,4
136,192,142266,1,0
256,192,142465,1,8
204,84,142664,2,0,B|256:56|256:56|312:84,1,119.999996423721
310,83,143061,1,0
256,192,143260,5,8
256,192,143458,1,0
204,300,143657,1,0
204,300,143756,1,0
204,300,143856,2,0,B|256:328|256:328|312:300,2,119.999996423721,0|8|0
84,300,144452,6,0,B|20:180|88:68,1,239.999992847443,0|8
112,72,144949,1,8
136,72,145048,1,8
160,72,145147,1,8
184,72,145247,2,0,B|249:180|185:300,1,239.999992847443,12|8
184,300,145843,1,0
304,300,146041,1,0
348,72,146240,5,0
332,88,146339,1,0
316,108,146439,1,8
256,212,146637,1,0
144,164,146836,2,0,B|208:172|224:224|224:284|224:284|224:364,1,239.999992847443,0|8
368,164,147432,1,0
368,164,147531,1,0
368,164,147631,2,0,B|304:172|288:224|288:284|288:284|288:364,1,239.999992847443,0|8
176,52,148227,5,0
176,52,148326,1,0
176,52,148425,2,0,B|236:216|28:212,1,239.999992847443,4|8
66,211,149021,1,0
140,308,149220,1,0
140,308,149319,1,0
140,308,149419,1,0
256,272,149617,1,8
352,344,149816,2,0,B|455:284,1,119.999996423721
352,224,150213,2,0,B|455:284,1,119.999996423721,0|8
455,284,150611,1,0
372,76,150809,5,8
256,192,151008,1,8
140,308,151207,1,12
256,100,151406,6,0,B|256:40,2,59.9999982118607,0|0|4
176,192,151803,1,0
176,312,152002,1,8
284,256,152200,1,0
404,256,152399,1,0
408,136,152598,1,0
300,192,152796,6,0,B|257:149,2,59.9999982118607,8|0|0
300,312,153194,1,0
404,256,153392,2,0,B|467:259|491:187,1,119.999996423721,0|8
488,68,153790,1,0
368,68,153988,1,0
256,112,154187,1,0
144,68,154386,1,8
24,68,154584,1,0
84,172,154783,6,0,B|96:236|156:260,1,119.999996423721
428,172,155180,2,0,B|416:236|356:260,1,119.999996423721,8|0
256,192,155578,1,0
256,192,155776,1,0
252,80,155975,1,8
276,192,156174,5,0
276,192,156273,1,0
276,192,156372,2,0,B|376:328|376:328|304:328,1,239.999992847443,0|8
280,328,156869,1,8
256,328,156968,1,8
232,328,157068,1,8
208,328,157167,2,0,B|136:328|136:328|236:192,1,239.999992847443,12|8
256,72,157763,5,0
136,72,157962,2,0,B|16:72,1,119.999996423721
376,72,158359,2,0,B|496:72,1,119.999996423721,8|0
316,176,158756,2,0,B|400:260,1,119.999996423721
196,176,159154,2,0,B|111:260,1,119.999996423721,8|0
256,280,159551,1,0
256,280,159750,1,0
256,160,159949,1,8
256,160,160147,1,0
148,104,160346,6,0,B|216:44|304:44|384:120,1,240,4|8
448,192,160942,1,0
328,192,161141,1,0
208,192,161339,1,0
148,280,161538,6,0,B|216:340|304:340|384:264,1,240,8|0
448,192,162134,1,0
328,192,162333,1,8
256,96,162531,5,0
236,108,162631,1,0
220,128,162730,1,0
212,152,162829,1,0
208,176,162929,1,0
212,200,163028,1,0
220,220,163127,1,0
236,236,163227,1,0
256,248,163326,1,0
280,248,163425,1,0
304,248,163525,6,0,B|389:163,1,119.999996423721,12|0
276,128,163922,2,0,B|191:42,1,119.999996423721,8|0
152,156,164319,2,0,B|66:240,1,119.999996423721,8|0
180,276,164717,2,0,B|264:361,1,119.999996423721,8|0
304,248,165114,5,8
208,132,165313,1,0
208,248,165511,1,8
304,132,165710,1,0
256,276,165909,1,8
256,108,166107,1,0
180,188,166306,1,8
332,188,166505,1,0
208,132,166704,6,0,B|174:70|109:64,1,119.999996423721,12|0
304,132,167101,2,0,B|337:70|402:64,1,119.999996423721,8|0
304,252,167498,2,0,B|337:313|402:319,1,119.999996423721,8|0
208,252,167896,2,0,B|174:313|109:319,1,119.999996423721,8|0
256,312,168293,5,8
256,192,168492,1,8
144,144,168690,2,0,B|256:84|376:148,1,239.999992847443,8|8
380,268,169286,2,0,B|410:216,4,59.9999982118607
112,260,169882,6,0,B|60:224|48:160,1,119.999996423721,12|0
136,76,170280,1,8
256,68,170478,1,0
256,188,170677,1,8
256,308,170876,1,0
256,188,171074,1,8
400,260,171273,6,0,B|452:224|464:160,1,119.999996423721,0|8
376,76,171670,1,0
256,68,171869,1,8
256,92,171968,1,0
256,116,172068,1,0
256,236,172266,1,8
352,308,172465,1,0
256,236,172664,1,8
160,308,172862,1,0
200,196,173061,6,0,B|256:160|316:196,2,119.999996423721,12|0|8
256,304,173657,1,8
256,304,173856,1,8
256,184,174055,1,8
256,184,174253,1,8
256,184,174452,1,8
136,192,174651,6,0,B|44:136|88:12|188:32,1,239.999992847443,8|8
256,120,175247,1,8
256,240,175445,1,8
376,192,175644,1,8
376,192,175743,1,8
376,192,175843,2,0,B|468:136|424:12|324:32,1,239.999992847443,12|12
256,192,176339,12,0,179419
