osu file format v9

[General]
AudioFilename: op00.mp3
AudioLeadIn: 1000
PreviewTime: 72677
Countdown: 0
SampleSet: Soft
StackLeniency: 0.7
Mode: 0
LetterboxInBreaks: 0

[Editor]
DistanceSpacing: 1.2
BeatDivisor: 4
GridSize: 4

[Metadata]
Title:Little Busters! -Ecstasy Ver.-
Artist:Rita
Creator:Kawayi Rika
Version:Busters!
Source:Little Busters! EX
Tags:Hellzero OzzyOzrock opening key galgame

[Difficulty]
HPDrainRate:4
CircleSize:3
OverallDifficulty:4
ApproachRate:5
SliderMultiplier:1
SliderTickRate:2

[Events]
//Background and Video events
Video,0,"video.flv"
0,0,"BG.jpg"
//Break Periods
2,34983,46298
2,103327,111464
//Storyboard Layer 0 (Background)
//Storyboard Layer 1 (Fail)
//Storyboard Layer 2 (Pass)
//Storyboard Layer 3 (Foreground)
//Storyboard Sound Samples
//Background Colour Transformations
3,100,163,162,255

[TimingPoints]
1406,397.350993377483,4,2,1,20,1,0
1505,-100,4,2,1,5,0,0
1902,-100,4,2,1,20,0,0
2697,-100,4,2,1,5,0,0
3293,-100,4,2,1,20,0,0
3889,-100,4,2,1,5,0,0
4286,-100,4,2,1,20,0,0
5081,-100,4,2,1,5,0,0
5677,-100,4,2,1,20,0,0
6273,-100,4,2,1,5,0,0
6670,-100,4,2,1,20,0,0
10843,-100,4,2,1,10,0,0
14816,-100,4,2,1,20,0,0
15015,-100,4,2,1,5,0,0
15180,-100,4,2,1,20,0,0
15809,-100,4,2,1,5,0,0
21869,-100,4,2,2,50,0,0
22167,-100,4,2,1,5,0,0
22366,-100,4,2,2,50,0,0
22564,-100,4,2,1,5,0,0
22763,-100,4,2,2,50,0,0
23359,-100,4,2,1,5,0,0
23558,-100,4,2,2,50,0,0
23756,-100,4,2,1,5,0,0
23955,-100,4,2,2,50,0,0
24551,-100,4,2,1,5,0,0
24750,-100,4,2,2,50,0,0
24949,-100,4,2,1,5,0,0
25147,-100,4,2,2,50,0,0
25743,-100,4,2,1,5,0,0
25942,-100,4,2,2,50,0,0
26141,-100,4,2,1,5,0,0
26339,-100,4,2,2,50,0,0
28525,-100,4,2,1,5,0,0
28723,-100,4,2,2,50,0,0
28922,-100,4,2,1,5,0,0
29121,-100,4,2,2,50,0,0
30114,-100,4,2,1,5,0,0
30313,-100,4,2,2,50,0,0
30511,-100,4,2,1,5,0,0
30710,-100,4,2,2,50,0,0
31704,-100,4,2,1,5,0,0
31902,-100,4,2,2,50,0,0
32101,-100,4,2,1,5,0,0
32300,-100,4,2,2,50,0,0
34286,-100,4,2,1,5,0,0
34684,-100,4,2,2,50,0,0
47598,-100,4,2,1,50,0,0
47796,-100,4,2,2,50,0,0
47995,-100,4,2,1,50,0,0
48194,-100,4,2,2,50,0,0
49584,-100,4,2,1,50,0,0
49783,-100,4,2,2,50,0,0
49982,-100,4,2,1,50,0,0
50180,-100,4,2,2,50,0,0
50776,-100,4,2,1,50,0,0
50975,-100,4,2,2,50,0,0
51174,-100,4,2,1,50,0,0
51372,-100,4,2,2,50,0,0
52763,-100,4,2,1,50,0,0
52962,-100,4,2,2,50,0,0
53955,-100,4,2,1,50,0,0
54154,-100,4,2,2,50,0,0
54353,-100,4,2,1,50,0,0
54551,-100,4,2,2,50,0,0
55147,-100,4,2,1,50,0,0
55346,-100,4,2,2,50,0,0
55942,-100,4,2,1,50,0,0
56141,-100,4,2,2,50,0,0
56339,-100,4,2,1,50,0,0
56538,-100,4,2,2,50,0,0
57929,-100,4,2,1,50,0,0
58127,-100,4,2,2,50,0,0
58326,-100,4,2,1,50,0,0
58525,-100,4,2,2,50,0,0
59121,-100,4,2,1,50,0,0
59319,-100,4,2,2,50,0,0
59617,-100,4,2,1,50,0,0
62101,-100,4,1,2,50,0,0
62300,-100,4,2,1,50,0,0
65280,-100,4,1,2,50,0,0
65478,-100,4,2,1,50,0,0
67664,-100,4,1,2,50,0,0
67862,-100,4,2,1,50,0,0
69949,-100,4,1,1,40,0,0
72929,-100,4,2,1,30,0,1
78094,-100,4,1,1,40,0,1
78591,-100,4,2,1,50,0,1
81968,-100,4,1,2,50,0,1
82167,-100,4,2,1,50,0,1
85147,-100,4,1,2,50,0,1
85346,-100,4,2,1,50,0,1
92300,-100,4,1,2,50,0,1
92498,-100,4,2,1,50,0,1
93889,-100,4,1,2,50,0,1
94088,-100,4,2,1,50,0,1
97068,-100,4,1,2,50,0,1
97266,-100,4,2,1,50,0,1
98657,-100,4,1,2,50,0,1
98856,-100,4,2,1,50,0,1
100247,-100,4,1,2,50,0,1
100445,-100,4,2,1,50,0,1
101836,-100,4,1,2,50,0,1
102035,-100,4,2,1,50,0,1
103127,-200,4,2,1,20,0,0
112465,-200,4,2,1,5,0,0
115048,-200,4,2,1,20,0,0
115644,-200,4,2,1,50,0,0
116041,-100,4,2,2,50,0,0
120710,-100,4,2,1,50,0,0
120909,-100,4,2,2,50,0,0
121107,-100,4,2,1,50,0,0
121306,-100,4,2,2,50,0,0
122101,-100,4,2,2,50,0,0
123094,-100,4,2,1,50,0,0
123293,-100,4,2,2,50,0,0
123492,-100,4,2,1,50,0,0
123690,-100,4,2,2,50,0,0
124684,-100,4,2,1,50,0,0
124882,-100,4,2,2,50,0,0
125379,-100,4,2,1,5,0,0
128458,-100,4,2,1,25,0,0
139187,-100,4,1,1,40,0,0
139684,-100,4,2,1,50,0,1
139982,-100,4,1,2,50,0,1
140180,-100,4,2,1,50,0,1
144849,-100,4,2,2,40,0,1
145346,-100,4,2,1,50,0,1
149518,-100,4,1,2,50,0,1
149717,-100,4,2,1,50,0,1
156770,-100,4,2,2,40,0,1
157266,-100,4,2,1,50,0,1
162233,-100,4,1,2,50,0,1
162432,-100,4,2,1,50,0,1
163028,-100,4,1,2,50,0,1
163227,-100,4,2,1,50,0,1
163425,-100,4,2,2,50,0,1
164021,-100,4,2,1,50,0,1
164220,-100,4,2,2,50,0,1
164419,-100,4,2,1,50,0,1
164617,-100,4,2,2,50,0,1
165611,-100,4,2,1,50,0,1
165809,-100,4,2,2,50,0,1
166008,-100,4,2,1,50,0,1
166207,-100,4,2,2,50,0,1
166803,-100,4,2,1,50,0,1
167002,-100,4,2,2,50,0,1
167598,-100,4,2,1,50,0,1
167796,-100,4,2,2,50,0,1
168392,-100,4,2,1,50,0,1
168591,-100,4,2,2,50,0,1
169187,-100,4,2,1,50,0,1
169386,-100,4,2,2,50,0,1
173061,-100,4,2,2,40,0,1
173856,-100,4,2,2,50,0,1
174651,-100,4,2,2,60,0,1
175445,-100,4,2,2,70,0,1
176240,-100,4,2,2,50,0,0
176339,-100,4,1,0,50,0,0

[Colours]
Combo1 : 221,15,205
Combo2 : 16,252,3
Combo3 : 14,32,250
SliderBorder : 250,245,167

[HitObjects]
68,192,1406,2,0,B|96:112|192:96,1,150,2|0
160,248,2598,2,0,B|256:312|360:240,1,200,2|0
432,192,3790,6,0,B|404:112|308:96,1,150,2|0
256,232,4982,2,0,B|256:32,1,200,2|0
184,100,6174,6,0,B|103:112|75:192,1,150,2|0
132,332,7366,1,2
396,192,8558,5,2
132,52,9750,1,2
256,192,10942,12,0,13326
256,132,14915,6,2,B|256:53,2,75
256,192,15710,1,2
256,192,15909,12,0,17498
256,192,18094,12,0,20478
200,76,22068,6,0,B|100:116|84:240,1,200,12|8
204,192,23260,2,0,B|218:304|318:344,1,200,8|8
188,344,24452,2,0,B|287:304|301:191,1,200,8|8
420,228,25644,2,0,B|405:115|305:75,1,200,8|8
256,184,26836,6,0,B|216:144,2,50,8|0|8
364,240,27631,1,8
256,292,28028,2,0,B|220:326,1,50,8|8
208,268,28425,6,0,B|144:268|144:268|100:124,1,200,8|8
224,136,29617,1,8
344,136,30015,2,0,B|408:136|408:136|452:280,1,200,8|8
328,264,31207,1,8
256,360,31604,6,0,B|212:360|180:360|132:360|96:336|96:296|96:260,1,200,8|8
176,192,32796,1,8
256,100,33194,2,0,B|256:48,2,50,8|0|8
256,160,33790,1,8
196,264,34187,2,0,B|208:300|256:320|304:300|316:260,1,150,8|12
64,160,47498,6,0,B|80:96|148:84,2,100,12|8|8
176,200,48690,1,8
176,200,49088,1,8
288,240,49485,2,0,B|272:304|204:316,2,100,8|8|8
396,192,50677,6,0,B|412:128|480:116,2,100,8|8|8
276,192,51869,1,8
276,192,52266,1,8
172,252,52664,2,0,B|92:228|76:144,1,150,8|0
256,124,53856,6,0,B|384:112|392:260,1,200,12|8
268,236,55048,2,0,B|197:306,1,100,8|8
76,308,55843,2,0,B|5:237,2,100,8|8|8
136,204,57035,5,8
136,204,57432,1,8
208,108,57829,2,0,B|256:88|304:108,2,100,8|8|8
256,216,59021,2,0,B|256:316,1,100,8|8
364,268,59816,5,8
364,148,60213,1,4
364,28,60611,1,8
260,88,61008,2,0,B|210:88,1,50,8|8
148,192,61604,6,0,B|408:192,1,250,8|0
400,312,62995,1,0
280,312,63392,5,8
160,312,63790,1,0
220,208,64187,2,0,B|220:158,1,50,8|8
44,192,64982,6,0,B|43:256|43:256|43:332|124:332|124:332|243:332,1,300,0|8
240,212,66571,1,4
244,92,66968,1,8
244,92,67366,6,0,B|352:92|352:92|443:92|443:168|443:168|443:232,1,300,0|8
372,328,68955,1,0
256,304,69353,1,8
208,196,69750,6,0,B|232:172|284:172|312:208,2,100,4|8|0
160,84,70942,1,8
112,196,71339,2,0,B|96:219|44:219|20:195,2,100,0|8|0
172,300,72531,1,8
292,312,72929,6,0,B|352:304|384:244,2,100,4|8|0
276,192,74121,2,0,B|253:148|193:140,2,100,8|0|8
372,120,75313,6,0,B|394:163|454:171,2,100,4|8|0
276,44,76505,1,8
276,44,76902,1,0
184,120,77300,1,8
184,120,77697,1,4
184,240,78094,5,8
184,240,78293,1,0
184,240,78492,1,4
256,336,78889,2,0,B|364:320|387:202,1,200,8|8
304,116,80081,1,0
224,204,80478,2,0,B|116:188|92:72,1,200,8|8
212,88,81670,6,0,B|320:104|344:220,1,200,4|0
224,204,82862,2,0,B|116:220|92:336,1,200,8|8
212,316,84055,1,8
256,356,84253,1,8
300,316,84452,1,8
420,336,84849,6,0,B|396:220|288:204,1,200,4|0
168,204,86041,2,0,B|60:188|36:72,1,200,8|8
156,88,87233,6,0,B|226:17,2,100,4|8|0
156,208,88425,2,0,B|226:278,2,100,8|0|8
256,144,89617,5,4
376,144,90015,2,0,B|428:144,2,50,8|0|4
316,248,90809,1,8
196,248,91207,6,0,B|232:284,2,50,0|0|8
76,232,92002,2,0,B|64:202|61:159|78:126|112:109|154:111|183:123,1,200
256,28,93194,1,8
328,124,93591,6,0,B|355:112|398:110|432:127|449:160|446:203|434:232,1,200,4|0
328,292,94783,1,8
256,196,95180,1,0
184,292,95578,2,0,B|132:292,2,50,8|0|0
256,196,96372,1,8
328,292,96770,6,0,B|326:320|298:351|254:366|210:350|190:322|182:290,1,200,12|0
116,192,97962,1,8
184,92,98359,2,0,B|186:63|214:32|256:16|300:32|323:62|331:94,1,200,8|8
256,188,99551,1,8
252,308,99949,6,0,B|148:268|140:152,1,200,12|8
256,188,101141,1,8
260,68,101538,2,0,B|364:108|372:228,2,200,8|8|4
256,192,112664,12,0,115048
256,312,115843,5,4
256,192,116240,1,8
136,192,116637,1,8
80,84,117035,1,8
200,84,117432,5,8
256,192,117829,1,8
312,84,118227,1,8
432,84,118624,1,8
376,192,119021,1,8
376,192,119419,1,8
256,172,119816,6,0,B|256:124,2,50,8|0|8
184,268,120611,2,0,B|186:297|214:328|256:344|300:328|323:298|331:266,1,200,8|8
256,176,121803,1,8
256,176,122200,6,0,B|256:226,2,50,12|0|8
328,80,122995,2,0,B|326:51|298:20|256:4|212:20|189:50|181:82,1,200,8|8
256,176,124187,1,8
184,272,124584,2,0,B|216:300|296:300|328:268,1,150,8|2
256,192,125379,12,0,127763
196,240,128558,6,0,B|172:292|116:320,2,100,2|0|2
308,192,129750,2,0,B|332:244|388:272,1,100,2|2
420,152,130545,1,2
308,112,130942,6,0,B|332:60|388:32,2,100,2|0|2
192,144,132134,2,0,B|172:93|125:72,1,100,2|2
80,184,132929,1,2
192,232,133326,6,0,B|216:284|272:312,2,100,2|0|2
304,192,134518,2,0,B|328:140|384:112,1,100
412,232,135313,1,2
304,280,135710,6,0,B|280:332|224:360,2,100,2|0|2
192,240,136902,2,0,B|144:220|125:167,1,100
160,52,137697,1,2
280,36,138094,6,0,B|230:36,1,50,2|2
256,92,138492,2,0,B|256:142,1,50,2|2
256,204,138889,1,2
256,324,139286,5,12
136,324,139684,2,0,B|72:324|72:324|32:196,1,200,4|0
152,192,140876,1,8
152,192,141273,1,0
272,192,141670,2,0,B|336:192|336:192|376:320,1,200,8|8
256,324,142862,1,0
256,324,143260,1,8
208,216,143657,6,0,B|232:192|284:192|312:228,2,100,0|8|0
256,324,144849,1,8
256,324,145048,1,0
256,324,145247,1,4
376,324,145644,1,8
316,220,146041,5,0
316,100,146439,1,8
216,164,146836,2,0,B|160:168|132:216,2,100,0|8|0
336,164,148028,2,0,B|392:160|420:112,2,100,8|4|8
336,44,149220,6,0,B|240:80|220:196,1,200
220,316,150412,1,8
328,264,150809,1,8
328,204,151008,1,8
328,144,151207,1,8
224,204,151604,6,0,B|176:176|128:184,2,100,4|8|0
284,100,152796,2,0,B|332:128|380:120,2,100,8|0|8
284,220,153988,2,0,B|332:192|380:200,2,100,0|8|0
380,292,155180,2,0,B|428:299|476:271,2,100,8|0|8
448,192,156372,5,0
380,92,156770,1,8
380,92,156968,1,0
380,92,157167,1,4
448,192,157564,2,0,B|355:192|355:192|311:152|311:152|263:152,1,200,8|8
264,272,158756,1,0
263,152,159154,2,0,B|215:152|215:152|171:192|171:192|78:192,1,200,8|8
128,304,160346,5,4
128,304,160743,1,8
248,304,161141,1,0
248,304,161538,1,8
168,216,161935,2,0,B|200:164|252:148|304:168|332:220,2,200,0|0|12
168,336,163922,6,0,B|108:354|66:322|30:274|59:212,1,200,8|8
56,100,165114,1,8
176,100,165511,2,0,B|235:81|277:113|313:161|284:223,1,200,8|8
168,216,166704,6,0,B|238:286,1,100,12|8
360,288,167498,2,0,B|430:217,1,100,8|8
428,96,168293,2,0,B|357:25,1,100,8|8
236,28,169088,2,0,B|165:98,1,100,8|12
44,96,169882,5,12
44,216,170280,1,8
136,292,170677,1,8
256,312,171074,1,8
376,292,171472,5,8
468,216,171869,1,8
468,96,172266,1,8
364,36,172664,1,8
364,156,173061,5,12
364,156,173260,1,8
364,156,173458,1,8
256,204,173856,1,8
256,204,174055,1,8
256,204,174253,1,8
168,120,174651,6,0,B|220:60|296:60|352:132,2,200,8|8|12
256,192,176339,12,0,179419
