osu file format v9

[General]
AudioFilename: little.mp3
AudioLeadIn: 0
PreviewTime: 72909
Countdown: 0
SampleSet: Soft
StackLeniency: 0.7
Mode: 0
LetterboxInBreaks: 1

[Editor]
DistanceSpacing: 1
BeatDivisor: 4
GridSize: 4

[Metadata]
Title:Little Busters! -Ecstasy Ver.-
Artist:Rita
Creator:ChickeN
Version:Hinacle
Source:little busters EX
Tags:aisamadx chicken caramel shinnai mellon micia mucha hinacle s_o_r_d_a sorda kanpakyin gowww key

[Difficulty]
HPDrainRate:6
CircleSize:4
OverallDifficulty:5
ApproachRate:7
SliderMultiplier:1.6
SliderTickRate:1

[Events]
//Background and Video events
0,0,"little busters!.jpg"
//Break Periods
2,34963,46578
2,104897,114923
//Storyboard Layer 0 (Background)
//Storyboard Layer 1 (Fail)
//Storyboard Layer 2 (Pass)
//Storyboard Layer 3 (Foreground)
//Storyboard Sound Samples
//Background Colour Transformations
3,100,163,162,255

[TimingPoints]
1386,397.350993377483,4,2,1,40,1,0
1386,-133.333333333333,4,2,1,30,0,0
10823,-133.333333333333,4,2,1,5,0,0
13008,-133.333333333333,4,2,1,40,0,0
17975,-133.333333333333,4,2,1,5,0,0
22048,-100,4,1,1,60,0,0
24531,-100,4,1,1,45,0,0
24929,-100,4,1,1,60,0,0
31087,-100,4,1,1,45,0,0
31286,-100,4,1,1,60,0,0
33174,-100,4,1,1,40,0,0
33273,-100,4,1,1,45,0,0
33372,-100,4,1,1,50,0,0
33472,-100,4,1,1,55,0,0
33571,-100,4,1,1,60,0,0
47379,-100,4,1,1,65,0,0
69631,-100,4,1,1,45,0,0
70425,-100,4,1,1,55,0,0
71319,-100,4,1,1,65,0,0
72015,-100,4,1,1,75,0,0
72909,-100,4,1,1,80,0,1
96750,-100,4,1,1,70,0,0
103008,-100,4,2,1,5,0,0
104796,-100,4,2,1,70,0,0
115823,-100,4,1,1,60,0,0
125260,-100,4,2,1,5,0,0
128538,-200,4,2,1,30,0,0
137776,-200,4,1,1,5,0,0
139266,-200,4,1,1,60,0,0
139664,-100,4,1,1,80,0,1
163505,-100,4,1,1,70,0,0
172942,-100,4,1,1,40,0,0
173736,-100,4,1,1,50,0,0
174531,-100,4,1,1,60,0,0
175326,-100,4,1,1,70,0,0
176121,-100,4,1,1,75,0,0
176319,-100,4,2,1,5,0,0

[Colours]
Combo1 : 193,132,255
Combo2 : 255,143,89
Combo3 : 89,172,255
Combo4 : 255,113,113

[HitObjects]
160,120,1386,2,0,B|128:176|152:240,1,119.999996423721,2|0
172,316,1982,2,0,B|228:348|292:324,1,119.999996423721,2|0
368,304,2578,1,2
420,240,2776,1,0
400,160,2975,2,0,B|356:116|284:132,1,119.999996423721,0|0
84,180,3770,6,0,B|40:232|72:296,1,119.999996423721,2|0
144,252,4366,2,0,B|149:319|217:342,1,119.999996423721,2|0
236,260,4962,2,0,B|288:304|352:272,1,119.999996423721,2|0
448,140,5756,1,0
300,60,6154,6,0,B|248:92|176:68,1,119.999996423721,2|0
104,48,6750,1,0
76,128,6948,1,0
56,296,7346,1,2
224,312,7743,1,0
244,144,8140,1,0
244,144,8538,6,0,B|296:120|360:144,2,119.999996423721,2|0|0
224,312,9730,2,0,B|172:336|108:312,2,119.999996423721,2|0|0
256,192,10922,12,0,12909
176,148,13306,6,0,B|120:180|48:152,2,119.999996423721,0|2|0
336,96,14498,1,0
444,224,14895,2,0,B|468:268|456:312,2,89.9999973177911,0|2|0
364,252,15690,2,0,B|312:284|248:264,1,119.999996423721,2|0
168,236,16286,1,0
88,204,16485,2,0,B|48:260|72:324,2,119.999996423721,0|2|0
256,60,17677,1,0
256,192,18074,12,0,20458
128,136,22048,6,0,B|108:176|124:220,1,80,4|0
192,260,22445,1,8
276,248,22644,2,0,B|316:232|360:252,1,80
436,260,23041,2,0,B|452:300|436:340,2,80,0|8|0
428,176,23637,6,0,B|412:136|428:96,1,80
312,60,24035,2,0,B|328:100|312:140,1,80,8|2
204,352,24631,1,2
72,152,25028,1,8
152,132,25227,6,0,B|192:116|232:128,1,80
312,152,25624,1,8
312,152,25823,1,0
396,164,26021,2,0,B|412:204|396:248,1,80
388,328,26419,1,8
304,344,26617,5,0
280,352,26717,1,0
256,356,26816,1,0
232,352,26915,1,0
208,344,27015,1,0
128,320,27213,2,0,B|88:312,1,40,2|0
64,196,27511,2,0,B|104:204,1,40,2|0
188,220,27809,2,0,B|228:236|268:224,1,80,8|0
348,204,28207,5,0
348,204,28306,1,0
348,204,28405,2,0,B|388:192|432:208,1,80,4|0
488,320,28803,2,0,B|448:332|404:316,1,80,8|0
328,296,29200,1,0
248,272,29399,2,0,B|208:256|168:264,1,80,0|8
88,272,29796,2,0,B|72:312|88:352,2,80
96,192,30392,5,8
136,88,30591,1,0
208,176,30789,1,2
416,192,31187,5,2
376,296,31386,1,8
304,208,31584,1,0
240,260,31783,2,0,B|200:276|160:264,1,80,0|8
80,244,32180,1,0
28,184,32379,2,0,B|16:144|28:100,1,80
148,64,32776,2,0,B|160:104|148:148,1,80,8|0
148,228,33174,5,0
148,228,33273,1,0
148,228,33372,1,0
148,228,33472,1,0
148,228,33571,2,0,B|128:268|144:312,1,80,8|0
440,304,34167,2,0,B|440:144,1,160,0|8
440,60,34763,1,4
116,160,47478,5,0
44,200,47677,1,0
76,276,47876,1,8
148,236,48074,2,0,B|216:288|304:248,1,160
376,220,48670,1,8
376,220,48770,1,0
376,220,48869,1,0
412,144,49068,5,0
376,68,49266,2,0,B|304:16|224:52,1,160,8|8
148,124,49862,1,0
52,80,50061,2,0,B|0:152|36:232,1,160,0|8
76,304,50657,6,0,B|116:324|160:308,1,80
236,192,51054,2,0,B|196:172|152:188,1,80,8|0
272,276,51452,6,0,B|312:296|356:280,1,80
432,164,51849,2,0,B|392:144|348:160,1,80,8|0
268,160,52246,1,0
184,168,52445,2,0,B|108:216|28:172,1,160,8|8
32,174,53041,1,0
96,288,53240,2,0,B|172:240|252:284,1,160,0|8
320,316,53836,5,0
400,336,54035,1,0
472,300,54233,1,8
472,300,54333,1,0
472,300,54432,1,0
488,220,54631,1,0
452,148,54829,1,0
372,136,55028,5,8
372,136,55127,1,0
372,136,55227,2,0,B|336:152|288:136,1,80
212,124,55624,2,0,B|144:192|196:272,1,160,8|8
288,208,56220,1,0
364,288,56419,2,0,B|432:220|380:140,1,160,0|8
344,72,57015,5,0
344,72,57412,1,8
256,64,57611,2,0,B|212:52|172:64,1,80
96,84,58008,1,0
56,156,58207,2,0,B|40:196|52:236,1,80,8|0
60,316,58604,6,0,B|100:332|144:316,1,80
216,216,59001,2,0,B|176:200|132:216,1,80,8|0
216,316,59399,2,0,B|296:368|372:324,1,160,0|8
440,80,60193,5,4
256,280,60591,1,8
72,80,60988,1,2
72,80,61187,1,2
256,280,61584,5,0
256,280,61684,1,0
256,280,61783,2,0,B|296:300|336:288,1,80
404,244,62180,1,8
356,176,62379,2,0,B|316:196|276:184,1,80,0|8
256,104,62776,1,0
212,32,62975,2,0,B|172:12|132:24,1,80,8|0
72,80,63372,5,4
256,280,63770,1,8
440,80,64167,1,2
440,80,64366,1,2
256,280,64763,5,0
256,280,64862,1,0
256,280,64962,2,0,B|216:300|172:288,1,80
96,288,65359,2,0,B|76:248|88:204,1,80,8|0
84,128,65756,2,0,B|124:108|168:120,1,80
244,120,66154,2,0,B|264:160|252:204,1,80,8|0
256,280,66551,6,0,B|332:328|412:288,1,160,4|8
480,248,67147,1,0
428,140,67346,2,0,B|352:188|272:148,1,160,0|8
204,108,67942,1,0
124,124,68140,6,0,B|52:200,1,80
140,228,68538,2,0,B|68:304,1,80,8|0
212,268,68935,2,0,B|284:192,1,80
196,164,69333,2,0,B|268:88,1,80,8|0
304,48,69730,5,0
384,24,69929,1,0
460,52,70127,1,0
492,128,70326,1,8
464,204,70525,1,0
392,244,70723,1,0
312,220,70922,1,0
232,204,71121,5,8
232,204,71220,1,0
232,204,71319,2,0,B|192:184|152:200,1,80
76,300,71717,2,0,B|116:320|156:304,1,80,0|8
236,304,72114,5,4
476,176,72511,1,8
244,32,72909,6,0,B|204:48|156:32,1,80,4|0
84,28,73306,1,8
84,28,73505,1,0
84,28,73703,1,0
104,252,74101,6,0,B|88:296|104:332,1,80,8|0
244,360,74498,2,0,B|260:316|244:280,2,80,0|0|8
392,192,75293,6,0,B|432:204|472:196,1,80,4|0
388,88,75690,2,0,B|348:76|308:84,1,80,8|0
228,88,76087,1,0
60,240,76485,5,8
56,324,76684,2,0,B|96:344|136:332,1,80
216,320,77081,1,0
296,296,77280,2,0,B|336:284|380:300,1,80,8|0
456,312,77677,2,8,B|508:244|468:160,1,160,0|8
396,76,78273,1,0
304,140,78472,2,0,B|252:208|292:292,1,160,4|8
224,348,79068,5,0
224,348,79167,1,0
224,348,79266,2,0,B|184:364|140:352,1,80
64,336,79664,1,8
32,260,79862,1,0
64,184,80061,1,0
140,152,80260,2,0,B|180:136|228:152,1,80,0|8
300,160,80657,5,0
300,160,80756,1,0
300,160,80856,2,0,B|352:236|296:312,1,160,0|8
224,344,81452,1,0
176,276,81650,2,0,B|96:228|24:272,1,160,0|8
100,168,82246,1,0
32,60,82445,2,0,B|112:108|184:64,1,160,0|8
260,32,83041,1,0
340,52,83240,6,0,B|384:64|420:52,1,80
336,148,83637,2,0,B|292:160|256:148,1,80,8|0
336,248,84035,2,0,B|380:260|416:248,1,80,0|8
332,344,84432,2,0,B|288:356|252:344,1,80,8|8
172,324,84829,5,4
92,208,85028,1,0
92,348,85227,1,8
172,240,85425,1,0
44,276,85624,1,0
44,276,86022,5,8
172,240,86220,1,0
92,348,86419,1,0
92,208,86617,1,0
172,324,86816,1,8
172,324,87213,5,4
292,344,87412,1,0
244,232,87611,1,8
364,248,87809,1,0
316,136,88008,1,0
316,136,88405,5,8
196,120,88604,1,0
244,232,88803,1,0
124,212,89001,1,0
172,324,89200,1,8
172,324,89597,6,0,B|252:372|328:336,1,160,0|8
404,312,90193,1,0
404,312,90293,1,0
404,312,90392,2,0,B|424:272|412:228,1,80,4|0
308,148,90789,2,0,B|288:188|300:232,1,80,8|0
376,296,91187,6,0,B|396:256|384:212,1,80
280,132,91584,2,0,B|260:172|272:216,1,80,8|0
272,352,91982,6,0,B|312:372|356:360,1,80
436,244,92379,2,0,B|396:224|352:236,1,80,8|0
208,244,92776,6,0,B|248:264|292:252,1,80
372,136,93173,2,0,B|332:116|288:128,1,80,8|0
212,128,93571,5,0
132,112,93770,1,0
60,148,93968,1,8
32,224,94167,2,0,B|80:288|-16:320|32:384,1,160
100,344,94763,1,8
100,344,94962,1,0
168,300,95160,5,0
256,220,95359,1,0
280,336,95558,1,8
168,300,95756,2,0,B|96:248|128:152,1,160
136,76,96352,1,8
160,76,96452,1,0
184,76,96551,1,8
208,76,96650,1,0
236,76,96750,6,0,B|316:76,1,80,4|0
408,176,97147,2,0,B|328:176,1,80,8|0
244,176,97544,1,2
244,176,97743,1,0
160,176,97942,2,0,B|140:216|156:256,1,80,8|0
236,272,98339,5,2
316,292,98538,1,0
396,284,98736,2,0,B|436:304|476:288,1,80,8|0
404,168,99134,2,0,B|364:148|324:164,1,80,2|0
236,272,99531,2,0,B|276:292|316:276,1,80,8|0
240,156,99929,6,0,B|200:136|160:152,1,80,2|0
132,228,100326,1,8
108,308,100525,2,0,B|68:320|24:304,2,80,0|2|0
192,312,101121,2,0,B|232:324|276:308,1,80,8|0
352,304,101518,6,0,B|416:236|372:152,1,160,2|8
340,84,102114,1,0
276,136,102313,2,0,B|112:136,1,160,2|8
32,136,102909,1,0
256,192,103107,12,0,104697
364,148,115823,5,0
392,224,116021,1,0
360,300,116220,2,0,B|320:316|276:300,1,80,8|0
204,276,116617,1,2
120,284,116816,2,0,B|104:324|116:364,2,80,0|8|0
128,200,117412,2,0,B|88:184|48:196,2,80,0|0|8
212,208,118008,2,0,B|228:168|216:128,2,80,0|2|0
204,292,118604,2,0,B|244:308|284:296,1,80,8|0
364,288,119001,5,0
416,224,119200,1,0
396,144,119399,1,8
312,132,119597,1,0
264,200,119796,2,0,B|240:240|256:284,1,80,2|0
212,344,120193,1,8
128,352,120392,1,0
52,320,120591,6,0,B|0:252|40:168,1,160,0|8
76,80,121187,1,0
156,132,121385,2,0,B|224:184|308:144,1,160,2|8
392,96,121982,1,0
392,96,122081,1,0
392,96,122180,2,0,B|432:80|480:100,1,80
468,224,122578,2,0,B|428:240|380:220,1,80,8|0
308,208,122975,1,2
228,188,123174,1,0
148,208,123372,1,8
96,272,123571,5,0
96,272,123670,1,0
96,272,123770,2,0,B|72:312|92:356,1,80
172,360,124167,1,8
256,348,124366,2,0,B|296:332|340:348,1,80,0|2
436,256,124763,2,0,B|396:240|352:256,1,80,0|8
276,256,125160,1,0
256,192,125359,12,0,127743
132,56,128538,5,0
212,56,128736,2,0,B|252:52|252:60|292:56,1,80
372,56,129333,1,2
372,56,129730,6,0,B|404:80,1,40
400,240,130326,2,0,B|368:216,1,40,0|2
256,72,130922,5,0
256,152,131120,2,0,B|260:192|252:192|256:232,1,80
256,312,131717,1,2
256,312,132114,6,0,B|216:340,1,40
76,272,132710,2,0,B|116:244,1,40,0|2
192,112,133306,5,0
192,112,133505,1,0
224,272,133902,1,0
224,272,134101,1,2
384,240,134498,5,0
384,240,134697,1,0
368,80,135094,2,0,B|400:48,1,40,0|2
304,224,135690,6,0,B|297:269,1,40,0|0
264,72,136286,2,0,B|244:32,1,40,0|2
384,176,136882,2,0,B|424:196,1,40,0|0
236,160,137478,2,0,B|191:167,1,40,0|2
256,192,137876,12,8,139266
336,92,139664,6,0,B|380:164,1,80,4|0
308,288,140061,2,0,B|264:216,1,80,8|0
224,148,140458,1,0
108,340,140856,6,0,B|68:356|24:340,2,80,8|0|0
192,340,141452,1,0
276,340,141650,1,8
368,136,142048,6,0,B|408:120|452:136,2,80,4|0|8
284,136,142644,1,0
200,136,142842,1,0
68,316,143240,5,8
148,332,143438,2,0,B|188:348|232:332,1,80
244,252,143836,1,0
264,172,144035,2,0,B|304:156|348:172,1,80,8|0
424,180,144432,2,0,B|476:252|424:332,2,160,0|8|0
404,100,145425,1,0
404,100,145525,1,0
404,100,145624,2,0,B|364:84|320:96,1,80,8|0
244,108,146021,5,0
212,184,146220,1,0
212,184,146319,1,0
212,184,146419,2,0,B|192:224|208:264,1,80,8|0
280,228,146816,2,0,B|294:270|333:287,1,80
364,212,147213,2,0,B|404:232|444:216,1,80,8|0
408,144,147611,2,0,B|450:129|467:90,1,80
336,56,148008,2,0,B|293:70|276:109,1,80,8|0
272,188,148405,6,0,B|240:252|304:268|272:348,1,160,0|8
204,304,149001,1,0
128,268,149200,2,0,B|48:284,1,80
108,160,149597,2,0,B|188:144,1,80,8|0
292,232,149995,2,0,B|212:248,1,80
272,124,150392,2,0,B|352:108,1,80,8|0
448,196,150789,2,0,B|292:232,1,160,8|8
213,247,151385,1,0
140,212,151584,5,4
64,128,151783,1,0
124,32,151982,1,8
232,56,152180,1,0
244,168,152379,1,0
244,168,152776,5,8
328,92,152975,1,0
424,152,153174,1,0
400,260,153372,1,0
288,272,153571,1,8
288,272,153968,5,4
204,348,154167,1,0
108,288,154366,1,8
132,180,154564,1,0
244,168,154763,1,0
244,168,155160,6,0,B|284:152|328:168,1,80,8|0
404,172,155558,1,0
484,188,155756,2,0,B|496:232|480:272,1,80,0|8
472,348,156154,1,0
388,352,156352,2,0,B|312:388|232:344,2,160,0|8|0
408,268,157346,1,0
408,268,157445,1,0
408,268,157544,2,0,B|424:228|408:180,1,80,8|0
388,112,157942,5,0
308,120,158140,1,0
308,120,158240,1,0
308,120,158339,2,0,B|268:132|224:120,1,80,8|0
148,100,158736,1,0
64,120,158935,2,0,B|8:192|48:272,1,160,8|8
200,288,159531,2,0,B|256:216|216:136,1,160,0|8
288,64,160127,1,0
352,144,160326,6,0,B|296:216|336:296,1,160,4|8
404,340,160922,2,0,B|448:356|488:344,1,80
420,240,161319,2,0,B|376:224|336:236,1,80,0|8
260,240,161717,1,0
180,256,161915,2,0,B|100:300|28:256,3,160,0|8|0|8
256,84,163505,6,0,B|332:48|416:84,1,160,8|8
416,304,164299,2,0,B|340:340|256:304,1,160,8|8
36,300,165094,5,8
176,224,165491,1,8
32,152,165889,1,8
176,84,166286,1,8
176,84,166684,6,0,B|256:120|336:84,1,160,8|8
336,300,167478,2,0,B|256:264|176:300,1,160,8|8
60,192,168273,5,8
256,84,168670,1,8
452,192,169068,1,8
256,300,169465,1,8
256,300,169862,6,0,B|184:348|104:300,3,160,8|8|8|8
256,84,171452,2,0,B|328:36|408:84,3,160,8|8|8|8
256,248,173041,5,8
256,248,173240,1,0
156,276,173438,5,0
156,276,173637,1,0
116,180,173836,5,8
116,180,174035,1,0
216,152,174233,5,0
216,152,174432,1,0
256,248,174631,6,0,B|292:272|336:256,1,80,8|0
444,264,175028,2,0,B|468:228|452:184,1,80
456,76,175425,2,0,B|420:52|376:68,1,80,8|0
268,60,175823,2,0,B|244:96|260:140,1,80
356,164,176220,5,8
256,192,176319,12,0,182578
