osu file format v9

[General]
AudioFilename: little.mp3
AudioLeadIn: 0
PreviewTime: 72909
Countdown: 0
SampleSet: Normal
StackLeniency: 0.7
Mode: 0
LetterboxInBreaks: 1

[Editor]
Bookmarks: 22048,34763,47478,60193,72909,84829,103107,115823,128538,139664,151584,163505,177809
DistanceSpacing: 2
BeatDivisor: 4
GridSize: 4

[Metadata]
Title:Little Busters! -Ecstasy Ver.-
Artist:Rita
Creator:ChickeN
Version:Collab
Source:little busters EX
Tags:aisamadx chicken caramel shinnai mellon micia mucha hinacle s_o_r_d_a sorda kanpakyin gowww key

[Difficulty]
HPDrainRate:7
CircleSize:4
OverallDifficulty:6
ApproachRate:8
SliderMultiplier:1.8
SliderTickRate:1

[Events]
//Background and Video events
0,0,"little busters!.jpg"
//Break Periods
2,104892,115073
//Storyboard Layer 0 (Background)
//Storyboard Layer 1 (Fail)
//Storyboard Layer 2 (Pass)
//Storyboard Layer 3 (Foreground)
//Storyboard Sound Samples
//Background Colour Transformations
3,100,163,162,255

[TimingPoints]
1183,397.350993377483,4,1,1,40,1,0
1386,-200,4,2,1,40,0,0
3273,-200,4,2,1,25,0,0
3571,-200,4,2,1,40,0,0
5657,-200,4,2,1,25,0,0
5856,-200,4,2,1,40,0,0
8041,-200,4,2,1,25,0,0
8240,-200,4,2,1,40,0,0
10823,-200,4,2,1,5,0,0
13008,-200,4,2,1,40,0,0
15591,-200,4,2,1,5,0,0
21948,-100,4,1,1,70,0,0
26717,-100,4,1,1,60,0,0
27313,-100,4,1,1,70,0,0
33174,-100,4,1,1,30,0,0
33273,-100,4,1,1,40,0,0
33372,-100,4,1,1,50,0,0
33472,-100,4,1,1,60,0,0
33571,-100,4,1,1,70,0,0
47478,-100,4,1,1,60,0,0
51849,-100,4,1,1,55,0,0
52246,-100,4,1,1,50,0,0
52544,-100,4,1,1,60,0,0
64862,-100,4,1,1,55,0,0
66054,-100,4,1,1,60,0,0
69631,-100,4,1,1,50,0,0
70425,-100,4,1,1,60,0,0
71220,-100,4,1,1,70,0,0
72909,-100,4,1,1,80,0,1
95955,-100,4,1,1,70,0,1
96154,-100,4,1,1,60,0,1
96352,-100,4,1,1,50,0,1
96551,-100,4,1,1,40,0,1
96750,-100,4,1,1,70,0,0
120988,-133.333333333333,4,1,1,60,0,0
121584,-133.333333333333,4,1,1,5,0,0
122180,-100,4,1,1,60,0,0
123968,-200,4,1,1,60,0,0
124465,-200,4,1,1,50,0,0
125260,-200,4,1,1,5,0,0
128339,-200,4,2,1,30,0,0
139167,-200,4,1,1,70,0,0
139664,-100,4,1,1,80,0,1
162710,-100,4,1,1,70,0,1
162909,-100,4,1,1,60,0,1
163107,-100,4,1,1,50,0,1
163306,-100,4,1,1,40,0,1
163505,-100,4,1,1,70,0,0
180889,-100,4,1,1,60,0,0
181485,-100,4,1,1,70,0,0
187246,-100,4,1,1,60,0,0
187743,-100,4,1,1,56,0,0
188140,-100,4,1,1,52,0,0
188538,-100,4,1,1,48,0,0
188935,-100,4,1,1,45,0,0
190823,-100,4,1,1,50,0,0
191220,-100,4,1,1,55,0,0
191617,-100,4,1,1,60,0,0
192015,-100,4,1,1,70,0,0
193604,-100,4,1,1,60,0,0
194796,-100,4,1,1,50,0,0
194995,-100,4,1,1,60,0,0
195988,-100,4,1,1,45,0,0
196882,-100,4,1,1,50,0,0
197677,-100,4,1,1,55,0,0
198472,-100,4,1,1,60,0,0
199266,-100,4,1,1,65,0,0
200061,-100,4,1,1,70,0,0
201750,-100,4,1,1,5,0,0

[Colours]
Combo1 : 193,132,255
Combo2 : 255,143,89
Combo3 : 89,172,255
Combo4 : 255,113,113

[HitObjects]
128,64,1386,2,0,B|192:48|272:64,1,135,2|0
336,64,2180,1,0
400,192,2578,1,2
272,192,2975,1,0
336,304,3372,1,2
208,304,3770,6,0,B|160:272|160:224,1,90,2|0
160,160,4366,1,0
160,88,4564,1,0
288,64,4962,1,2
352,176,5359,1,0
432,64,5756,1,2
128,96,6154,6,8,B|80:112,1,45,2|0
320,96,6750,2,0,B|368:112,1,45,0|0
224,96,7346,2,0,B|224:48,2,45,2|0|0
224,160,7942,1,0
224,224,8140,1,2
400,112,8538,6,0,B|448:80|464:32,2,90,2|0|0
112,272,9730,2,0,B|64:304|48:352,2,90,2|0|0
256,192,10922,12,0,12909
160,272,13306,5,2
160,272,13703,2,0,B|208:292|248:272,1,90
352,112,14498,1,2
352,112,14895,2,0,B|320:120|284:116,2,67.5,0|2|0
256,192,15690,12,0,17677
256,192,18273,12,0,20458
103,139,22048,5,4
222,60,22246,1,0
351,89,22445,2,0,B|421:148,1,90,8|0
223,223,22842,5,0
87,282,23041,1,0
103,139,23240,2,0,B|104:32,1,90,8|0
62,233,23637,5,0
194,314,23836,1,0
349,297,24035,1,8
444,188,24233,1,2
367,58,24432,2,0,B|291:129,1,90,0|2
125,277,24829,2,0,B|204:206,1,90,8|8
84,94,25227,6,0,B|204:41|259:131,1,180,0|8
182,214,25823,2,0,B|286:271|378:211,1,180
462,96,26419,2,0,B|360:96,1,90,8|0
256,128,26816,5,0
256,160,26915,1,0
256,200,27015,1,0
256,232,27114,1,0
256,264,27213,1,8
137,314,27412,1,2
137,314,27511,1,0
40,208,27710,1,2
40,208,27809,1,8
166,121,28008,1,0
166,121,28207,1,8
322,234,28405,6,0,B|425:234,1,90,4|0
214,319,28803,2,0,B|119:319,1,90,8|0
146,208,29200,1,0
227,126,29399,1,0
337,91,29597,1,8
452,99,29796,1,0
388,230,29995,6,0,B|388:324,2,90,0|0|8
388,230,30591,1,0
231,162,30789,6,0,B|231:64,2,90,2|0|10
231,162,31385,1,8
62,264,31584,6,0,B|154:314|253:262,1,180,0|8
405,114,32180,2,0,B|308:77|201:121,1,180
62,264,32776,2,0,B|35:301,2,45,8|0|0
176,128,33174,5,0
200,152,33273,1,0
224,176,33372,1,0
248,200,33472,1,0
272,224,33571,1,0
88,48,33770,6,0,B|152:120|88:232,1,180,0|8
464,184,34564,1,8
464,288,34763,1,4
464,288,34962,1,0
368,288,35160,1,8
280,288,35359,1,0
192,288,35558,1,0
104,288,35756,1,0
16,288,35955,2,0,B|0:200|16:104,1,180,8|0
72,40,36551,1,0
160,56,36750,5,8
160,56,36849,1,0
160,56,36948,1,0
248,56,37147,1,0
248,56,37246,1,0
248,56,37346,1,0
336,56,37544,5,8
336,56,37644,1,0
336,56,37743,1,0
424,56,37942,1,0
424,56,38041,1,0
424,56,38140,1,0
440,144,38339,2,0,B|392:336|208:360|40:248|48:104|56:120,1,540,8|0
53,127,39730,1,2
48,304,40127,5,2
136,304,40326,1,0
224,304,40525,1,0
312,304,40723,1,8
400,304,40922,1,0
488,304,41121,1,0
400,304,41319,1,0
488,304,41518,1,8
256,192,41717,12,0,42710
456,312,43107,5,8
368,312,43306,1,0
320,312,43405,1,0
272,312,43505,1,0
184,312,43703,1,0
136,312,43803,1,0
88,312,43902,1,8
80,224,44101,2,0,B|80:24,1,180,0|0
168,48,44697,1,8
168,48,44895,1,0
352,56,45293,5,0
352,144,45491,1,8
352,144,45591,1,0
360,280,45889,2,0,B|208:280,1,135
184,280,46286,1,8
136,280,46385,1,0
56,168,46684,2,0,B|104:168,4,45,0|0|0|0|8
304,328,47478,5,4
408,304,47677,1,0
416,200,47876,2,0,B|424:144|488:112,2,90,8|0|0
312,168,48472,1,0
208,128,48670,2,0,B|176:88|112:96,1,90,8|0
104,200,49068,2,0,B|104:296,2,90,0|0|8
216,160,49664,5,0
320,120,49862,1,0
320,120,49962,1,0
320,120,50061,2,0,B|384:112|424:160,2,90,0|8|0
248,200,50657,2,0,B|256:248|240:296,1,90
144,248,51054,2,0,B|48:248,2,90,8|0|0
240,288,51650,2,0,B|336:336|432:280,2,180,2|2|2
72,232,52644,5,8
72,232,52842,1,0
240,168,53041,1,0
240,168,53239,1,8
72,104,53438,1,8
72,104,53637,1,8
240,40,53836,6,0,B|352:40,2,90,4|0|8
240,40,54432,1,0
240,40,54631,1,0
240,40,54825,1,0
168,112,55024,1,0
144,144,55127,1,0
112,176,55226,2,0,B|56:184|32:144,2,90
112,176,55823,5,8
208,232,56021,1,0
112,288,56220,2,0,B|136:336|192:336,1,90
280,288,56617,1,8
376,232,56816,1,0
280,176,57015,1,0
280,176,57114,1,0
280,176,57213,1,0
184,120,57412,2,0,B|144:88|72:96,2,90,8|0|0
272,56,58008,6,0,B|376:56,1,90,0|8
424,144,58405,1,0
376,240,58604,1,0
376,240,58703,1,0
376,240,58803,1,0
376,240,59001,1,8
216,320,59200,1,0
72,216,59399,2,0,B|48:176|48:104,1,90,0|0
160,128,59796,5,8
160,128,59895,1,0
160,128,59995,1,0
88,48,60193,5,4
432,48,60591,1,8
256,336,60988,1,2
256,336,61187,1,2
120,160,61584,5,0
216,72,61783,1,0
216,72,61982,2,0,B|336:72,1,90,0|8
400,160,62379,1,0
392,320,62578,1,8
392,320,62776,2,0,B|256:368|112:312,1,270,0|4
128,48,63770,1,8
416,192,64167,1,2
416,192,64366,1,2
64,208,64962,5,0
144,296,65160,1,2
256,336,65359,1,0
368,296,65558,1,2
448,208,65756,1,0
392,48,65955,6,0,B|256:8|120:48,1,270,2|4
256,344,66948,5,8
448,192,67346,1,0
256,40,67743,1,8
56,160,68140,6,0,B|32:208|64:264,1,90
216,344,68538,2,0,B|264:368|320:336,1,90,8|0
456,248,68935,2,0,B|480:200|448:144,1,90
296,48,69333,2,0,B|248:24|192:56,1,90,8|0
136,192,69730,5,0
256,192,69929,1,0
376,192,70127,1,0
256,72,70326,1,8
256,192,70525,1,0
256,312,70723,2,0,B|256:368,2,45,0|0|0
256,312,71121,5,8
256,192,71319,1,0
256,192,71419,1,0
256,192,71518,1,0
128,48,71717,5,0
128,48,71915,2,0,B|272:-8|408:56,1,270,8|8
392,216,72909,6,0,B|368:256|328:288,1,90,4|0
240,280,73306,1,8
152,280,73505,2,0,B|64:280,2,90
200,200,74101,5,8
256,72,74299,1,0
352,176,74498,1,0
280,304,74697,2,0,B|232:320|192:312,1,90,0|8
128,248,75094,1,0
64,184,75293,5,4
112,48,75491,1,0
232,128,75690,1,8
176,264,75889,2,0,B|144:320|88:336,2,90
264,256,76485,5,8
264,256,76584,1,0
264,256,76684,2,0,B|368:256,2,90,0|0|0
188,204,77280,1,8
124,144,77478,2,0,B|124:32,2,90,0|0|0
124,236,78074,1,0
132,256,78174,1,0
144,272,78273,1,0
160,284,78372,1,0
176,296,78472,2,0,B|228:316|276:308,2,90
200,208,79068,5,0
232,124,79266,1,0
316,156,79465,1,0
316,156,79564,1,0
316,156,79664,2,0,B|376:156|424:92,1,90
436,204,80061,2,0,B|428:268|396:300,1,90
228,280,80458,2,0,B|336:280,1,90
318,280,80851,1,0
308,160,81054,1,0
204,128,81253,1,8
240,224,81452,6,0,B|264:264|320:280,2,90,0|4|0
160,272,82048,1,8
96,208,82246,1,0
96,208,82346,1,0
96,208,82445,2,0,B|96:104,1,90
176,72,82842,2,0,B|176:176,1,90,8|0
184,256,83240,1,0
264,304,83438,1,0
288,216,83637,1,8
360,272,83836,1,0
396,192,84035,5,4
268,64,84233,1,8
308,240,84432,1,8
136,192,84631,1,8
136,192,84730,1,0
136,192,84829,6,0,B|232:232|304:168,1,180,4|8
248,104,85425,2,0,B|232:56|264:16,1,90
416,104,85823,1,0
488,152,86021,1,8
488,152,86121,1,0
488,152,86220,1,0
460,236,86419,1,0
460,236,86617,1,0
372,232,86816,2,0,B|328:228|284:244,1,90,8|0
176,324,87213,5,4
176,324,87412,2,0,B|256:260|228:160,1,180
176,92,88008,1,0
240,28,88207,1,0
64,52,88405,6,0,B|88:96|56:140,1,90,8|0
4,208,88803,1,0
48,284,89001,1,0
48,284,89101,1,0
48,284,89200,1,8
132,256,89399,1,0
184,328,89597,1,0
204,344,89697,1,0
228,352,89796,1,0
256,352,89895,1,0
280,344,89995,2,0,B|324:320|376:336,1,90,4|0
476,256,90392,5,0
416,192,90591,1,0
416,192,90789,1,8
452,112,90988,1,0
248,20,91385,5,0
300,92,91584,1,8
300,92,91783,1,0
232,148,91982,1,0
232,148,92081,1,0
232,148,92180,1,0
260,232,92379,2,0,B|252:280|280:320,1,90,8|0
124,228,92776,2,0,B|132:180|104:140,1,90
40,80,93174,1,8
40,80,93273,1,0
40,80,93372,1,0
40,80,93571,6,0,B|140:104|208:32,1,180,4|8
276,92,94167,2,0,B|364:100,1,90
312,172,94564,2,0,B|328:220|296:264,1,90,0|8
228,312,94962,1,0
144,280,95160,1,4
144,280,95260,1,0
144,280,95359,1,0
184,200,95558,1,8
128,132,95756,5,0
108,104,95856,1,0
100,68,95955,1,0
120,36,96054,1,0
152,16,96154,1,0
188,12,96253,1,0
224,20,96352,1,0
252,40,96452,1,0
272,68,96551,1,0
284,100,96650,1,0
304,128,96750,6,0,B|336:160|388:160,1,90,4|0
496,252,97147,2,0,B|452:240|408:256,1,90,8|0
280,324,97544,2,0,B|328:324|368:344,1,90
284,228,97942,2,0,B|240:240|192:228,1,90,8|0
128,172,98339,5,0
44,200,98538,1,0
112,36,98736,2,0,B|156:56|204:44,1,90,8|0
284,76,99134,1,0
284,76,99233,1,0
284,76,99333,1,0
408,124,99531,2,0,B|444:92|448:40,1,90,8|0
476,176,99929,6,0,B|456:244|496:308,2,135,4|0|0
392,204,100723,2,0,B|328:172|256:184,2,135,0|0|0
332,324,101518,5,4
252,364,101717,1,0
252,364,101816,1,0
252,364,101916,1,0
196,296,102114,1,0
112,324,102313,1,0
112,324,102412,1,0
112,324,102511,1,0
112,324,102611,1,0
112,324,102710,1,0
256,192,103103,12,0,104692
72,136,115823,5,0
160,48,116021,1,0
256,136,116220,1,8
352,48,116419,1,0
440,136,116617,1,2
440,136,116816,1,0
440,136,117015,1,8
488,280,117213,6,0,B|400:320,1,90
304,352,117611,2,0,B|208:352,1,90,0|8
112,320,118008,2,0,B|24:280,1,90,0|2
144,192,118405,5,0
256,192,118604,1,8
368,192,118803,1,0
468,90,119001,6,0,B|432:55|392:42,1,90
468,294,119399,2,0,B|432:329|392:342,1,90,8|0
368,192,119796,5,2
256,192,119995,1,0
144,192,120193,1,8
144,192,120392,2,0,B|40:192,2,90
384,104,120988,2,0,B|432:192|376:304,1,202.49999396503,8|0
256,104,122180,6,0,B|256:8,2,90,0|0|8
440,224,122776,1,0
360,304,122975,1,0
256,344,123174,1,0
152,304,123372,1,8
72,224,123571,1,0
256,128,123770,5,2
256,128,123968,2,0,B|256:272,1,135,2|2
256,192,125359,12,0,128140
208,312,128538,5,0
208,312,128736,2,0,B|240:328|272:296|312:328,1,90,0|0
296,318,129333,1,2
384,192,129730,1,0
384,192,129928,2,0,B|352:176|320:208|280:176,1,90,0|0
295,185,130525,1,2
192,72,130922,5,0
160,144,131121,2,0,B|144:168|144:208|112:240,1,90,0|0
184,272,131717,2,0,B|208:296|240:312|272:312,1,90,2|0
336,296,132313,2,0,B|376:280|400:224,1,90,0|0
396,232,132909,1,2
360,80,133306,5,0
360,80,133505,1,0
184,72,133902,1,0
184,72,134101,1,2
256,240,134498,1,0
256,240,134697,2,0,B|248:288|272:312|256:344,1,90,0|0
260,329,135293,1,2
328,160,135690,6,0,B|392:160,1,45,0|0
192,136,136286,2,0,B|144:136,1,45,0|2
256,280,136882,1,0
256,280,137081,2,0,B|256:184,1,90,0|0
256,190,137677,1,2
192,128,137876,1,0
256,64,138074,1,2
320,128,138273,1,0
384,192,138472,2,0,B|368:256|296:296,1,135,2|0
300,293,139266,1,8
128,232,139664,5,4
128,144,139862,1,0
128,56,140061,1,8
216,56,140260,1,0
264,56,140359,1,0
312,56,140458,1,0
360,56,140558,1,0
408,56,140657,1,0
416,144,140856,5,8
416,144,140955,1,0
416,144,141054,1,0
416,232,141253,1,0
416,232,141352,1,0
416,232,141452,1,0
416,320,141650,1,8
416,320,141750,1,0
416,320,141849,1,0
328,320,142048,6,0,B|120:320,1,180,0|8
148,320,142544,1,0
148,320,142644,1,0
240,320,142842,2,0,B|240:120,1,180,0|8
152,136,143438,5,0
192,56,143637,1,0
280,56,143836,1,0
368,56,144035,1,8
432,120,144233,1,0
432,120,144333,1,0
432,120,144432,1,0
432,120,144531,1,0
432,120,144631,2,0,B|488:120,2,45,0|0|8
368,184,145028,5,0
368,184,145227,1,0
280,184,145425,1,0
232,184,145525,1,0
184,184,145624,1,8
120,120,145823,2,0,B|76:120,6,45,0|0|0|0|0|0|8
296,88,146816,5,0
296,176,147015,1,0
296,264,147213,1,8
296,352,147412,1,0
208,352,147611,1,0
120,352,147809,2,0,B|72:352,4,45,0|0|8|8|0
208,352,148405,5,0
296,352,148604,1,0
384,352,148803,1,8
432,352,148902,1,0
480,352,149001,1,0
480,256,149200,1,0
480,256,149299,1,0
480,256,149399,1,0
400,192,149597,5,8
312,192,149796,1,0
312,192,149995,1,0
224,192,150193,1,0
224,192,150392,1,8
136,192,150591,1,0
136,192,150789,1,8
48,192,150988,1,0
48,192,151087,1,0
48,192,151187,1,8
128,96,151584,5,4
128,96,151783,2,0,B|224:64|320:96,1,180,8|0
392,96,152379,1,8
336,256,152776,1,0
336,256,152975,2,8,B|240:288|144:256,1,180,8|0
72,256,153571,1,8
72,232,153670,1,0
72,208,153770,1,0
339,201,153968,6,0,B|387:185|443:201,2,90,4|8|0
264,112,154564,2,0,B|216:128|160:112,1,90,0|8
152,296,155160,1,0
152,296,155359,2,8,B|216:328|336:288,1,180,8|0
416,296,155955,1,8
408,120,156352,6,0,B|360:104|304:120,1,90
248,64,156750,1,8
232,80,156849,1,0
216,96,156948,1,0
200,112,157048,1,0
184,128,157147,1,4
64,264,157544,5,8
424,264,157942,1,0
424,264,158140,2,0,B|376:288|320:264,1,90,0|8
336,88,158538,2,0,B|288:72|240:88,1,90
224,264,158935,2,0,B|176:280|120:264,2,90,0|8|0
168,96,159531,1,0
168,96,159631,1,0
168,96,159730,1,0
64,264,159929,1,8
392,96,160326,6,0,B|424:184|392:280,1,180,2|10
248,272,160922,2,0,B|192:184|248:80,1,180,2|2
238,100,161518,1,8
128,240,161915,6,0,B|40:240,2,90,0|0|8
184,112,162511,1,0
320,128,162710,1,0
324,136,162809,1,0
328,144,162909,1,0
332,152,163008,1,0
336,160,163107,1,0
340,168,163207,1,0
344,176,163306,1,0
348,184,163405,1,0
352,192,163505,6,0,B|368:232|348:280,1,90
156,192,163902,2,2,B|140:148|164:104,1,90,8|0
44,240,164299,5,0
12,324,164498,1,0
88,372,164697,1,8
88,372,164895,1,0
156,316,165094,1,0
184,312,165193,1,0
212,308,165293,1,0
288,352,165491,2,0,B|332:336|380:344,1,90,8|0
508,368,165889,6,0,B|440:300|472:200,1,180,0|8
496,116,166485,1,0
396,28,166684,5,0
396,28,166783,1,0
396,28,166882,1,0
328,84,167081,2,0,B|348:124|340:176,1,90,8|0
184,300,167478,2,0,B|164:260|172:208,1,90
200,128,167876,1,8
148,56,168074,1,0
224,8,168273,1,0
296,60,168472,2,0,B|332:96|384:104,1,90,0|8
464,112,168869,1,0
492,196,169068,5,0
484,212,169167,1,0
476,228,169266,1,0
420,296,169465,1,8
412,320,169564,1,0
392,336,169664,1,0
368,344,169763,1,0
344,336,169862,6,0,B|296:328|252:336,1,90,4|0
80,296,170260,2,0,B|132:296|172:276,1,90,8|0
240,228,170657,1,0
204,148,170856,1,0
256,76,171054,1,8
84,28,171253,1,0
32,100,171452,2,0,B|84:152|60:228,2,135
164,72,172247,5,0
164,72,172346,1,0
164,72,172445,1,0
296,152,172644,1,8
296,152,172743,1,0
296,152,172843,1,0
380,124,173041,6,0,B|412:64|492:48,2,135,4|0|0
448,180,173836,2,0,B|464:256|428:312,2,135,4|0|0
336,252,174631,5,4
272,312,174829,1,0
196,264,175028,1,0
156,344,175227,1,0
68,328,175425,1,4
96,240,175620,1,0
20,196,175823,1,0
72,124,176021,1,0
32,44,176220,1,4
256,192,176319,12,0,177809
128,256,178207,5,0
88,144,178405,1,0
200,72,178604,1,0
328,72,178803,1,0
456,176,179001,2,0,B|360:176,1,90,8|0
96,208,179399,2,0,B|192:208,1,90
288,296,179796,1,8
384,208,179995,1,0
160,88,180193,6,0,B|256:64|352:96,1,180,0|8
337,91,180690,1,0
337,91,180789,1,0
256,176,180988,1,0
256,208,181087,1,0
256,248,181187,1,0
256,280,181286,1,0
256,312,181385,1,8
392,264,181584,5,2
392,264,181684,1,0
432,144,181882,1,2
432,144,181982,1,8
320,64,182180,1,0
320,64,182379,1,8
208,240,182578,5,0
208,240,182677,1,0
208,240,182776,1,0
104,144,182975,5,8
104,144,183074,1,0
104,144,183174,1,0
216,56,183372,5,0
328,96,183571,1,0
408,200,183770,2,0,B|408:288,1,90,8|0
256,168,184167,2,0,B|256:80,1,90
104,200,184564,2,0,B|104:288,1,90,8|0
256,312,184962,1,0
352,232,185160,1,0
392,112,185359,1,8
392,112,185558,1,0
120,80,185756,5,0
120,112,185856,1,0
120,140,185951,2,0,B|120:208,2,45
96,272,186352,6,0,B|176:320|272:272,1,180
360,176,186948,1,8
272,88,187147,1,0
128,80,187346,5,2
104,104,187445,1,0
80,128,187544,2,0,B|24:176,3,45,0|0|10|0
72,184,187942,5,0
96,208,188041,1,0
128,224,188140,1,2
160,232,188240,1,0
192,240,188339,1,0
224,248,188438,1,0
264,248,188538,1,10
296,240,188637,1,0
328,224,188736,1,0
360,208,188836,1,0
392,192,188935,2,0,B|432:160,4,45,2|0|0|0|8
144,152,189730,5,0
224,264,189929,1,0
144,152,190127,1,8
240,64,190326,1,0
384,128,190525,1,2
384,128,190624,1,0
384,128,190723,1,0
264,208,190922,1,10
264,208,191021,1,0
264,208,191121,5,0
472,304,191319,6,0,B|376:304,1,90,2|0
80,208,191717,2,0,B|168:208,1,90,10|0
376,80,192114,2,0,B|288:48|184:80,1,180,4|8
80,136,192710,2,0,B|160:176|280:152,1,180
424,264,193302,1,0
256,296,193505,1,0
112,256,193703,1,0
112,216,193803,1,0
112,184,193902,1,0
112,152,194001,1,0
112,112,194101,1,8
248,40,194299,5,2
248,40,194399,1,0
384,160,194597,1,2
384,160,194697,1,8
256,280,194895,1,0
104,176,195094,1,8
232,136,195293,5,0
264,160,195392,1,0
296,184,195491,2,0,B|360:232,2,45,0|0|8
444,284,196087,5,2
392,280,196187,1,0
348,272,196286,1,0
308,260,196385,1,0
268,248,196485,1,10
232,232,196584,1,0
192,216,196684,2,0,B|144:192,3,45,0|0|2|0
120,184,197081,5,0
104,152,197180,1,0
104,112,197280,1,10
120,80,197379,1,0
152,64,197478,1,0
184,56,197578,1,0
216,56,197677,1,2
248,56,197776,1,0
280,64,197876,1,0
312,80,197975,1,0
336,104,198074,2,0,B|400:152,3,45,10|0|0|0
352,160,198472,2,0,B|312:208,3,45,2|0|0|0
296,216,198869,5,10
264,232,198968,1,0
232,248,199068,1,0
200,256,199167,1,0
168,264,199266,2,0,B|136:232,3,45,2|0|0|0
120,200,199664,5,10
112,168,199763,1,0
112,136,199862,1,0
120,104,199962,1,0
136,72,200061,1,2
160,48,200160,1,0
192,32,200260,2,0,B|248:32,4,45,0|0|10|0|4
256,192,201050,12,0,205620
