osu file format v10

[General]
AudioFilename: Little Busters! Anime OP.mp3
AudioLeadIn: 1511
PreviewTime: 51105
Countdown: 0
SampleSet: Normal
StackLeniency: 0.7
Mode: 0
LetterboxInBreaks: 1

[Editor]
Bookmarks: 78917
DistanceSpacing: 1.1
BeatDivisor: 4
GridSize: 4

[Metadata]
Title:Little Busters! (TV Size)
TitleUnicode:リトルバスターズ! (TV Size)
Artist:Rita
ArtistUnicode:Rita
Creator:Nitori-n
Version:Kyousuke
Source:Little Busters!
Tags:anime opening visual novel key opening animation ver baseball
BeatmapID:182220
BeatmapSetID:61041

[Difficulty]
HPDrainRate:6
CircleSize:4
OverallDifficulty:5
ApproachRate:7
SliderMultiplier:1.6
SliderTickRate:1

[Events]
//Background and Video events
0,0,"ss (2012-10-10 at 05.04.34).jpg"
Video,0,"Little Busters! Anime OP.flv"
//Break Periods
//Storyboard Layer 0 (Background)
//Storyboard Layer 1 (Fail)
//Storyboard Layer 2 (Pass)
//Storyboard Layer 3 (Foreground)
//Storyboard Sound Samples
//Background Colour Transformations
3,100,163,162,255

[TimingPoints]
262.519477610548,397.351188903567,4,2,0,50,1,0
6602,-100,4,1,1,25,0,0
11370,-100,4,1,1,30,0,0
11469,-100,4,1,1,35,0,0
11569,-100,4,1,1,40,0,0
11658,-100,4,1,1,60,0,0
25664,-100,4,1,1,60,0,0
38380,-100,4,1,1,60,0,0
43943,-100,4,1,1,60,0,0
51101,397.351188903567,3,1,1,70,1,1
56673,397.351188903567,4,1,1,70,1,1
63034,397.351188903567,3,1,1,70,1,1
68592,397.351188903567,4,1,1,70,1,0
74933,-66.6666666666667,4,1,1,70,0,0
81489,-100,4,1,1,70,0,0

[Colours]
Combo1 : 64,0,64
Combo2 : 202,101,0
Combo3 : 5,5,240
Combo4 : 228,22,120
Combo5 : 255,255,106
Combo6 : 216,174,7

[HitObjects]
256,32,266,2,0,B|256:120,1,80,0|2,0:0|0:0,0:0:0
184,304,1454,6,0,B|104:304,1,80,0|2,0:0|0:0,0:0:0
328,304,1851,2,0,B|408:304,1,80,0|2,0:0|0:0,0:0:0
328,88,2447,1,0,0:0:0
184,88,2845,1,2,0:0:0
32,232,3441,6,0,B|32:152,1,80,0|2,0:0|0:0,0:0:0
120,152,3838,2,0,B|120:240,1,80,0|2,0:0|0:0,0:0:0
480,232,4633,2,0,B|480:152,1,80,0|2,0:0|0:0,0:0:0
392,152,5030,2,0,B|392:240,1,80,0|2,0:0|0:0,0:0:0
256,72,5626,1,0,0:0:0
256,312,6024,1,2,0:0:0
88,80,6620,6,0,B|88:160,1,80
88,256,7017,2,0,B|136:224|224:304|272:256,1,160,8|0,0:0|0:0,0:0:0
440,264,7812,2,0,B|440:312,2,40,8|0|0,0:0|0:0|0:0,0:0:0
440,176,8209,1,0,0:0:0
440,88,8408,1,0,0:0:0
360,128,8606,1,8,0:0:0
288,176,8805,1,0,0:0:0
64,112,9202,2,0,B|32:144|96:264|64:296,1,160,0|8,0:0|0:0,0:0:0
216,360,9798,6,0,B|296:360,1,80
368,360,10196,2,0,B|396:320|340:220|368:176,1,160,8|0,0:0|0:0,0:0:0
400,8,10991,2,0,B|448:8,2,40,8|0|0,0:0|0:0|0:0,0:0:0
311,58,11388,1,8,0:0:0
296,72,11487,1,0,0:0:0
281,87,11587,1,0,0:0:0
269,102,11686,1,0,0:0:0
259,117,11785,1,8,0:0:0
200,184,11984,2,0,B|152:208|152:296|200:320,1,160
376,316,12779,6,0,B|408:280|376:244,1,80
316,180,13176,1,0,0:0:0
256,116,13375,2,0,B|224:80|256:44,1,80,8|0,0:0|0:0,0:0:0
332,88,13772,2,0,B|416:88,2,80,0|0|8,0:0|0:0|0:0,0:0:0
416,180,14368,1,0,0:0:0
312,280,14567,6,0,B|276:312|240:280,1,80
280,200,14964,1,8,0:0:0
192,200,15163,1,0,0:0:0
228,120,15361,2,0,B|192:88|156:120,1,80
456,232,15957,6,0,B|456:288|456:288|456:320|424:320|424:320|364:320,1,160
371,320,16553,1,8,0:0:0
284,320,16752,1,0,0:0:0
328,244,16951,1,0,0:0:0
388,180,17149,2,0,B|388:124|388:124|388:92|356:92|356:92|296:92,1,160
303,92,17745,1,0,0:0:0
216,92,17944,1,0,0:0:0
260,168,18143,1,8,0:0:0
188,220,18341,1,0,0:0:0
452,284,18739,5,0,0:0:0
384,340,18938,1,8,0:0:0
384,340,19136,2,0,B|324:340|324:280,1,80
240,272,19534,1,0,0:0:0
240,272,19733,2,0,B|272:308|240:344,1,80,8|0,0:0|0:0,0:0:0
164,300,20130,2,0,B|80:300,2,80,0|0|8,0:0|0:0|0:0,0:0:0
80,208,20726,1,0,0:0:0
184,108,20925,6,0,B|220:76|256:108,1,80
216,188,21322,1,8,0:0:0
304,188,21521,1,0,0:0:0
268,268,21719,2,0,B|304:300|340:268,1,80
428,268,22116,1,8,0:0:0
428,180,22315,1,0,0:0:0
432,92,22514,6,0,B|260:40,1,160,8|0,0:0|0:0,0:0:0
156,16,23110,2,0,B|104:188,1,160,8|0,0:0|0:0,0:0:0
80,292,23706,2,0,B|252:344,1,160,8|0,0:0|0:0,0:0:0
280,264,24302,1,0,0:0:0
280,264,24500,1,8,0:0:0
280,176,24699,2,0,B|176:176,3,80,0|0|0|8,0:0|0:0|0:0|0:0,0:0:0
216,48,25692,5,0,0:0:0
304,48,25891,1,0,0:0:0
392,48,26090,1,8,0:0:0
480,48,26289,2,0,B|448:80|512:168|480:208,1,160
483,202,26885,1,8,0:0:0
420,264,27083,1,0,0:0:0
344,312,27282,5,0,0:0:0
276,256,27481,2,0,B|224:188,1,80,0|8,0:0|0:0,0:0:0
192,112,27878,2,0,B|240:136|296:88|352:112,1,160
349,110,28474,1,8,0:0:0
348,200,28673,1,0,0:0:0
296,272,28871,6,0,B|312:296|312:336|288:352,1,80
294,346,29269,1,8,0:0:0
232,304,29467,1,0,0:0:0
169,346,29666,2,0,B|151:335|151:295|167:271,1,80
166,272,30063,1,8,0:0:0
116,200,30262,1,0,0:0:0
40,236,30461,6,0,B|24:212|24:172|48:156,1,80,0|0,0:0|0:0,0:0:0
48,72,30858,1,8,0:0:0
136,72,31057,2,0,B|120:100|152:124|140:152,1,80
152,236,31454,2,0,B|208:236|232:340|296:340,1,160,8|0,0:0|0:0,0:0:0
416,264,32050,6,0,B|476:204,1,80
420,148,32447,1,0,0:0:0
360,84,32646,2,0,B|432:12,2,80
296,28,33242,1,8,0:0:0
240,96,33441,1,0,0:0:0
240,200,33640,6,0,B|264:224|264:264|224:280,1,80
240,270,34037,1,8,0:0:0
176,328,34236,2,0,B|152:344|112:344|88:320,1,80
100,240,34633,2,0,B|112:225|160:224|176:241,2,80,0|8|0,0:0|0:0|0:0,0:0:0
96,144,35229,6,0,B|96:64,1,80,0|0,0:0|0:0,0:0:0
192,64,35626,2,0,B|192:144,1,80,8|0,0:0|0:0,0:0:0
280,136,36024,1,0,0:0:0
348,80,36222,1,0,0:0:0
416,136,36421,1,8,0:0:0
416,224,36620,2,0,B|422:254|404:291|375:305,1,80,0|8,0:0|0:0,0:0:0
232,287,37017,2,0,B|224:255|242:218|271:204,1,80,0|0,0:0|0:0,0:0:0
390,294,37414,2,0,B|378:320|341:336|307:327,1,80,8|0,0:0|0:0,0:0:0
258,215,37812,2,0,B|268:187|306:171|340:180,1,80,0|0,0:0|0:0,0:0:0
256,344,38408,5,12,0:0:0
64,192,38805,1,12,0:0:0
256,40,39202,1,12,0:0:0
296,120,39401,2,0,B|320:136|320:176|288:200,1,80,0|0,0:0|0:0,0:0:0
224,240,39798,2,0,B|200:256|200:296|224:320,1,80,0|8,0:0|0:0,0:0:0
304,292,40196,1,0,0:0:0
376,240,40394,1,0,0:0:0
440,180,40593,1,8,0:0:0
380,116,40792,1,0,0:0:0
312,60,40991,1,0,0:0:0
224,56,41189,6,0,B|176:40|112:136|64:120,1,160,8|12,0:0|0:0,0:0:0
256,192,41984,1,12,0:0:0
84,264,42381,1,12,0:0:0
216,328,42580,2,0,B|232:352|272:352|296:320,1,80,0|0,0:0|0:0,0:0:0
320,264,42977,2,0,B|336:240|376:240|400:264,1,80,8|0,0:0|0:0,0:0:0
392,328,43375,5,0,0:0:0
464,280,43573,1,8,0:0:0
464,192,43772,1,0,0:0:0
464,104,43971,2,0,B|464:56,8,40
256,64,45163,6,0,B|232:48|176:56|160:72,1,80,8|0,0:0|0:0,0:0:0
104,120,45560,2,0,B|88:144|96:200|112:216,1,80
160,272,45957,2,0,B|240:272|272:212|272:152,1,160,8|0,0:0|0:0,0:0:0
256,64,46553,1,0,0:0:0
176,152,46752,2,0,B|176:228|316:272|376:200,1,240,8|0,0:0|0:0,0:0:0
367,209,47547,1,0,0:0:0
400,108,47745,5,0,0:0:0
400,108,47845,1,0,0:0:0
400,108,47944,2,0,B|392:84|360:60|320:84|312:108,1,80,8|0,0:0|0:0,0:0:0
264,140,48342,1,8,0:0:0
268,228,48540,1,0,0:0:0
324,296,48739,2,0,B|332:312|356:328|388:312|404:296,1,80,8|0,0:0|0:0,0:0:0
456,240,49136,1,8,0:0:0
436,156,49335,1,0,0:0:0
436,156,49434,1,0,0:0:0
436,156,49534,2,0,B|404:156|368:124|340:124,1,80,8|0,0:0|0:0,0:0:0
272,128,49931,1,8,0:0:0
224,200,50130,5,0,0:0:0
232,200,50229,1,0,0:0:0
240,200,50328,1,8,0:0:0
248,200,50428,1,0,0:0:0
256,200,50527,1,0,0:0:0
264,200,50626,1,0,0:0:0
272,200,50726,1,8,0:0:0
280,200,50825,1,0,0:0:0
288,200,50924,1,0,0:0:0
464,128,51111,6,0,B|464:112|464:72|440:72|416:72,1,80,0|0,0:0|0:0,0:0:0
328,72,51508,1,8,0:0:0
232,72,51707,2,0,B|208:48|160:96|136:64,1,80,0|0,0:0|0:0,0:0:0
60,80,52104,1,0,0:0:0
60,80,52303,6,0,B|60:96|60:136|84:136|108:136,1,80,8|0,0:0|0:0,0:0:0
196,136,52700,1,0,0:0:0
292,136,52899,2,0,B|316:160|364:112|388:144,1,80,0|8,0:0|0:0,0:0:0
464,132,53296,1,0,0:0:0
464,132,53495,6,0,B|464:148|464:188|440:188|416:188,1,80,0|0,0:0|0:0,0:0:0
328,204,53892,1,8,0:0:0
232,204,54091,2,0,B|208:228|160:180|136:212,1,80,0|0,0:0|0:0,0:0:0
60,200,54488,1,0,0:0:0
60,200,54687,6,0,B|60:216|60:256|84:256|108:256,1,80,8|0,0:0|0:0,0:0:0
196,264,55084,1,0,0:0:0
292,264,55283,2,0,B|316:288|364:240|388:272,1,80,0|8,0:0|0:0,0:0:0
464,264,55680,1,0,0:0:0
464,168,55879,2,0,B|424:168|384:160|352:128|336:80,1,160,0|8,0:0|0:0,0:0:0
338,87,56475,1,0,0:0:0
244,52,56683,2,0,B|204:52|164:60|132:92|116:140,1,160,4|8,0:0|0:0,0:0:0
68,212,57279,1,0,0:0:0
120,292,57477,1,0,0:0:0
232,200,57676,6,0,B|232:160|248:144|288:144,1,80,0|8,0:0|0:0,0:0:0
312,232,58073,1,0,0:0:0
336,320,58272,2,0,B|376:320|392:304|392:264,1,80,0|0,0:0|0:0,0:0:0
464,228,58669,1,8,0:0:0
388,184,58868,1,0,0:0:0
388,176,58967,1,0,0:0:0
388,168,59067,1,0,0:0:0
385,80,59265,2,0,B|328:76|312:124,1,80,0|8,0:0|0:0,0:0:0
312,200,59663,5,0,0:0:0
288,284,59861,2,0,B|252:316|192:308|168:252|192:216,1,160,0|8,0:0|0:0,0:0:0
248,160,60457,1,0,0:0:0
196,88,60656,2,0,B|196:72|196:72|196:32|164:32|164:32|148:32,1,80
96,104,61053,1,8,0:0:0
0,116,61252,2,0,B|-8:172|8:212|56:220|104:204,1,160
184,200,61848,2,0,B|208:168,2,40,8|0|8,0:0|0:0|0:0,0:0:0
304,200,62245,2,0,B|328:232,2,40,8|0|8,0:0|0:0|0:0,0:0:0
424,200,62643,2,0,B|448:168,2,40,8|0|8,0:0|0:0|0:0,0:0:0
464,256,63044,6,0,B|464:272|464:312|440:312|416:312,1,80,0|0,0:0|0:0,0:0:0
380,312,63342,1,0,0:0:0
328,312,63441,1,8,0:0:0
232,312,63640,2,0,B|208:336|160:288|136:320,1,80,0|0,0:0|0:0,0:0:0
60,304,64037,1,0,0:0:0
60,304,64236,6,0,B|60:288|60:248|84:248|108:248,1,80,8|0,0:0|0:0,0:0:0
196,248,64633,1,0,0:0:0
292,248,64832,2,0,B|316:224|364:272|388:240,1,80,0|8,0:0|0:0,0:0:0
464,252,65229,1,0,0:0:0
464,252,65428,6,0,B|464:236|464:196|440:196|416:196,1,80,0|0,0:0|0:0,0:0:0
328,180,65825,1,8,0:0:0
232,180,66024,2,0,B|208:156|160:204|136:172,1,80,0|0,0:0|0:0,0:0:0
60,184,66421,1,0,0:0:0
60,184,66620,6,0,B|60:168|60:128|84:128|108:128,1,80,8|0,0:0|0:0,0:0:0
196,120,67017,1,0,0:0:0
292,120,67216,2,0,B|316:96|364:144|388:112,1,80,0|8,0:0|0:0,0:0:0
464,120,67613,1,0,0:0:0
464,216,67812,2,0,B|424:216|384:224|352:256|336:304,1,160,0|8,0:0|0:0,0:0:0
338,297,68408,1,0,0:0:0
268,348,68602,2,0,B|228:348|188:340|156:308|140:260,1,160,4|8,0:0|0:0,0:0:0
112,184,69198,1,0,0:0:0
164,112,69396,1,0,0:0:0
288,192,69595,54,0,B|288:232|304:248|344:248,1,80,0|8,0:0|0:0,0:0:0
368,152,69992,1,0,0:0:0
392,64,70191,2,0,B|432:64|448:80|448:120,1,80,0|0,0:0|0:0,0:0:0
368,152,70588,1,8,0:0:0
448,196,70787,1,0,0:0:0
448,204,70886,1,0,0:0:0
448,212,70986,1,0,0:0:0
448,300,71184,2,0,B|392:308|375:256,1,80,0|8,0:0|0:0,0:0:0
368,152,71582,5,0,0:0:0
316,88,71780,2,0,B|272:64|226:65|200:96|192:152,1,160,0|8,0:0|0:0,0:0:0
264,140,72376,2,0,B|256:92|192:36|152:36,1,160
64,40,72972,1,8,0:0:0
120,104,73171,1,0,0:0:0
72,176,73370,1,0,0:0:0
120,248,73568,1,0,0:0:0
72,320,73767,1,8,0:0:0
160,352,73966,2,0,B|176:336|248:368|264:352,3,80,0|0|0|8,0:0|0:0|0:0|0:0,0:0:0
480,352,74959,6,0,B|512:320|448:288|480:248,1,111.999996582031,8|0,0:0|0:0,0:0:0
480,120,75356,1,8,0:0:0
412,20,75555,2,0,B|396:-12|332:-12|316:20,1,111.999996582031,0|8,0:0|0:0,0:0:0
248,116,75952,1,0,0:0:0
316,216,76151,2,0,B|316:256|316:256|316:280|284:280|284:280|220:280,1,111.999996582031,8|0,0:0|0:0,0:0:0
204,280,76449,1,0,0:0:0
156,280,76549,1,8,0:0:0
24,280,76747,2,0,B|24:240|24:240|24:212|60:212|60:212|108:212,1,120.000004577637,0|8,0:0|0:0,0:0:0
188,128,77145,2,0,B|231:92,2,55.9999982910157,0|0|8,0:0|0:0|0:0,0:0:0
268,228,77542,2,0,B|316:188,2,55.9999982910157,0|0|8,0:0|0:0|0:0,0:0:0
312,96,77939,1,0,0:0:0
352,224,78138,6,0,B|360:344|204:332,2,180.000006866455,8|0|0,0:0|0:0|0:0,0:0:0
256,112,78923,6,0,B|136:100|144:220,2,180.000006866455,8|0|0,0:0|0:0|0:0,0:0:0
344,272,79727,6,0,B|328:332|288:348|224:348|184:336|168:272,1,240.000009155274,8|0,0:0|0:0,0:0:0
256,192,80323,1,0,0:0:0
168,112,80512,2,0,B|184:48|224:36|288:36|328:52|344:112,1,240.000009155274,8|0,0:0|0:0,0:0:0
340,228,81118,1,8,0:0:0
340,348,81317,1,8,0:0:0
404,288,81515,5,0,0:0:0
404,200,81714,2,0,B|420:184|428:160|412:128|388:120,1,80,8|0,0:0|0:0,0:0:0
402,128,82111,1,0,0:0:0
316,124,82310,1,8,0:0:0
228,120,82509,2,0,B|212:104|188:96|156:112|148:136,1,80,8|0,0:0|0:0,0:0:0
156,122,82906,1,8,0:0:0
152,224,83105,6,0,B|136:240|120:264|136:280|152:296,1,80,8|0,0:0|0:0,0:0:0
240,256,83502,1,0,0:0:0
328,288,83701,2,0,B|344:272|360:248|344:232|328:216,1,80,8|8,0:0|0:0,0:0:0
240,256,84098,1,0,0:0:0
248,24,84496,5,0,0:0:0
312,88,84694,1,8,0:0:0
384,24,84893,1,8,0:0:0
456,88,85092,1,0,0:0:0
384,144,85290,1,0,0:0:0
456,208,85489,1,8,0:0:0
384,272,85688,1,8,0:0:0
296,296,85886,2,0,B|200:296,3,80
160,192,86681,5,0,0:0:0
352,192,87078,1,0,0:0:0
256,40,87476,1,4,0:0:0
