osu file format v9

[General]
AudioFilename: rita - koi no process.mp3
AudioLeadIn: 1500
PreviewTime: 58539
Countdown: 0
SampleSet: Soft
StackLeniency: 0.7
Mode: 0
LetterboxInBreaks: 0

[Editor]
DistanceSpacing: 0.8
BeatDivisor: 4
GridSize: 4

[Metadata]
Title:Koi no Process
Artist:Rita
Creator:Miya
Version:S.S
Source:Hotch Kiss
Tags:opening -Sekai- Sekai Star Stream Sorda S_o_r_d_a Giga

[Difficulty]
HPDrainRate:7
CircleSize:4
OverallDifficulty:7
ApproachRate:8
SliderMultiplier:2.3
SliderTickRate:2

[Events]
//Background and Video events
Video,0,"video.avi"
0,0,"_s+bg.jpg"
//Break Periods
//Storyboard Layer 0 (Background)
//Storyboard Layer 1 (Fail)
//Storyboard Layer 2 (Pass)
//Storyboard Layer 3 (Foreground)
//Storyboard Sound Samples
//Background Colour Transformations
3,100,163,162,255

[TimingPoints]
896,379.746835443038,4,2,1,60,1,0
19503,-125,4,2,1,60,0,0
43427,-100,4,2,1,70,0,0
43522,-100,4,2,1,60,0,0
43997,-100,4,2,1,70,0,0
44092,-100,4,2,1,60,0,0
58617,-100,4,2,1,70,0,1
58617,-100,4,2,1,75,0,1
58712,-100,4,2,1,70,0,1
70009,-100,4,2,1,60,0,0
70769,-100,4,2,1,75,0,1
70864,-100,4,2,1,70,0,1
82921,-100,4,2,1,60,0,0
101718,-100,4,2,1,10,0,0

[HitObjects]
336,276,896,2,0,B|392:260|412:196,2,115,2|0|2
248,252,1465,2,0,B|176:148|48:160,1,230,2|2
4,240,2035,1,0
96,240,2225,6,0,B|192:240|196:384|96:384,1,230,2|2
40,312,2794,1,0
132,312,2984,2,0,B|360:312,1,230,2|2
248,196,3554,1,0
132,312,3744,6,0,B|84:264|108:176|108:176|24:212,1,230,2|2
176,232,4313,1,0
260,272,4503,2,0,B|260:372|404:368|404:272,1,230,2|2
332,212,5073,1,0
300,124,5263,6,0,B|348:40|474:109|424:195,1,230,2|2
332,212,5832,1,0
424,196,6022,2,0,B|507:244|438:370|352:320,1,230,2|2
352,321,6592,1,8
80,72,6971,6,0,B|116:124|96:184,1,115,4|0
40,256,7351,2,0,B|172:256,1,115,8|0
264,172,7731,1,0
352,204,7921,1,0
276,256,8111,1,8
264,172,8301,6,0,B|312:88|412:132|412:132|412:64,1,230
324,40,8870,1,8
236,72,9060,1,0
180,144,9250,2,0,B|140:96|72:100,2,115,0|0|8
44,28,9820,6,0,B|-44:112|-12:240,1,230
80,228,10389,2,0,B|176:148,1,115,8|0
248,204,10769,2,0,B|152:284,2,115,0|0|8
368,132,11339,6,0,B|464:131|467:275|368:274,1,230
276,192,11908,2,0,B|304:136|368:132,1,115,8|0
368,276,12288,2,0,B|340:332|276:336,1,115,0|8
192,296,12668,1,8
192,296,12763,1,0
192,296,12858,1,0
48,180,13047,6,0,B|48:308,1,115,4|0
192,296,13427,2,0,B|192:181,1,115,8|0
120,56,13807,1,0
48,180,13997,1,0
192,181,14187,1,8
308,108,14377,6,0,B|404:107|407:251|308:250,1,230
192,181,14946,1,8
284,180,15136,1,0
192,181,15326,1,0
124,120,15516,1,0
192,181,15706,1,8
124,240,15896,6,0,B|27:239|24:383|123:382,1,230
244,312,16465,1,8
152,313,16655,1,0
244,312,16845,1,0
312,372,17035,1,0
244,312,17225,1,8
312,252,17414,1,4
256,192,17509,12,4,19123
112,72,19503,5,2
48,204,19883,2,0,B|76:244|128:240,2,92,2|2|0
112,168,20452,2,0,B|188:112|284:112,1,184,2|0
352,140,21022,1,2
296,188,21212,1,0
360,144,21402,1,2
335,213,21592,1,0
368,144,21782,1,2
380,216,21971,1,0
376,144,22161,6,0,B|476:172|496:276,1,184,2|2
440,320,22731,1,0
368,312,22921,2,0,B|272:268,1,92,2|2
228,324,23301,2,0,B|311:362,1,92,0|2
368,312,23680,1,0
440,320,23870,1,2
496,272,24060,1,2
456,208,24250,1,0
492,144,24440,6,0,B|432:140|396:80|396:80|340:124,2,184,2|2|2
264,256,25579,1,2
336,240,25769,1,0
404,264,25959,2,0,B|360:348|252:348,1,184,2|0
184,324,26528,2,0,B|228:240|336:240,1,184,2|0
404,264,27098,1,2
468,228,27288,1,0
464,156,27478,2,0,B|416:68|308:88,1,184,2|2
48,156,28237,6,0,B|96:68|204:88,1,184,2|2
256,188,28807,1,0
316,280,28997,2,0,B|316:352|196:356|196:280,2,184,2|2|6
256,68,30136,1,2
256,68,30326,1,4
256,316,30706,1,6
256,316,30895,2,0,B|256:208,2,92,0|0|4
56,160,31655,5,2
184,232,32035,2,0,B|252:164|360:164,1,184,2|0
340,236,32604,2,0,B|244:200|236:96,1,184,2|0
296,52,33174,1,2
368,52,33364,1,0
428,96,33554,2,0,B|500:96|504:216|428:216,2,184,2|2|2
296,156,34693,5,0
184,248,35073,2,0,B|204:296|256:304,1,92,2|0
324,284,35452,2,0,B|304:236|252:228,1,92,2|0
184,248,35832,1,2
140,308,36022,1,0
68,304,36212,1,2
36,240,36402,1,2
36,240,36782,5,0
80,180,36971,1,2
152,184,37161,1,0
184,248,37351,2,0,B|228:336|336:340,1,184,6|0
424,276,37921,1,0
432,164,38111,2,0,B|388:76|280:72,1,184,2|0
196,140,38680,1,0
112,68,38870,6,0,B|48:136|52:236,1,184,2|0
128,316,39440,1,0
236,288,39630,2,0,B|300:220|296:120,2,184,2|2|2
64,52,40769,5,0
448,52,41149,1,2
256,256,41528,1,0
196,84,41908,2,0,B|196:7|316:11|316:83,1,184,6|0
316,300,42478,2,0,B|316:372|196:376|196:300,1,184,6|0
256,128,43047,5,2
256,256,43237,1,0
256,192,43427,6,0,B|24:192,1,230,4|0
256,192,43997,2,0,B|492:192,1,230,4|0
184,304,44756,6,0,B|184:404|328:400|328:304,1,230,4|0
452,192,45326,1,2
380,76,45516,1,0
256,136,45706,1,0
60,192,45895,1,2
132,76,46085,1,2
256,136,46275,1,0
328,304,46465,6,0,B|328:400|184:404|184:304,2,230,4|0|4
256,136,47414,1,0
256,136,47794,6,0,B|256:376,1,230,4|0
184,328,48364,1,4
328,288,48554,1,0
184,240,48744,1,4
328,200,48933,1,0
184,152,49123,1,4
184,152,49218,1,0
184,152,49313,1,8
184,152,49408,1,8
184,152,49503,6,0,B|120:168|100:224,1,115,4|0
140,308,49883,1,2
8,268,50073,2,0,B|-28:176|-8:104|48:56,1,230,2|2
136,72,50642,1,0
184,152,50832,6,0,B|216:272|360:272,1,230,6|0
294,134,51402,2,0,B|236:120|184:152,1,115,2|0
140,236,51782,2,0,B|199:251|251:219,1,115,0|2
56,188,52161,2,0,B|41:247|73:299,1,115,2|0
140,236,52541,6,0,B|184:124|312:92,1,230,4|0
140,236,53111,2,0,B|234:161|360:197,2,230,4|0|4
440,68,54250,5,2
440,68,54440,1,2
72,68,54820,1,6
256,380,55199,1,2
256,380,55389,1,2
256,192,55484,12,0,56718
140,88,56908,5,0
140,88,57098,2,0,B|376:88,1,230,2|0
370,296,57668,2,0,B|140:296,1,230,2|2
48,192,58237,1,0
48,192,58427,1,0
48,192,58522,1,0
48,192,58617,6,0,B|92:72|228:68,2,230,4|8|4
24,280,59566,1,0
60,364,59756,1,8
144,324,59946,2,0,B|240:252|364:288,1,230,4|0
308,364,60516,1,8
224,328,60706,2,0,B|192:204|280:112,1,230,4|0
360,156,61275,1,8
448,132,61465,1,0
492,52,61655,6,0,B|384:8|264:40,1,230,4|8
208,112,62225,1,0
124,76,62414,2,0,B|52:176,2,115,4|0|8
200,24,62984,2,0,B|328:16|384:136,1,230,4|0
332,212,63554,1,12
292,128,63744,1,0
384,136,63933,6,0,B|440:256|352:348,2,230,4|8|4
92,48,65073,1,8
48,128,65263,1,0
140,128,65452,2,0,B|256:128,2,115,4|0|8
48,128,66022,6,0,B|64:248|200:284,1,230,4|0
272,228,66592,1,8
360,260,66782,1,0
440,212,66971,2,0,B|516:156|516:156|440:132|432:60,1,230,4|8
79,60,67731,5,4
79,323,68111,1,8
432,323,68490,1,4
432,60,68870,1,8
432,60,69060,2,0,B|384:152|384:152|312:152|268:200,1,230,4|0
352,236,69630,1,12
288,88,69820,5,0
288,88,69914,1,0
288,88,70009,2,0,B|160:88,1,115,4|0
224,296,70389,1,12
224,296,70484,1,0
224,296,70579,1,0
224,296,70674,1,0
224,296,70769,6,0,B|456:296,2,230,4|8|4
160,228,71718,1,0
68,232,71908,1,8
8,160,72098,2,0,B|68:52|200:48,1,230,4|0
272,104,72668,1,8
332,32,72858,2,0,B|427:32|431:175|331:175,1,230,4|0
272,104,73427,1,12
212,176,73617,1,0
152,104,73807,6,0,B|56:104|52:247|152:247,2,230,4|8|4
212,176,74756,1,0
272,104,74946,1,8
348,160,75136,2,0,B|376:280|500:320,1,230,4|0
496,228,75706,2,0,B|496:96,2,115,8|4|0
424,172,76275,1,0
344,220,76465,1,8
268,164,76655,1,0
208,92,76845,6,0,B|112:92|108:235|208:235,2,230,4|8|0
268,164,77794,1,0
324,92,77984,1,8
384,164,78174,2,0,B|476:224|476:224|436:316|344:268|344:268|280:336,1,345,4|12
48,48,79123,2,0,B|48:280,1,230,4|12
48,278,79693,1,0
256,192,79788,12,0,82541
128,136,82921,6,0,B|152:80|212:64,1,115,4|0
56,108,83301,2,0,B|36:176|96:208,1,115,8|0
184,188,83680,1,0
260,240,83870,1,0
344,200,84060,1,8
476,72,84250,6,0,B|476:304,1,230
344,200,84820,1,8
476,302,85009,1,0
344,200,85199,1,0
260,240,85389,1,0
184,188,85579,1,8
96,164,85769,6,0,B|64:224|112:268|112:268|88:332|136:372,1,230
192,300,86339,1,8
280,320,86528,1,0
364,280,86718,2,0,B|408:236|472:240,2,115,0|0|8
280,320,87288,6,0,B|404:320|404:320|412:264|476:236,1,230
330,222,87858,2,0,B|280:256|280:320,1,115,8|0
416,196,88237,2,0,B|466:162|466:98,1,115,0|8
396,40,88617,1,8
396,40,88712,1,0
396,40,88807,1,0
212,72,88997,6,0,B|88:72,1,115,4|0
300,120,89377,2,0,B|424:120,1,115,8|0
212,160,89756,2,0,B|88:160,2,115,0|0|8
300,204,90326,6,0,B|396:204|400:348|300:348,1,230
244,276,90895,1,8
300,204,91085,1,0
244,276,91275,1,0
300,348,91465,1,0
244,276,91655,1,8
184,348,91845,6,0,B|128:272|184:200|184:200|184:128,1,230
256,72,92414,1,8
276,160,92604,1,0
184,130,92794,1,0
328,14,92984,1,0
368,190,93174,1,8
184,130,93364,6,0,B|80:176|80:176|104:232|68:292,1,230,4|0
4,224,93933,1,8
24,132,94123,1,0
24,132,94218,1,0
24,132,94313,2,0,B|112:48,1,115,0|0
192,20,94693,2,0,B|236:68|296:68,1,115
384,44,95073,6,0,B|424:88|424:148,2,115,2|0|0
292,67,95642,2,0,B|256:188|132:216,1,230,2|2
64,152,96212,1,0
136,96,96402,2,0,B|260:124|300:244,1,230,2|2
236,312,96971,1,0
164,256,97161,2,0,B|224:144|352:136,1,230,2|2
348,136,97921,5,2
256,192,98016,12,2,101718
