osu file format v9

[General]
AudioFilename: rita - koi no process.mp3
AudioLeadIn: 0
PreviewTime: 58539
Countdown: 0
SampleSet: Soft
StackLeniency: 0.7
Mode: 0
LetterboxInBreaks: 0

[Editor]
DistanceSpacing: 1
BeatDivisor: 4
GridSize: 4

[Metadata]
Title:Koi no Process
Artist:Rita
Creator:Miya
Version:Normal
Source:Hotch Kiss
Tags:opening -Sekai- Sekai Star Stream Sorda S_o_r_d_a Giga

[Difficulty]
HPDrainRate:3
CircleSize:3
OverallDifficulty:3
ApproachRate:4
SliderMultiplier:1.2
SliderTickRate:2

[Events]
//Background and Video events
0,0,"bg.jpg"
Video,0,"video.avi"
//Break Periods
//Storyboard Layer 0 (Background)
//Storyboard Layer 1 (Fail)
//Storyboard Layer 2 (Pass)
//Storyboard Layer 3 (Foreground)
//Storyboard Sound Samples
//Background Colour Transformations
3,100,163,162,255

[TimingPoints]
896,379.746835443038,4,2,1,60,1,0
19218,-100,4,2,1,50,0,0
43427,-100,4,2,1,60,0,0
57668,-100,4,2,1,50,0,0
58617,-100,4,2,1,70,0,1
82921,-100,4,2,1,60,0,0
95073,-100,4,2,1,50,0,0
98870,-100,4,2,1,45,0,0
99820,-100,4,2,1,40,0,0
100389,-100,4,2,1,30,0,0
101054,-100,4,2,1,15,0,0
101528,-100,4,2,1,5,0,0

[HitObjects]
256,344,6402,2,0,B|256:268,1,60,0|0
136,280,6971,5,4
32,220,7351,1,8
256,108,8111,6,0,B|332:108,1,60,8|0
496,108,8870,1,8
408,332,9630,6,0,B|344:332,1,60,8|0
167,332,10389,1,8
304,136,11149,6,0,B|240:136,1,60,8|0
63,136,11908,1,8
63,136,12288,2,0,B|63:64,2,60,0|0|8
60,256,13047,6,0,B|88:316|152:332,1,120,4|8
256,116,14187,6,0,B|304:60,1,60,8|0
440,176,14946,1,8
224,284,15706,6,0,B|176:340,1,60,8|0
64,196,16465,1,8
256,56,17225,6,0,B|296:104,1,60,8|4
408,240,17984,1,8
288,240,18364,1,0
196,316,18744,1,8
104,240,19123,6,0,B|40:216|16:156,1,120,4|2
132,124,19883,1,0
256,124,20263,2,0,B|316:104|348:44,1,120,2|0
465,48,21022,1,2
404,280,21782,1,2
284,280,22161,6,0,B|200:280|200:280|136:244|136:244|48:244,1,240,0|0
84,128,23301,1,2
184,64,23680,1,0
396,192,24440,5,2
396,312,24820,2,0,B|332:312|332:312|284:352,1,120
60,296,25959,6,0,B|8:264|-12:192|8:120|60:88,1,240,2|0
276,192,27478,5,2
364,112,27858,1,0
468,48,28237,2,0,B|520:108|468:172|468:172|468:288,1,240,0|2
300,104,29756,5,0
196,44,30136,1,8
196,44,30326,1,0
92,104,30706,2,0,B|20:172|16:264,1,180,8|4
120,336,31655,5,8
220,268,32035,1,0
312,192,32414,2,0,B|436:192,1,120,8|0
432,192,33174,1,8
256,356,33933,1,8
148,300,34313,6,0,B|64:192|148:76,1,240
260,120,35452,1,8
372,80,35832,2,0,B|438:90|474:150,1,120,0|8
276,284,36971,1,8
155,284,37351,6,0,B|132:220|59:204,1,120,4|8
136,104,38111,1,0
236,40,38490,1,8
360,40,38870,2,0,B|384:100|456:120,1,120,4|8
400,228,39630,2,0,B|336:244|320:316,1,120,0|8
208,348,40389,5,4
96,300,40769,1,8
56,188,41149,1,0
96,76,41528,1,8
208,36,41908,2,0,B|328:36,1,120,4|8
388,36,42478,1,4
464,264,43237,5,0
464,264,43427,1,4
344,264,43807,2,0,B|252:264|252:264|184:320,1,180,8|8
112,224,44756,2,0,B|49:157|49:157|49:57,1,180,4|8
292,44,46085,1,8
412,44,46465,5,4
352,148,46845,2,0,B|352:332,1,180,8|8
236,364,47794,2,0,B|133:344|93:252,1,180,4|8
112,140,48744,1,0
216,80,49123,1,8
336,80,49503,6,0,B|372:48|432:104|460:80,1,120,4|8
504,192,50263,1,0
420,276,50642,1,8
420,276,50832,2,0,B|368:292|288:240|236:276,1,180,4|8
124,272,51782,2,0,B|60:284|28:340,2,120,0|8|4
200,180,52921,6,0,B|200:52,1,120,8|0
320,60,53680,2,0,B|320:184,1,120,8|0
412,260,54440,1,8
320,336,54820,1,0
200,336,55199,1,8
108,260,55579,6,0,B|16:220|4:112,1,180,4|4
100,48,56528,2,0,B|168:48,1,60,0|8
256,120,57098,1,0
364,172,57478,2,0,B|432:172,1,60,0|8
476,280,58047,2,0,B|408:280,1,60,0|8
312,344,58617,6,0,B|256:316|196:344,1,120,4|8
120,252,59377,2,0,B|56:224|36:168,1,120,0|8
36,112,59946,1,0
132,40,60326,2,0,B|200:40,1,60,0|8
256,140,60896,2,0,B|312:172|372:140,1,120,0|8
456,56,61655,5,0
504,168,62035,2,0,B|504:292,1,120,8|0
404,352,62794,2,0,B|404:228,1,120,8|0
304,164,63554,1,8
268,280,63933,2,0,B|196:236|196:236|128:312|48:276,1,240,0|4
96,168,65073,5,8
56,56,65452,2,0,B|126:23|194:99|194:99|266:55,1,240
376,104,66592,2,0,B|436:132|492:108,1,120,8|0
492,228,67351,2,0,B|436:204|376:232,1,120,8|4
324,340,68111,5,8
204,340,68490,1,0
119,255,68870,2,0,B|63:203,1,60,8|4
120,100,69440,2,0,B|111:89|163:141,1,60,0|8
256,212,70009,1,0
352,136,70389,2,0,B|484:136,1,120,8|4
500,252,71149,6,0,B|500:316|500:316|456:364,1,120,8|0
348,320,71908,2,0,B|284:320,1,60,8|0
188,256,72478,2,0,B|112:256,1,60,0|8
108,136,73047,2,0,B|44:136|44:136|2:98,2,120,0|8|0
228,136,74187,6,0,B|292:136|292:136|333:173,1,120,8|0
436,232,74946,2,0,B|408:292|340:292,1,120,8|0
220,288,75706,2,0,B|140:288|48:232|32:156,1,240,8|8
84,52,76845,5,4
84,52,77225,1,8
204,52,77604,2,0,B|336:80|384:208,1,240
440,304,78744,2,0,B|384:340|328:304,1,120,8|0
207,303,79503,1,8
256,192,79883,12,4,82921
256,328,83680,6,0,B|256:196,1,120,0|8
256,148,84250,1,0
104,48,84820,5,8
20,136,85199,2,0,B|-12:196|24:256,1,120,0|8
64,296,85769,1,0
208,192,86339,6,0,B|340:192,1,120,8|0
448,192,87098,2,0,B|508:192,1,60,8|0
364,300,87858,5,8
256,252,88237,1,0
148,300,88617,1,8
80,200,88997,6,0,B|20:168|8:96,1,120,4|8
128,88,89756,1,0
244,88,90136,2,0,B|292:128,1,60,8|0
456,196,90895,6,0,B|456:260|456:260|424:308,1,120,8|0
304,306,91655,2,0,B|224:306,1,60,8|0
76,244,92414,6,0,B|44:192|44:192|76:140,1,120,8|0
168,64,93174,2,0,B|240:64,1,60,8|4
396,128,93933,5,8
396,248,94313,1,0
292,192,94693,1,8
172,192,95073,6,0,B|72:172|32:84,1,180,4|2
152,64,96022,2,0,B|280:64,1,120,0|2
392,64,96782,2,0,B|452:64,2,60,0|0|2
336,172,97541,1,0
256,192,97921,12,0,101718
