osu file format v9

[General]
AudioFilename: rita - koi no process.mp3
AudioLeadIn: 0
PreviewTime: 58539
Countdown: 0
SampleSet: Soft
StackLeniency: 0.7
Mode: 0
LetterboxInBreaks: 0

[Editor]
DistanceSpacing: 0.8
BeatDivisor: 4
GridSize: 4

[Metadata]
Title:Koi no Process
Artist:Rita
Creator:Miya
Version:Easy
Source:Hotch Kiss
Tags:opening -Sekai- Sekai Star Stream Sorda S_o_r_d_a Giga

[Difficulty]
HPDrainRate:2
CircleSize:3
OverallDifficulty:3
ApproachRate:3
SliderMultiplier:1
SliderTickRate:2

[Events]
//Background and Video events
Video,0,"video.avi"
0,0,"_s+bg.jpg"
//Break Periods
//Storyboard Layer 0 (Background)
//Storyboard Layer 1 (Fail)
//Storyboard Layer 2 (Pass)
//Storyboard Layer 3 (Foreground)
//Storyboard Sound Samples
//Background Colour Transformations
3,100,163,162,255

[TimingPoints]
896,379.746835443038,4,2,1,60,1,0
58617,-100,4,2,1,70,0,1
64693,-100,4,2,1,75,0,1
64788,-100,4,2,1,70,0,1
70009,-100,4,2,1,60,0,0
70769,-100,4,2,1,70,0,1
82921,-100,4,2,1,60,0,0
101718,-100,4,2,1,10,0,0

[HitObjects]
100,104,6971,2,0,B|196:44|288:104,2,200,4|8|0
4,232,9250,1,8
156,280,10009,6,0,B|252:220|344:280,2,200,0|8|0
7,207,12288,1,8
60,148,12668,1,0
100,80,13047,6,0,B|216:80,1,100,4|0
260,132,13807,2,0,B|200:188|224:268,2,150,8|0|0
336,152,15326,5,8
400,100,15706,2,0,B|460:100,1,50
400,208,16465,2,0,B|384:268|332:276,2,100,0|8|0
256,192,17414,12,4,19123
164,124,19883,6,0,B|172:236|280:272,1,200,0|8
396,164,21402,2,0,B|448:168|484:208,1,100
460,284,22161,6,0,B|460:372|340:372|340:284,2,200,8|0|8
416,132,24440,1,0
356,184,24820,1,0
276,176,25199,6,0,B|199:220|139:116|215:72,1,200,8|0
364,136,26718,2,0,B|440:91|500:195|424:239,1,200,8|0
356,280,27858,1,0
300,340,28237,6,0,B|211:339|211:219|299:219,2,200,8|8|4
400,216,30516,1,4
444,148,30895,1,0
400,80,31275,6,0,B|312:136|208:108,1,200,4|8
88,212,32794,1,0
220,300,33554,2,0,B|320:300,2,100,8|0|0
88,212,35073,5,8
184,84,35832,2,0,B|216:168|284:112|340:196,2,200,8|8|4
100,220,38111,6,0,B|56:296|159:356|205:279,1,200,8|0
336,192,39630,2,0,B|381:115|485:175|441:251,1,200,8|0
292,304,41149,5,8
232,356,41528,1,0
156,336,41908,2,0,B|104:268|24:276,2,150,8|4|0
232,356,43427,6,0,B|384:356,1,150,8|12
440,300,44377,1,8
388,240,44756,2,0,B|380:156|456:116,1,150,12|0
412,48,45706,1,8
340,80,46085,1,0
292,144,46465,6,0,B|304:268|196:188|208:304,1,200,8|12
92,332,47794,2,0,B|40:276|40:196,1,150,12|0
80,124,48744,1,12
144,76,49123,1,8
224,80,49503,5,12
368,148,50263,2,0,B|312:208|224:196,2,150,8|12|0
408,80,51782,2,0,B|504:116,1,100,8|0
468,188,52541,6,0,B|388:228|388:320,2,150,12|8|0
508,120,54060,1,8
360,60,54820,1,8
288,96,55199,1,0
248,168,55579,6,0,B|199:251|123:207,2,150,12|12|0
288,96,57098,2,0,B|440:96,1,150,8|8
492,156,58047,1,8
400,232,58617,6,0,B|477:277|417:381|341:337,1,200,12|8
220,344,59946,2,0,B|143:299|203:195|279:239,1,200,8|8
392,196,61275,1,8
452,140,61655,6,0,B|452:52|332:52|331:141,2,200,8|8|8
364,272,63933,1,8
292,236,64313,1,8
220,268,64693,6,0,B|188:340|188:340|136:308|71:318,1,200,4|8
24,208,66022,2,0,B|84:184|144:240|144:240|172:176|252:188,1,250,8|8
312,220,67351,1,8
368,280,67731,6,0,B|455:280|455:160|366:159,2,200,8|8|8
212,320,70009,1,8
132,320,70389,1,8
64,280,70769,6,0,B|4:188|64:92,1,200,4|8
172,40,72098,2,0,B|264:100|359:39,1,200,8|8
464,100,73427,1,8
440,176,73807,6,0,B|364:212|368:288|368:288|432:328,2,200,8|8|8
488,24,76085,2,0,B|424:104|308:92,1,200,8|4
164,164,77604,6,0,B|236:200|248:288,2,150,8|8|8
116,228,79123,2,0,B|168:248|172:312,1,100,8|8
256,192,79693,12,4,82921
256,248,83680,6,0,B|260:328|324:374,2,150,8|0|0
312,192,85199,6,0,B|392:187|438:123,2,150,8|0|0
256,136,86718,6,0,B|251:55|187:9,2,150,8|0|0
200,192,88237,6,0,B|144:196|108:232,2,100,8|0|4
324,292,89756,6,0,B|404:272|424:192,2,150,8|0|0
256,248,91275,6,0,B|278:168|219:111,2,150,8|0|0
176,232,92794,6,0,B|118:172|39:195,2,150,8|4|0
236,288,94313,1,8
316,288,94693,1,0
376,232,95073,6,0,B|448:196|448:108,1,150,6|2
396,48,96022,1,2
324,80,96402,2,0,B|172:80,1,150,2|0
144,104,97161,2,0,B|40:104,1,100,2|2
256,192,98111,12,2,101718
