osu file format v14

[General]
AudioFilename: Juvenile.mp3
AudioLeadIn: 0
PreviewTime: 62727
Countdown: 1
SampleSet: Soft
StackLeniency: 0.4
Mode: 0
LetterboxInBreaks: 1
WidescreenStoryboard: 1

[Editor]
Bookmarks: 16363,30909,45227,63636,96363,110909,125454,143522,172727,176363,190909,216363
DistanceSpacing: 0.6
BeatDivisor: 4
GridSize: 4
TimelineZoom: 1.7

[Metadata]
Title:Juvenile
TitleUnicode:ジュヴナイル
Artist:Rita
ArtistUnicode:Rita
Creator:Philosophy2
Version:World
Source:蒼天のセレナリア 〜What a beautiful world〜
Tags:Liar-soft Blueberry&Yogurt
BeatmapID:635043
BeatmapSetID:280683

[Difficulty]
HPDrainRate:6
CircleSize:4.5
OverallDifficulty:6.5
ApproachRate:8
SliderMultiplier:1.6
SliderTickRate:2

[Events]
//Background and Video events
0,0,"BG.jpg",0,0
//Break Periods
2,96568,108181
//Storyboard Layer 0 (Background)
//Storyboard Layer 1 (Fail)
//Storyboard Layer 2 (Pass)
//Storyboard Layer 3 (Foreground)
//Storyboard Sound Samples

[TimingPoints]
5,454.545454545455,4,2,0,50,1,0
1141,-133.333333333333,4,2,1,30,0,0
11595,-133.333333333333,4,2,10,30,0,0
12050,-133.333333333333,4,2,1,30,0,0
14664,-133.333333333333,4,2,12,30,0,0
15005,-133.333333333333,4,2,1,30,0,0
15118,-133.333333333333,4,2,12,30,0,0
15459,-133.333333333333,4,2,1,30,0,0
15573,-133.333333333333,4,2,12,30,0,0
15914,-133.333333333333,4,2,1,30,0,0
16027,-133.333333333333,4,2,12,30,0,0
16368,-100,4,2,2,50,0,0
29095,-100,4,2,3,40,0,0
30005,-100,4,1,1,25,0,0
30914,-100,4,2,4,40,0,0
61823,-100,4,2,5,50,0,0
62050,-100,4,2,5,30,0,0
63527,-100,4,2,9,50,0,0
63641,-100,4,2,9,50,0,0
66595,-100,4,2,19,50,0,0
66823,-100,4,2,9,50,0,0
70232,-100,4,2,19,50,0,0
70459,-100,4,2,9,50,0,0
73868,-100,4,2,19,50,0,0
74095,-100,4,2,9,50,0,0
77505,-100,4,2,19,50,0,0
77732,-100,4,2,9,50,0,0
81141,-100,4,2,19,50,0,0
81368,-100,4,2,9,50,0,0
89095,-100,4,2,6,50,0,0
109095,-100,4,2,7,40,0,0
110914,-100,4,2,4,40,0,0
118186,-100,4,2,4,50,0,0
120800,-100,4,2,11,50,0,0
121141,-100,4,2,4,50,0,0
141368,-100,4,2,4,40,0,0
141823,-100,4,2,5,50,0,0
142277,-100,4,2,5,30,0,0
143186,-133.333333333333,4,2,4,40,0,0
143641,-100,4,2,9,50,0,0
146595,-100,4,2,19,50,0,0
146823,-100,4,2,9,50,0,0
150232,-100,4,2,19,50,0,0
150459,-100,4,2,9,50,0,0
153868,-100,4,2,19,50,0,0
154095,-100,4,2,9,50,0,0
157505,-100,4,2,19,50,0,0
157732,-100,4,2,9,50,0,0
161141,-100,4,2,19,50,0,0
161368,-100,4,2,9,50,0,0
169095,-133.333333333333,4,2,3,40,0,0
176255,-133.333333333333,4,2,9,50,0,0
176368,-66.6666666666667,4,2,8,50,0,0
176823,-100,4,2,8,50,0,0
190005,-100,4,2,6,35,0,0
190459,-100,4,1,1,25,0,0
190914,-100,4,2,9,50,0,0
193868,-100,4,2,19,50,0,0
194095,-100,4,2,9,50,0,0
197505,-100,4,2,19,50,0,0
197732,-100,4,2,9,50,0,0
201141,-100,4,2,19,50,0,0
201368,-100,4,2,9,50,0,0
204777,-100,4,2,19,50,0,0
205005,-100,4,2,9,50,0,0
208414,-100,4,2,19,50,0,0
208641,-100,4,2,9,50,0,0
216368,-133.333333333333,4,2,4,40,0,0
216595,-133.333333333333,4,2,1,25,0,0
218186,-133.333333333333,4,2,1,40,0,0

[Colours]
Combo1 : 255,128,255
Combo2 : 255,87,100
Combo3 : 255,96,55
Combo4 : 171,255,96
Combo5 : 17,254,176
Combo6 : 0,128,255
Combo7 : 0,191,255
Combo8 : 170,85,255

[HitObjects]
186,121,1141,6,0,L|193:56,2,60.0000022888184
177,192,1823,1,4,0:0:0:0:
224,327,2277,2,0,P|247:334|300:329,1,60.0000022888184
354,324,2732,2,0,L|360:253,1,60.0000022888184,8|0,0:0|0:0,0:0:0:0:
409,212,3186,1,0,0:0:0:0:
412,216,3414,1,0,0:0:0:0:
415,220,3641,2,0,L|421:149,1,60.0000022888184,8|0,0:0|0:0,0:0:0:0:
317,58,4095,2,0,L|311:117,2,60.0000022888184,0|0|8,0:0|0:0|0:0,0:0:0:0:
256,20,4777,5,0,0:0:0:0:
193,56,5005,1,0,0:0:0:0:
174,125,5232,1,0,0:0:0:0:
195,193,5459,1,8,0:0:0:0:
378,252,5914,2,0,P|346:262|318:258,1,60.0000022888184
252,239,6368,2,0,L|248:303,1,60.0000022888184,8|0,0:0|0:0,0:0:0:0:
202,354,6823,1,0,0:0:0:0:
150,303,7050,1,0,0:0:0:0:
103,359,7277,2,0,P|60:332|71:257,1,120.000004577637,8|0,0:0|0:0,0:0:0:0:
107,212,7959,2,0,L|181:219,1,60.0000022888184,0|8,0:0|0:0,0:0:0:0:
228,256,8414,5,0,0:0:0:0:
296,207,8641,1,0,0:0:0:0:
303,123,8868,1,0,0:0:0:0:
275,43,9095,2,0,B|313:41|313:41|349:66|349:66|410:63,1,120.000004577637,8|0,0:0|0:0,0:0:0:0:
450,98,9777,2,0,P|455:134|431:173,1,60.0000022888184,0|8,0:0|0:0,0:0:0:0:
384,191,10232,1,0,0:0:0:0:
318,161,10459,2,0,L|249:159,1,60.0000022888184
198,199,10914,6,0,P|161:165|181:82,1,120.000004577637,8|0,0:0|0:0,0:0:0:0:
215,48,11595,2,0,P|163:81|88:62,1,120.000004577637
107,74,12277,1,0,0:0:0:0:
62,159,12732,1,0,0:0:0:0:
95,248,13641,1,0,0:0:0:0:
128,337,14550,6,0,L|242:328,1,90.0000034332277
226,338,15005,2,0,P|249:306|236:251,1,90.0000034332277
233,249,15459,2,0,L|119:240,1,90.0000034332277
135,250,15914,2,0,P|112:218|125:163,1,90.0000034332277
100,169,16368,6,0,L|187:164,1,80,4|0,0:0|0:0,0:0:0:0:
339,174,16823,2,0,P|354:219|326:278,1,80,2|0,0:0|0:0,0:0:0:0:
286,324,17277,2,0,L|224:328,2,40,8|0|0,0:0|0:0|0:0,0:0:0:0:
382,319,17732,1,2,0:0:0:0:
471,353,17959,1,0,0:0:0:0:
473,337,18073,1,0,0:0:0:0:
476,321,18186,2,0,P|459:284|383:269,1,120,8|0,0:0|0:0,0:0:0:0:
385,283,18641,2,0,L|396:190,1,80,2|0,0:0|0:0,0:0:0:0:
444,122,19095,2,0,L|506:118,2,40,8|0|0,0:0|0:0|0:0,0:0:0:0:
350,45,19550,2,0,P|325:75|332:126,1,80,2|0,0:0|0:0,0:0:0:0:
325,114,19891,1,0,0:0:0:0:
325,114,20005,1,8,0:0:0:0:
63,218,20459,6,0,P|93:243|144:236,1,80,2|0,0:0|0:0,0:0:0:0:
259,148,20914,2,0,P|220:141|179:172,1,80,8|0,0:0|0:0,0:0:0:0:
228,248,21368,2,0,L|234:353,1,80,2|0,0:0|0:0,0:0:0:0:
234,343,21709,1,0,0:0:0:0:
235,358,21823,2,0,P|267:342|316:342,1,80,8|0,0:0|0:0,0:0:0:0:
326,345,22164,1,0,0:0:0:0:
340,351,22277,1,2,0:0:0:0:
435,335,22505,1,0,0:0:0:0:
373,261,22732,2,0,L|369:218,2,40,8|0|0,0:0|0:0|0:0,0:0:0:0:
435,335,23186,5,2,0:0:0:0:
477,222,23414,1,0,0:0:0:0:
390,138,23641,2,0,L|375:248,1,80,8|0,0:0|0:0,0:0:0:0:
294,278,24095,2,0,L|284:199,1,80,2|0,0:0|0:0,0:0:0:0:
198,137,24550,2,0,L|183:247,1,80,8|0,0:0|0:0,0:0:0:0:
102,277,25004,2,0,L|91:197,1,80,2|0,0:0|0:0,0:0:0:0:
88,181,25345,1,0,0:0:0:0:
86,165,25459,6,0,B|159:124|159:212|269:158,1,160,8|2,0:0|0:0,0:0:0:0:
333,149,26141,2,0,P|339:102|293:68,2,80,0|8|0,0:0|0:0|0:0,0:0:0:0:
291,236,26823,2,0,L|375:244,1,80,2|0,0:0|0:0,0:0:0:0:
386,245,27164,1,0,0:0:0:0:
404,251,27277,5,8,0:0:0:0:
404,251,27505,1,0,0:0:0:0:
442,160,27732,1,2,0:0:0:0:
442,160,27959,1,0,0:0:0:0:
386,62,28186,1,8,0:0:0:0:
386,62,28414,1,0,0:0:0:0:
259,41,28641,1,2,0:0:0:0:
259,41,28868,1,0,0:0:0:0:
68,97,29095,6,0,P|117:128|174:114,1,120,8|8,0:0|0:0,0:0:0:0:
187,104,29550,2,0,L|194:192,1,80,8|8,0:0|0:0,0:0:0:0:
201,279,30005,1,0,0:0:0:0:
216,281,30118,1,0,0:0:0:0:
231,283,30232,1,0,0:0:0:0:
246,285,30345,1,0,0:0:0:0:
261,287,30459,1,0,0:0:0:0:
403,158,30914,5,8,0:0:0:0:
420,252,31141,2,0,P|458:259|499:235,2,80,0|8|0,0:0|0:0|0:0,0:0:0:0:
325,231,31823,1,8,0:0:0:0:
235,266,32050,2,0,L|232:345,1,80,0|8,0:0|0:0,0:0:0:0:
138,366,32505,1,0,0:0:0:0:
64,304,32732,5,8,0:0:0:0:
235,266,32959,1,0,0:0:0:0:
64,304,33186,1,8,0:0:0:0:
138,366,33414,1,0,0:0:0:0:
138,366,33527,1,8,0:0:0:0:
138,366,33641,2,0,P|153:349|131:274,1,80,8|0,0:0|0:0,0:0:0:0:
70,95,34095,6,0,L|77:181,1,80,8|0,0:0|0:0,0:0:0:0:
78,190,34436,1,8,0:0:0:0:
80,204,34550,2,0,P|142:158|218:174,1,160,0|8,0:0|0:0,0:0:0:0:
277,250,35232,1,0,0:0:0:0:
187,343,35459,2,0,L|183:263,1,80,8|0,0:0|0:0,0:0:0:0:
218,56,35914,2,0,L|222:140,1,80,8|0,0:0|0:0,0:0:0:0:
298,193,36368,2,0,P|332:201|389:168,1,80,8|0,0:0|0:0,0:0:0:0:
366,30,36823,2,0,P|342:55|342:121,1,80,8|0,0:0|0:0,0:0:0:0:
473,170,37277,5,8,0:0:0:0:
461,50,37505,1,8,0:0:0:0:
473,170,37732,1,8,0:0:0:0:
393,116,37959,1,0,0:0:0:0:
390,100,38073,1,0,0:0:0:0:
386,84,38186,2,0,P|362:109|362:175,1,80,4|0,0:0|0:0,0:0:0:0:
403,235,38641,2,0,L|505:232,1,80,8|0,0:0|0:0,0:0:0:0:
408,330,39095,5,8,0:0:0:0:
328,381,39323,1,0,0:0:0:0:
243,337,39550,1,8,0:0:0:0:
319,269,39777,1,0,0:0:0:0:
321,277,39891,1,0,0:0:0:0:
323,285,40005,2,0,L|320:183,1,80,8|0,0:0|0:0,0:0:0:0:
299,95,40459,5,8,0:0:0:0:
320,189,40686,2,0,P|355:207|394:207,1,80,0|8,0:0|0:0,0:0:0:0:
468,145,41141,1,0,0:0:0:0:
446,50,41368,2,0,P|410:31|371:31,1,80,8|0,0:0|0:0,0:0:0:0:
228,160,41823,6,0,P|189:173|134:156,1,80,8|0,0:0|0:0,0:0:0:0:
72,112,42277,2,0,P|41:84|28:28,1,80,8|0,0:0|0:0,0:0:0:0:
182,0,42732,2,0,P|195:39|178:93,1,80,8|0,0:0|0:0,0:0:0:0:
137,159,43186,2,0,P|109:189|53:202,1,80,8|0,0:0|0:0,0:0:0:0:
71,186,43527,1,0,0:0:0:0:
69,170,43641,2,0,B|76:232|76:232|61:274|61:274|69:333,1,160,8|8,0:0|0:0,0:0:0:0:
68,326,44323,1,0,0:0:0:0:
147,380,44550,5,8,0:0:0:0:
240,242,44777,1,8,0:0:0:0:
75,230,45005,1,8,0:0:0:0:
232,79,45459,6,0,B|260:104|260:104|255:147,2,80,4|0|8,0:0|0:0|0:0,0:0:0:0:
163,146,46141,2,0,P|122:161|65:141,1,80,0|8,0:0|0:0,0:0:0:0:
36,73,46595,1,0,0:0:0:0:
120,26,46823,2,0,L|203:31,1,80,8|0,0:0|0:0,0:0:0:0:
202,46,47164,1,0,0:0:0:0:
204,61,47277,2,0,L|283:56,1,80,8|0,0:0|0:0,0:0:0:0:
397,149,47732,2,0,L|318:145,1,80,8|0,0:0|0:0,0:0:0:0:
202,237,48186,2,0,L|281:232,1,80,8|0,0:0|0:0,0:0:0:0:
395,325,48641,6,0,P|413:296|402:237,1,80,8|0,0:0|0:0,0:0:0:0:
395,246,48982,1,0,0:0:0:0:
379,240,49095,2,0,B|303:222|320:307|217:265,1,160,8|8,0:0|0:0,0:0:0:0:
161,202,49777,1,0,0:0:0:0:
71,238,50005,2,0,P|53:267|64:326,1,80,8|0,0:0|0:0,0:0:0:0:
179,351,50459,6,0,L|258:347,1,80,8|0,0:0|0:0,0:0:0:0:
240,198,50914,2,0,L|161:202,1,80,8|0,0:0|0:0,0:0:0:0:
71,238,51368,2,0,P|48:213|57:150,1,80,8|0,0:0|0:0,0:0:0:0:
120,71,51823,2,0,P|153:63|203:102,2,80,8|0|8,0:0|0:0|0:0,0:0:0:0:
93,163,52505,2,0,L|96:208,1,40
99,234,52732,6,0,L|197:237,1,80,8|0,0:0|0:0,0:0:0:0:
256,292,53186,2,0,L|335:294,1,80,8|0,0:0|0:0,0:0:0:0:
412,349,53641,2,0,P|431:328|427:264,1,80,8|0,0:0|0:0,0:0:0:0:
256,92,54095,2,0,P|236:112|241:177,1,80,8|0,0:0|0:0,0:0:0:0:
313,214,54550,6,0,B|367:208|367:208|411:236|411:236|464:231,1,160,8|8,0:0|0:0,0:0:0:0:
497,141,55232,1,0,0:0:0:0:
419,84,55459,2,0,P|400:118|402:158,1,80,8|0,0:0|0:0,0:0:0:0:
464,231,55914,5,8,0:0:0:0:
497,141,56141,1,0,0:0:0:0:
402,158,56368,1,8,0:0:0:0:
386,162,56482,1,0,0:0:0:0:
370,164,56595,1,2,0:0:0:0:
354,165,56709,1,0,0:0:0:0:
337,164,56823,1,8,0:0:0:0:
321,162,56936,1,0,0:0:0:0:
305,159,57050,1,2,0:0:0:0:
289,155,57164,1,0,0:0:0:0:
274,149,57277,5,8,0:0:0:0:
252,138,57391,1,0,0:0:0:0:
228,134,57505,1,2,0:0:0:0:
204,134,57618,1,0,0:0:0:0:
181,143,57732,1,8,0:0:0:0:
157,164,57845,1,0,0:0:0:0:
146,194,57959,1,2,0:0:0:0:
154,225,58073,1,0,0:0:0:0:
176,247,58186,5,8,0:0:0:0:
154,225,58300,1,0,0:0:0:0:
122,217,58414,1,2,0:0:0:0:
91,224,58527,1,0,0:0:0:0:
66,244,58641,1,8,0:0:0:0:
59,275,58755,1,0,0:0:0:0:
65,306,58868,1,2,0:0:0:0:
87,329,58982,1,0,0:0:0:0:
116,340,59095,1,8,0:0:0:0:
140,341,59209,1,0,0:0:0:0:
163,337,59323,1,2,0:0:0:0:
186,330,59436,1,0,0:0:0:0:
205,316,59550,2,0,L|209:266,1,40,8|0,0:0|0:0,0:0:0:0:
279,247,59777,2,0,L|275:286,1,40,2|0,0:0|0:0,0:0:0:0:
354,281,60005,5,12,0:0:0:0:
351,249,60118,1,0,0:0:0:0:
338,219,60232,1,2,0:0:0:0:
309,205,60345,1,0,0:0:0:0:
277,199,60459,1,8,0:0:0:0:
245,206,60573,1,0,0:0:0:0:
216,219,60686,1,2,0:0:0:0:
197,245,60800,1,0,0:0:0:0:
169,261,60914,1,8,0:0:0:0:
137,261,61027,1,0,0:0:0:0:
106,250,61141,1,2,0:0:0:0:
87,223,61255,1,0,0:0:0:0:
87,191,61368,2,0,L|91:91,1,80,4|2,0:0|0:0,0:0:0:0:
192,46,61823,6,0,P|219:76|213:137,1,80,4|8,0:0|0:0,0:0:0:0:
222,114,62164,1,8,0:0:0:0:
222,114,62277,1,8,0:0:0:0:
333,159,62505,2,0,L|419:157,1,80,0|8,0:0|0:0,0:0:0:0:
413,157,62845,1,8,0:0:0:0:
413,157,62959,1,8,0:0:0:0:
429,275,63186,2,0,P|380:304|309:289,1,120
307,304,63641,6,0,L|300:217,1,80,4|0,0:0|0:0,0:0:0:0:
249,143,64095,2,0,P|206:160|188:215,1,80,8|0,0:0|0:0,0:0:0:0:
194,202,64436,1,0,0:0:0:0:
198,217,64550,2,0,L|101:213,1,80,2|0,0:0|0:0,0:0:0:0:
46,312,65005,2,0,L|126:309,1,80,8|0,0:0|0:0,0:0:0:0:
263,351,65459,6,0,P|303:292|273:199,1,160,2|8,0:0|0:0,0:0:0:0:
189,187,66141,1,0,0:0:0:0:
185,172,66255,1,0,0:0:0:0:
180,156,66368,1,2,0:0:0:0:
217,67,66595,1,8,0:0:0:0:
359,129,66823,2,0,P|321:140|282:137,1,80,8|0,0:0|0:0,0:0:0:0:
217,67,67277,6,0,P|295:52|361:104,1,160,2|8,0:0|0:0,0:0:0:0:
300,174,67959,2,0,L|304:257,1,80,0|2,0:0|0:0,0:0:0:0:
369,324,68414,1,0,0:0:0:0:
421,243,68641,2,0,P|380:233|315:246,1,80,8|0,0:0|0:0,0:0:0:0:
223,317,69095,6,0,L|126:322,1,80,2|0,0:0|0:0,0:0:0:0:
56,150,69550,2,0,L|136:146,1,80,8|0,0:0|0:0,0:0:0:0:
180,232,70005,2,0,L|100:236,1,80,2|8,0:0|0:0,0:0:0:0:
13,65,70459,2,0,L|92:60,1,80,8|0,0:0|0:0,0:0:0:0:
96,76,70800,1,0,0:0:0:0:
99,91,70914,6,0,P|154:46|242:62,1,160,2|8,0:0|0:0,0:0:0:0:
289,138,71595,1,0,0:0:0:0:
229,211,71823,2,0,L|225:267,2,40,2|0|0,0:0|0:0|0:0,0:0:0:0:
141,176,72277,2,0,P|116:203|121:256,1,80,8|0,0:0|0:0,0:0:0:0:
122,258,72618,1,0,0:0:0:0:
130,271,72732,2,0,L|284:275,1,120,2|0,0:0|0:0,0:0:0:0:
282,275,73186,1,0,0:0:0:0:
367,319,73414,2,0,P|392:292|387:239,1,80,2|0,0:0|0:0,0:0:0:0:
362,126,73868,5,8,0:0:0:0:
270,215,74095,1,8,0:0:0:0:
189,162,74323,1,0,0:0:0:0:
184,257,74550,5,4,0:0:0:0:
283,309,74777,1,0,0:0:0:0:
363,230,75005,1,8,0:0:0:0:
312,129,75232,1,0,0:0:0:0:
270,215,75459,6,0,L|266:271,2,40,2|0|0,0:0|0:0|0:0,0:0:0:0:
200,146,75914,2,0,P|185:113|202:57,1,80,8|0,0:0|0:0,0:0:0:0:
203,60,76255,1,0,0:0:0:0:
214,49,76368,2,0,L|131:43,1,80,2|0,0:0|0:0,0:0:0:0:
118,41,76709,1,0,0:0:0:0:
102,39,76823,1,8,0:0:0:0:
48,156,77050,6,0,B|130:198|128:112|221:160,1,160,2|8,0:0|0:0,0:0:0:0:
297,236,77732,1,8,0:0:0:0:
170,223,77959,1,0,0:0:0:0:
222,339,78186,2,0,B|280:344|280:344|326:322|326:322|401:331,1,160,4|8,0:0|0:0,0:0:0:0:
461,372,78868,2,0,P|479:341|470:283,1,80,0|2,0:0|0:0,0:0:0:0:
397,156,79323,1,0,0:0:0:0:
397,156,79436,1,0,0:0:0:0:
397,156,79550,2,0,L|402:235,1,80,8|0,0:0|0:0,0:0:0:0:
376,328,80005,6,0,P|301:345|209:292,1,160,2|8,0:0|0:0,0:0:0:0:
248,141,80686,2,0,P|324:123|396:155,1,160,2|8,0:0|0:0,0:0:0:0:
427,280,81368,1,8,0:0:0:0:
304,244,81595,1,0,0:0:0:0:
289,339,81823,5,4,0:0:0:0:
378,304,82050,1,0,0:0:0:0:
392,209,82277,1,8,0:0:0:0:
316,149,82505,2,0,L|212:155,1,80,0|2,0:0|0:0,0:0:0:0:
204,156,82845,1,2,0:0:0:0:
174,142,82959,1,0,0:0:0:0:
155,114,83073,1,2,0:0:0:0:
152,81,83186,1,10,0:0:0:0:
166,50,83300,1,0,0:0:0:0:
193,31,83414,1,2,0:0:0:0:
226,28,83528,1,0,0:0:0:0:
256,42,83641,6,0,L|256:232,1,160,4|0,0:0|0:0,0:0:0:0:
256,300,84323,1,0,0:0:0:0:
162,330,84550,2,0,P|90:326|58:249,1,160,4|0,0:0|0:0,0:0:0:0:
64,156,85232,1,0,0:0:0:0:
158,134,85459,5,4,0:0:0:0:
180,228,85686,1,2,0:0:0:0:
272,255,85914,1,8,0:0:0:0:
341,188,86141,1,2,0:0:0:0:
317,94,86368,1,0,0:0:0:0:
386,26,86595,1,2,0:0:0:0:
479,51,86823,2,0,P|497:88|481:158,1,80,8|2,0:0|0:0,0:0:0:0:
416,226,87277,6,0,L|370:231,3,40
317,193,87732,6,0,L|312:147,3,40,8|0|0|0,0:0|0:0|0:0|0:0,0:0:0:0:
256,114,88186,6,0,L|210:109,3,40
158,72,88641,6,0,L|163:26,3,40,8|0|0|0,0:0|0:0|0:0|0:0,0:0:0:0:
82,66,89095,6,0,P|66:99|78:160,1,80,2|2,0:0|0:0,0:0:0:0:
100,215,89550,1,8,0:0:0:0:
100,215,89777,2,0,L|205:210,1,80,8|0,0:0|0:0,0:0:0:0:
188,219,90118,1,0,0:0:0:0:
197,226,90232,1,0,0:0:0:0:
206,232,90345,1,0,0:0:0:0:
215,239,90459,2,0,L|320:234,1,80,8|0,0:0|0:0,0:0:0:0:
407,193,90914,6,0,P|422:226|411:287,1,80,2|2,0:0|0:0,0:0:0:0:
375,335,91368,2,0,L|270:330,1,80,8|0,0:0|0:0,0:0:0:0:
256,260,91823,2,0,L|256:216,2,40
214,327,92277,2,0,L|109:322,1,80,8|0,0:0|0:0,0:0:0:0:
129,334,92618,1,0,0:0:0:0:
123,344,92732,2,0,P|102:323|109:258,1,80,2|2,0:0|0:0,0:0:0:0:
115,196,93186,1,8,0:0:0:0:
115,196,93414,2,0,L|256:189,1,120,8|8,0:0|0:0,0:0:0:0:
258,189,93868,1,0,0:0:0:0:
311,247,94095,2,0,L|416:242,1,80,8|0,0:0|0:0,0:0:0:0:
475,156,94550,6,0,P|475:116|450:86,1,80,2|2,0:0|0:0,0:0:0:0:
382,129,95005,2,0,L|302:132,1,80,8|0,0:0|0:0,0:0:0:0:
222,135,95459,1,8,0:0:0:0:
176,201,95686,1,8,0:0:0:0:
202,277,95914,2,8,L|249:275,3,26.6666666666667
201,288,96255,2,0,L|198:327,1,40,8|4,0:0|0:0,0:0:0:0:
409,129,109095,6,0,P|345:117|299:152,1,120,8|8,0:0|0:0,0:0:0:0:
297,162,109550,2,0,L|295:262,1,80,2|8,0:0|0:0,0:0:0:0:
225,308,110005,2,0,L|229:369,2,40,2|0|0,0:0|0:0|0:0,0:0:0:0:
169,229,110459,1,8,0:0:0:0:
62,300,110914,5,4,0:0:0:0:
71,220,111368,1,8,0:0:0:0:
80,140,111823,1,8,0:0:0:0:
89,60,112277,2,0,P|128:50|190:63,1,80,8|0,0:0|0:0,0:0:0:0:
226,108,112732,5,8,0:0:0:0:
302,84,113186,2,0,L|304:-11,1,80,8|0,0:0|0:0,0:0:0:0:
303,4,113527,1,0,0:0:0:0:
303,4,113641,1,8,0:0:0:0:
378,60,114095,2,0,L|376:139,1,80,8|0,0:0|0:0,0:0:0:0:
376,152,114436,1,0,0:0:0:0:
376,164,114550,6,0,B|323:160|323:160|280:200|214:178,1,160,8|8,0:0|0:0,0:0:0:0:
178,60,115232,2,0,P|216:49|255:54,1,80,0|8,0:0|0:0,0:0:0:0:
318,127,115686,2,0,P|307:165|283:197,1,80,0|8,0:0|0:0,0:0:0:0:
189,214,116141,1,0,0:0:0:0:
126,140,116368,2,8,P|81:186|111:295,2,160
189,214,117505,5,8,0:0:0:0:
315,193,117732,2,0,L|324:302,1,80,8|0,0:0|0:0,0:0:0:0:
323,288,118073,1,0,0:0:0:0:
324,303,118186,2,0,P|352:330|391:334,1,80,4|0,0:0|0:0,0:0:0:0:
414,240,118641,2,0,P|439:214|444:172,1,80,8|0,0:0|0:0,0:0:0:0:
315,193,119095,5,8,0:0:0:0:
324,303,119323,1,0,0:0:0:0:
414,240,119550,1,8,0:0:0:0:
315,193,119777,2,0,P|282:189|214:232,2,80,0|8|0,0:0|0:0|0:0,0:0:0:0:
414,240,120459,1,8,0:0:0:0:
489,160,120686,2,0,P|445:103|356:96,1,160
273,133,121368,2,0,L|166:130,1,80,8|0,0:0|0:0,0:0:0:0:
109,287,121823,6,0,P|131:321|195:333,1,80,8|0,0:0|0:0,0:0:0:0:
235,317,122164,1,0,0:0:0:0:
235,317,122277,2,0,P|275:314|317:265,1,80,8|0,0:0|0:0,0:0:0:0:
302,219,122618,1,0,0:0:0:0:
302,219,122732,2,0,P|307:178|265:128,1,80,8|0,0:0|0:0,0:0:0:0:
221,120,123073,1,0,0:0:0:0:
221,120,123186,2,0,P|180:122|138:171,1,80,8|0,0:0|0:0,0:0:0:0:
150,217,123527,1,0,0:0:0:0:
150,217,123641,6,0,B|189:246|223:218|238:186|309:221,1,160,8|8,0:0|0:0,0:0:0:0:
359,295,124323,1,0,0:0:0:0:
283,352,124550,2,0,L|110:347,1,160,8|0,0:0|0:0,0:0:0:0:
202,91,125459,6,0,P|223:118|214:175,2,80,4|0|8,0:0|0:0|0:0,0:0:0:0:
113,127,126141,2,0,L|111:206,1,80,0|8,0:0|0:0,0:0:0:0:
192,333,126595,2,0,L|194:254,1,80,0|8,0:0|0:0,0:0:0:0:
294,280,127050,1,0,0:0:0:0:
294,280,127164,1,0,0:0:0:0:
294,280,127277,2,0,P|318:296|378:286,1,80,8|0,0:0|0:0,0:0:0:0:
436,225,127732,1,8,0:0:0:0:
397,137,127959,6,0,P|373:121|313:131,1,80,0|8,0:0|0:0,0:0:0:0:
256,192,128414,1,0,0:0:0:0:
186,125,128641,2,0,P|147:119|112:137,1,80,8|0,0:0|0:0,0:0:0:0:
76,225,129095,6,0,P|71:295|172:330,1,160,8|8,0:0|0:0,0:0:0:0:
218,280,129777,2,0,P|259:278|312:300,1,80,0|8,0:0|0:0,0:0:0:0:
380,336,130232,2,0,L|384:231,1,80,0|8,0:0|0:0,0:0:0:0:
363,162,130686,1,0,0:0:0:0:
291,226,130914,6,0,P|321:251|377:254,1,80,8|0,0:0|0:0,0:0:0:0:
468,162,131368,2,0,P|467:122|434:78,1,80,8|0,0:0|0:0,0:0:0:0:
307,54,131823,2,0,P|273:34|217:41,1,80,8|0,0:0|0:0,0:0:0:0:
98,84,132277,2,0,L|89:182,1,80,8|0,0:0|0:0,0:0:0:0:
90,179,132618,1,0,0:0:0:0:
89,195,132732,6,0,P|121:182|178:193,1,80,8|0,0:0|0:0,0:0:0:0:
228,258,133186,2,0,P|221:297|197:328,1,80,8|0,0:0|0:0,0:0:0:0:
90,163,133641,6,0,L|98:84,1,80,8|0,0:0|0:0,0:0:0:0:
228,258,134095,2,0,L|219:356,1,80,8|0,0:0|0:0,0:0:0:0:
103,346,134550,6,0,P|51:301|89:213,1,160,8|8,0:0|0:0,0:0:0:0:
147,158,135232,1,0,0:0:0:0:
238,185,135459,2,0,L|246:279,1,80,8|0,0:0|0:0,0:0:0:0:
311,334,135914,1,8,0:0:0:0:
397,292,136141,1,0,0:0:0:0:
383,197,136368,5,8,0:0:0:0:
381,181,136482,1,0,0:0:0:0:
375,166,136595,1,2,0:0:0:0:
366,152,136709,1,0,0:0:0:0:
354,140,136823,1,8,0:0:0:0:
341,130,136936,1,0,0:0:0:0:
326,122,137050,1,2,0:0:0:0:
310,117,137164,1,0,0:0:0:0:
294,116,137277,5,8,0:0:0:0:
270,118,137391,1,0,0:0:0:0:
248,128,137505,1,2,0:0:0:0:
224,130,137618,1,0,0:0:0:0:
200,124,137732,1,8,0:0:0:0:
176,102,137845,1,0,0:0:0:0:
174,69,137959,1,2,0:0:0:0:
191,42,138073,1,0,0:0:0:0:
219,27,138186,5,8,0:0:0:0:
191,42,138300,1,0,0:0:0:0:
161,54,138414,1,2,0:0:0:0:
129,50,138527,1,0,0:0:0:0:
97,42,138641,1,8,0:0:0:0:
64,42,138755,1,0,0:0:0:0:
34,54,138868,1,2,0:0:0:0:
14,79,138982,1,0,0:0:0:0:
6,109,139095,1,8,0:0:0:0:
8,132,139209,1,0,0:0:0:0:
16,154,139323,1,2,0:0:0:0:
29,173,139436,1,0,0:0:0:0:
49,185,139550,2,0,L|95:188,1,40,8|0,0:0|0:0,0:0:0:0:
120,257,139777,2,0,L|80:254,1,40,2|0,0:0|0:0,0:0:0:0:
49,185,140005,5,12,0:0:0:0:
61,155,140118,1,0,0:0:0:0:
80,129,140232,1,2,0:0:0:0:
105,109,140345,1,0,0:0:0:0:
134,96,140459,1,8,0:0:0:0:
165,91,140573,1,0,0:0:0:0:
197,94,140687,1,2,0:0:0:0:
227,106,140800,1,0,0:0:0:0:
253,125,140914,1,8,0:0:0:0:
273,149,141027,1,0,0:0:0:0:
286,179,141140,1,2,0:0:0:0:
291,211,141254,1,0,0:0:0:0:
287,243,141368,2,0,P|254:260|191:248,1,80,4|2,0:0|0:0,0:0:0:0:
114,188,141823,6,0,L|106:92,1,80,4|0,0:0|0:0,0:0:0:0:
167,33,142277,1,8,0:0:0:0:
167,33,142391,1,8,0:0:0:0:
256,68,142618,1,8,0:0:0:0:
271,66,142732,1,8,0:0:0:0:
286,64,142845,1,8,0:0:0:0:
301,62,142959,1,8,0:0:0:0:
396,51,143186,2,0,L|396:160,1,90.0000034332277,8|0,0:0|0:0,0:0:0:0:
396,157,143641,6,0,P|362:177|299:164,1,80,4|0,0:0|0:0,0:0:0:0:
226,167,144095,2,0,L|221:275,1,80,8|0,0:0|0:0,0:0:0:0:
221,262,144436,1,0,0:0:0:0:
220,278,144550,2,0,P|186:258|123:271,1,80,2|0,0:0|0:0,0:0:0:0:
55,291,145005,1,8,0:0:0:0:
129,353,145232,1,0,0:0:0:0:
146,258,145459,6,0,L|149:178,1,80,2|0,0:0|0:0,0:0:0:0:
164,184,145800,1,0,0:0:0:0:
178,189,145914,2,0,L|181:109,1,80,8|0,0:0|0:0,0:0:0:0:
196,115,146255,1,0,0:0:0:0:
210,120,146369,1,2,0:0:0:0:
299,153,146595,5,8,0:0:0:0:
345,33,146823,1,8,0:0:0:0:
299,153,147050,1,0,0:0:0:0:
210,120,147277,2,0,P|181:107|113:123,1,80,2|0,0:0|0:0,0:0:0:0:
72,185,147732,1,8,0:0:0:0:
144,272,147959,1,0,0:0:0:0:
146,257,148072,1,0,0:0:0:0:
148,242,148186,2,0,L|244:242,1,80,2|0,0:0|0:0,0:0:0:0:
288,317,148641,1,8,0:0:0:0:
377,283,148868,1,0,0:0:0:0:
466,249,149095,6,0,B|456:198|456:198|476:150|476:150|464:77,1,160,2|8,0:0|0:0,0:0:0:0:
387,39,149777,1,0,0:0:0:0:
300,78,150005,1,2,0:0:0:0:
378,134,150232,1,8,0:0:0:0:
213,117,150459,2,0,L|208:212,1,80,8|0,0:0|0:0,0:0:0:0:
208,212,150800,1,0,0:0:0:0:
207,228,150914,6,0,P|149:186|48:213,1,160,2|8,0:0|0:0,0:0:0:0:
94,290,151595,1,0,0:0:0:0:
94,290,151709,1,0,0:0:0:0:
94,290,151823,2,0,L|201:286,1,80,2|0,0:0|0:0,0:0:0:0:
256,240,152277,2,0,L|256:132,1,80,8|0,0:0|0:0,0:0:0:0:
358,29,152732,6,0,P|392:76|379:133,1,120,2|0,0:0|0:0,0:0:0:0:
351,148,153186,1,8,0:0:0:0:
256,160,153414,2,0,L|150:155,1,80,2|0,0:0|0:0,0:0:0:0:
80,151,153868,1,8,0:0:0:0:
131,33,154095,1,8,0:0:0:0:
80,151,154323,1,0,0:0:0:0:
137,226,154550,6,0,P|195:184|296:211,1,160,4|8,0:0|0:0,0:0:0:0:
410,279,155232,2,0,L|331:277,1,80,0|2,0:0|0:0,0:0:0:0:
316,284,155573,1,0,0:0:0:0:
302,291,155686,1,0,0:0:0:0:
287,298,155800,1,0,0:0:0:0:
273,306,155914,1,8,0:0:0:0:
187,350,156141,1,0,0:0:0:0:
186,342,156255,1,0,0:0:0:0:
185,334,156368,2,0,L|194:182,1,120,2|0,0:0|0:0,0:0:0:0:
196,182,156823,1,8,0:0:0:0:
280,226,157050,2,0,P|312:237|372:225,1,80,2|0,0:0|0:0,0:0:0:0:
454,148,157505,5,8,0:0:0:0:
478,273,157732,1,8,0:0:0:0:
454,148,157959,1,0,0:0:0:0:
478,273,158186,2,0,L|473:352,1,80,4|0,0:0|0:0,0:0:0:0:
386,243,158641,1,8,0:0:0:0:
386,243,158868,1,0,0:0:0:0:
291,267,159095,2,0,P|257:291|202:289,1,80,2|0,0:0|0:0,0:0:0:0:
386,243,159550,2,0,P|427:239|474:268,1,80,8|0,0:0|0:0,0:0:0:0:
359,335,160005,2,0,P|298:295|317:205,1,160,2|0,0:0|0:0,0:0:0:0:
454,148,160686,6,0,L|354:151,1,80,2|0,0:0|0:0,0:0:0:0:
277,153,161141,1,8,0:0:0:0:
296,24,161368,1,8,0:0:0:0:
215,77,161595,1,0,0:0:0:0:
119,63,161823,2,0,P|173:81|166:175,1,160,4|8,0:0|0:0,0:0:0:0:
42,232,162505,6,0,P|35:193|55:159,1,80,0|2,0:0|0:0,0:0:0:0:
85,148,162845,1,2,0:0:0:0:
116,150,162959,1,0,0:0:0:0:
143,164,163073,1,2,0:0:0:0:
161,189,163186,1,10,0:0:0:0:
168,218,163300,1,0,0:0:0:0:
161,247,163414,1,2,0:0:0:0:
141,271,163527,1,0,0:0:0:0:
115,285,163641,6,0,B|191:250|188:333|293:278,1,160,4|0,0:0|0:0,0:0:0:0:
340,224,164323,1,0,0:0:0:0:
411,158,164550,2,0,L|416:52,1,80,4|0,0:0|0:0,0:0:0:0:
263,104,165005,2,0,P|246:140|254:179,1,80
432,252,165459,5,4,0:0:0:0:
411,158,165686,1,2,0:0:0:0:
340,224,165914,5,8,0:0:0:0:
319,318,166141,1,2,0:0:0:0:
248,252,166368,5,0,0:0:0:0:
227,158,166595,1,2,0:0:0:0:
156,224,166823,5,8,0:0:0:0:
135,318,167050,1,2,0:0:0:0:
226,346,167277,6,0,L|279:344,3,40
287,253,167732,6,0,L|248:252,3,40,8|0|0|0,0:0|0:0|0:0|0:0,0:0:0:0:
227,158,168186,6,0,L|280:156,3,40
288,65,168641,6,0,L|248:63,3,40,8|0|0|0,0:0|0:0|0:0|0:0,0:0:0:0:
152,42,169095,6,0,B|79:46|79:46|102:65,2,90.0000034332277,0|0|2,0:0|0:0|0:0,0:0:0:0:
154,57,169891,1,0,0:0:0:0:
156,72,170005,1,0,0:0:0:0:
158,87,170118,1,0,0:0:0:0:
160,102,170232,1,0,0:0:0:0:
162,117,170345,1,0,0:0:0:0:
164,132,170459,2,0,L|203:78,1,60.0000022888184
256,48,170800,5,2,0:0:0:0:
256,48,170914,2,0,P|288:71|283:142,2,90.0000034332277,2|0|2,0:0|0:0|0:0,0:0:0:0:
223,132,171823,1,0,0:0:0:0:
190,216,172050,1,0,0:0:0:0:
125,184,172277,2,0,L|52:181,1,60.0000022888184,2|0,0:0|0:0,0:0:0:0:
53,181,172618,1,0,0:0:0:0:
40,181,172732,2,0,P|23:210|26:257,1,60.0000022888184,2|0,0:0|0:0,0:0:0:0:
24,250,173073,1,0,0:0:0:0:
27,264,173186,1,0,0:0:0:0:
157,300,173414,6,0,B|217:321|211:261|289:293,1,120.000004577637,2|2,0:0|0:0,0:0:0:0:
333,324,174095,1,2,0:0:0:0:
394,360,174323,1,0,0:0:0:0:
408,364,174436,1,2,0:0:0:0:
422,368,174550,6,0,P|443:343|436:278,1,90.0000034332277,2|0,0:0|0:0,0:0:0:0:
303,55,175232,2,0,P|282:80|289:145,1,90.0000034332277,2|0,0:0|0:0,0:0:0:0:
297,134,175686,2,0,L|331:133,1,30.0000011444092
351,132,175914,2,0,L|351:230,1,90.0000034332277,2|0,0:0|0:0,0:0:0:0:
351,252,176368,6,0,P|313:289|228:273,1,120.000004577637,4|0,0:0|0:0,0:0:0:0:
175,226,176823,5,8,0:0:0:0:
173,202,176936,1,2,0:0:0:0:
171,178,177050,1,2,0:0:0:0:
169,154,177164,1,0,0:0:0:0:
167,130,177278,1,6,0:0:0:0:
79,52,177505,1,2,0:0:0:0:
77,76,177619,1,0,0:0:0:0:
75,100,177733,5,10,0:0:0:0:
97,121,177845,1,2,0:0:0:0:
127,130,177959,1,0,0:0:0:0:
159,130,178073,1,0,0:0:0:0:
190,124,178186,1,6,0:0:0:0:
291,44,178414,1,2,0:0:0:0:
398,115,178641,2,0,P|423:184|390:276,1,160,10|6,0:0|0:0,0:0:0:0:
367,260,179209,1,0,0:0:0:0:
334,255,179323,1,2,0:0:0:0:
301,250,179436,1,2,0:0:0:0:
268,245,179550,1,8,0:0:0:0:
235,240,179663,1,2,0:0:0:0:
202,235,179777,1,2,0:0:0:0:
113,273,180005,5,2,0:0:0:0:
112,296,180118,1,0,0:0:0:0:
111,319,180232,1,2,0:0:0:0:
110,342,180345,1,2,0:0:0:0:
202,235,180573,1,0,0:0:0:0:
203,212,180687,1,2,0:0:0:0:
204,189,180800,1,2,0:0:0:0:
111,128,181027,1,0,0:0:0:0:
110,151,181140,1,2,0:0:0:0:
109,174,181254,1,2,0:0:0:0:
204,189,181482,6,0,L|346:184,1,120,2|0,0:0|0:0,0:0:0:0:
412,280,182050,1,0,0:0:0:0:
412,280,182164,2,0,L|293:276,1,120,2|0,0:0|0:0,0:0:0:0:
226,276,182618,1,2,0:0:0:0:
226,276,182732,2,0,P|208:307|223:379,1,80
408,184,183186,2,0,L|404:95,2,80,0|0|4,0:0|0:0|0:0,0:0:0:0:
409,216,183755,5,2,0:0:0:0:
409,216,183868,1,2,0:0:0:0:
313,303,184095,1,8,0:0:0:0:
314,271,184210,1,2,0:0:0:0:
315,239,184323,1,2,0:0:0:0:
256,162,184550,1,4,0:0:0:0:
190,231,184777,1,2,0:0:0:0:
124,162,185005,1,8,0:0:0:0:
65,239,185232,1,2,0:0:0:0:
65,239,185345,1,2,0:0:0:0:
58,269,185459,5,4,0:0:0:0:
63,300,185573,1,0,0:0:0:0:
81,325,185686,1,2,0:0:0:0:
107,343,185800,1,0,0:0:0:0:
137,346,185914,1,8,0:0:0:0:
168,340,186028,1,0,0:0:0:0:
193,322,186141,1,2,0:0:0:0:
209,295,186255,1,0,0:0:0:0:
214,264,186368,1,4,0:0:0:0:
229,235,186482,1,0,0:0:0:0:
255,215,186595,1,2,0:0:0:0:
287,207,186709,1,0,0:0:0:0:
319,212,186823,1,8,0:0:0:0:
346,229,186937,1,0,0:0:0:0:
366,256,187050,1,2,0:0:0:0:
373,287,187164,1,0,0:0:0:0:
368,317,187277,5,4,0:0:0:0:
343,320,187391,1,2,0:0:0:0:
319,323,187505,1,2,0:0:0:0:
253,202,187732,5,8,0:0:0:0:
346,229,187959,1,2,0:0:0:0:
412,108,188186,5,4,0:0:0:0:
319,135,188414,1,2,0:0:0:0:
253,14,188641,5,8,0:0:0:0:
346,41,188868,1,2,0:0:0:0:
439,68,189095,6,0,L|443:170,1,80,4|2,0:0|0:0,0:0:0:0:
353,185,189550,2,0,L|357:287,1,80,8|2,0:0|0:0,0:0:0:0:
266,301,190005,1,8,0:0:0:0:
266,308,190118,1,8,0:0:0:0:
266,315,190232,2,0,P|235:327|169:313,1,80,8|0,0:0|0:0,0:0:0:0:
160,307,190573,1,0,0:0:0:0:
142,278,190686,1,0,0:0:0:0:
140,243,190800,1,0,0:0:0:0:
151,211,190914,6,0,L|341:217,1,160,4|8,0:0|0:0,0:0:0:0:
404,193,191595,2,0,P|424:223|413:277,2,80,0|2|0,0:0|0:0|0:0,0:0:0:0:
310,216,192277,1,8,0:0:0:0:
243,146,192505,1,0,0:0:0:0:
269,52,192732,2,0,L|173:56,1,80,2|0,0:0|0:0,0:0:0:0:
188,71,193073,1,0,0:0:0:0:
187,86,193186,2,0,L|91:90,1,80,8|0,0:0|0:0,0:0:0:0:
91,90,193527,1,0,0:0:0:0:
75,91,193641,1,2,0:0:0:0:
33,177,193868,5,8,0:0:0:0:
159,157,194095,2,0,P|179:186|165:251,1,80,8|0,0:0|0:0,0:0:0:0:
107,294,194550,6,0,P|142:243|253:252,1,160,2|8,0:0|0:0,0:0:0:0:
319,281,195232,2,0,L|326:380,1,80,0|2,0:0|0:0,0:0:0:0:
418,340,195686,1,0,0:0:0:0:
411,243,195914,2,0,P|366:240|314:265,1,80,8|0,0:0|0:0,0:0:0:0:
240,335,196368,2,0,B|205:294|205:294|223:178,2,160,2|8|2,0:0|0:0|0:0,0:0:0:0:
319,281,197505,5,8,0:0:0:0:
350,157,197732,1,8,0:0:0:0:
445,151,197959,1,0,0:0:0:0:
402,236,198186,6,0,B|319:269|334:175|239:223,1,160,2|8,0:0|0:0,0:0:0:0:
181,281,198868,1,0,0:0:0:0:
109,345,199095,2,0,L|106:385,2,40,2|0|0,0:0|0:0|0:0,0:0:0:0:
17,314,199550,2,0,P|5:278|19:210,1,80,8|0,0:0|0:0,0:0:0:0:
14,221,199891,1,0,0:0:0:0:
21,207,200005,6,0,L|148:199,1,120,2|0,0:0|0:0,0:0:0:0:
172,197,200459,1,8,0:0:0:0:
267,191,200686,2,0,P|285:158|280:116,1,80,2|0,0:0|0:0,0:0:0:0:
221,40,201141,5,8,0:0:0:0:
119,117,201368,1,8,0:0:0:0:
172,197,201595,1,0,0:0:0:0:
267,191,201823,6,0,B|275:154|308:157|333:174|326:209|311:232|311:232|305:257|316:281,1,160,4|8,0:0|0:0,0:0:0:0:
328,346,202505,1,0,0:0:0:0:
423,357,202732,5,2,0:0:0:0:
438,339,202845,1,0,0:0:0:0:
444,315,202959,1,0,0:0:0:0:
442,290,203073,1,0,0:0:0:0:
436,266,203186,1,8,0:0:0:0:
368,169,203414,1,0,0:0:0:0:
366,185,203528,1,0,0:0:0:0:
364,201,203641,6,0,P|320:228|234:211,1,120,2|0,0:0|0:0,0:0:0:0:
227,204,204095,1,8,0:0:0:0:
149,146,204323,2,0,L|151:66,1,80,2|0,0:0|0:0,0:0:0:0:
65,192,204777,5,8,0:0:0:0:
144,291,205004,1,8,0:0:0:0:
227,242,205232,1,0,0:0:0:0:
266,154,205459,6,0,P|307:166|343:201,1,80,4|0,0:0|0:0,0:0:0:0:
342,212,205800,1,2,0:0:0:0:
341,236,205914,1,8,0:0:0:0:
332,258,206027,1,2,0:0:0:0:
317,276,206141,1,2,0:0:0:0:
296,289,206254,1,0,0:0:0:0:
272,295,206368,1,2,0:0:0:0:
249,293,206481,1,0,0:0:0:0:
227,285,206595,1,2,0:0:0:0:
208,269,206708,1,2,0:0:0:0:
196,249,206823,1,8,0:0:0:0:
189,226,206937,1,2,0:0:0:0:
191,201,207050,5,2,0:0:0:0:
206,205,207164,1,0,0:0:0:0:
221,209,207277,2,0,B|230:148|230:148|214:110|214:110|226:21,1,160,0|8,0:0|0:0,0:0:0:0:
125,62,207959,2,0,L|112:164,1,80
191,201,208414,5,8,0:0:0:0:
311,159,208641,2,0,P|336:183|334:248,1,80,8|0,0:0|0:0,0:0:0:0:
298,317,209095,6,0,P|235:277|249:203,1,160,4|8,0:0|0:0,0:0:0:0:
342,226,209777,1,2,0:0:0:0:
348,249,209891,1,0,0:0:0:0:
353,272,210005,1,2,0:0:0:0:
409,156,210232,1,2,0:0:0:0:
414,178,210346,1,0,0:0:0:0:
419,201,210459,2,0,P|451:217|496:208,1,80,8|0,0:0|0:0,0:0:0:0:
475,85,210914,6,0,B|400:48|396:146|297:87,1,160,4|0,0:0|0:0,0:0:0:0:
246,42,211595,1,0,0:0:0:0:
157,80,211823,2,0,L|150:178,1,80,4|0,0:0|0:0,0:0:0:0:
63,299,212277,2,0,P|60:259|81:226,1,80
227,305,212732,5,4,0:0:0:0:
318,332,212959,1,2,0:0:0:0:
433,291,213186,5,8,0:0:0:0:
321,300,213414,1,2,0:0:0:0:
206,216,213641,5,0,0:0:0:0:
324,268,213868,1,2,0:0:0:0:
450,161,214095,5,8,0:0:0:0:
327,236,214323,1,2,0:0:0:0:
252,68,214550,6,0,L|222:10,3,40
170,76,215005,6,0,L|108:56,3,40,8|0|0|0,0:0|0:0|0:0|0:0,0:0:0:0:
105,146,215459,6,0,L|47:175,3,40
85,257,215914,6,0,L|65:319,3,40,8|0|0|0,0:0|0:0|0:0|0:0,0:0:0:0:
128,338,216368,5,8,0:0:0:0:
162,347,216595,5,0,0:0:0:0:
195,334,216823,5,0,0:0:0:0:
218,307,217050,5,0,0:0:0:0:
251,293,217277,5,0,0:0:0:0:
287,292,217505,5,0,0:0:0:0:
320,304,217732,6,0,L|326:378,1,60.0000022888184
324,363,218186,5,4,0:0:0:0:
