osu file format v10

[General]
AudioFilename: haruhana2.mp3
AudioLeadIn: 2000
PreviewTime: 142401
Countdown: 0
SampleSet: Soft
StackLeniency: 0.7
Mode: 0
LetterboxInBreaks: 0

[Editor]
DistanceSpacing: 1
BeatDivisor: 4
GridSize: 4

[Metadata]
Title:Haru Hana no Iro -Reboot Ver.-
TitleUnicode:Haru Hana no Iro -Reboot Ver.-
Artist:Rita
ArtistUnicode:Rita
Creator:Frostmourne
Version:Normal
Source:Haruharo!
Tags:meaning bossandy fanzhen0019 Niva Mixagji blueberry yoghurt yogurt propeller cancelled remix collab boss
BeatmapID:163813
BeatmapSetID:53785

[Difficulty]
HPDrainRate:3
CircleSize:3
OverallDifficulty:3
ApproachRate:4
SliderMultiplier:1.1
SliderTickRate:1

[Events]
//Background and Video events
0,0,"UKSNw.jpg"
//Break Periods
2,12328,21717
2,85055,89353
2,169418,176626
//Storyboard Layer 0 (Background)
//Storyboard Layer 1 (Fail)
//Storyboard Layer 2 (Pass)
//Storyboard Layer 3 (Foreground)
//Storyboard Sound Samples
//Background Colour Transformations
3,100,163,162,255

[TimingPoints]
492,363.636363636364,4,2,1,72,1,0
23764,-100,4,2,1,55,0,0
47037,-100,4,2,1,72,0,0
58673,-100,4,2,1,86,0,1
84855,-100,4,2,1,72,0,0
90673,-100,4,2,1,63,0,0
96492,-100,4,2,1,72,0,0
108128,-100,4,2,1,55,0,0
131401,-100,4,2,1,72,0,0
143037,-100,4,2,1,86,0,1
169219,-100,4,2,1,72,0,0
180855,-100,4,2,1,86,0,1
195401,-100,4,2,1,72,0,0
217219,-100,4,2,1,70,0,0
217946,-100,4,2,1,60,0,0
218673,-100,4,2,1,50,0,0
219401,-100,4,2,1,40,0,0
220128,-100,4,2,1,30,0,0
220855,-100,4,2,1,20,0,0
221582,-100,4,2,1,15,0,0
223037,-100,4,2,1,10,0,0
223764,-100,4,2,1,5,0,0

[Colours]
Combo1 : 192,192,192
Combo2 : 255,255,0
Combo3 : 255,128,0
SliderBorder : 255,255,255

[HitObjects]
132,304,492,2,0,B|200:356|288:316,1,165,4|8,0:0|0:0,0:0:0
388,268,1401,2,0,B|388:104,1,165,2|8,0:0|0:0,0:0:0
300,36,2310,1,2,0:0:0
244,132,2673,1,2,0:0:0
140,92,3037,1,2,0:0:0
92,192,3401,5,10,0:0:0
36,288,3764,2,0,B|84:320|140:292,1,110,8|0,0:0|0:0,0:0:0
240,340,4492,2,0,B|272:292|244:236,1,110,8|10,0:0|0:0,0:0:0
144,192,5219,2,0,B|16:192,2,110,2|8|2,0:0|0:0|0:0,0:0:0
196,96,6310,6,0,B|268:44|356:84,1,165,4|8,0:0|0:0,0:0:0
432,160,7219,2,0,B|432:224,1,55,2|8,0:0|0:0,0:0:0
371,308,7764,2,0,B|261:308,1,110,10|2,0:0|0:0,0:0:0
164,360,8492,2,0,B|136:308|164:256,2,110,2|2|10,0:0|0:0|0:0,0:0:0
262,308,9582,6,0,B|372:308,1,110,10|2,0:0|0:0,0:0:0
460,240,10310,2,0,B|488:192|460:136,1,110,8|10,0:0|0:0,0:0:0
304,192,11219,2,0,B|28:192,1,275,10|4,0:0|0:0,0:0:0
296,168,23037,6,0,B|172:212,1,110,8|8,0:0|0:0,0:0:0
112,128,23764,2,0,B|52:136|28:192,1,110,4|8,0:0|0:0,0:0:0
192,340,24855,1,8,0:0:0
296,300,25219,2,0,B|468:300,2,165,2|2|8,0:0|0:0|0:0,0:0:0
212,228,26673,5,2,0:0:0
104,256,27037,2,0,B|52:148|104:44,1,220,8|8,0:0|0:0,0:0:0
208,84,28128,2,0,B|268:100|312:60,2,110,0|8|0,0:0|0:0|0:0,0:0:0
192,192,29219,2,0,B|204:304,1,110,8|4,0:0|0:0,0:0:0
96,328,29946,6,0,B|36:216|104:116,1,220,8|8,0:0|0:0,0:0:0
184,48,31037,1,2,0:0:0
228,148,31401,2,0,B|340:208|440:140,1,220,8|8,0:0|0:0,0:0:0
428,252,32492,5,0,0:0:0
320,276,32855,1,8,0:0:0
340,72,33582,1,8,0:0:0
252,40,33946,2,0,B|80:40,2,165,4|2|10,0:0|0:0|0:0,0:0:0
252,152,35401,6,0,B|140:152,1,110,4|8,0:0|0:0,0:0:0
260,336,36492,2,0,B|372:336,1,110,8|2,0:0|0:0,0:0:0
460,272,37219,2,0,B|512:168|460:60,1,220,8|8,0:0|0:0,0:0:0
352,32,38310,5,2,0:0:0
272,108,38673,2,0,B|164:160|60:108,2,220,8|8|8,0:0|0:0|0:0,0:0:0
372,304,40855,1,8,0:0:0
372,304,41219,1,4,0:0:0
272,352,41582,6,0,B|44:352,1,220,8|8,0:0|0:0,0:0:0
52,132,43037,2,0,B|280:132,1,220,8|8,0:0|0:0,0:0:0
384,132,44128,5,2,0:0:0
324,224,44492,1,8,0:0:0
208,36,45219,1,8,0:0:0
112,88,45582,2,0,B|60:192|112:300,2,220,4|2|4,0:0|0:0|0:0,0:0:0
208,36,47401,6,0,B|328:36,2,110,10|2|10,0:0|0:0|0:0,0:0:0
112,88,48492,2,0,B|80:136|112:192,1,110,2|8,0:0|0:0,0:0:0
204,136,49219,2,0,B|316:136,2,110,2|10|2,0:0|0:0|0:0,0:0:0
208,248,50310,6,0,B|256:280|312:248,1,110,10|2,0:0|0:0,0:0:0
344,352,51037,2,0,B|404:340|417:278,1,110,10|2,0:0|0:0,0:0:0
492,200,51764,2,0,B|492:24,2,165,10|2|4,0:0|0:0|0:0,0:0:0
392,152,53219,5,10,0:0:0
312,228,53582,1,2,0:0:0
208,188,53946,1,10,0:0:0
104,152,54310,2,0,B|124:92|180:80,2,110,2|10|2,0:0|0:0|0:0,0:0:0
88,260,55401,1,10,0:0:0
156,348,55764,6,0,B|376:348,1,220,4|2,0:0|0:0,0:0:0
444,264,56855,1,12,0:0:0
484,160,57219,1,12,0:0:0
396,92,57582,2,0,B|272:132|200:32,1,220,10|10,0:0|0:0,0:0:0
92,40,58673,6,0,B|28:132|64:252,1,220,4|2,0:0|0:0,0:0:0
164,292,59764,1,8,0:0:0
248,360,60128,2,0,B|284:316|268:252,1,110,2|8,0:0|0:0,0:0:0
380,248,60855,2,0,B|374:191|317:157,1,110,2|8,0:0|0:0,0:0:0
212,160,61582,1,2,0:0:0
108,196,61946,6,0,B|24:124,2,110,8|2|8,0:0|0:0|0:0,0:0:0
164,292,63037,2,0,B|388:292,2,220,2|2|4,0:0|0:0|0:0,0:0:0
64,340,64855,6,0,B|36:288|64:236,2,110,8|2|8,0:0|0:0|0:0,0:0:0
164,292,65946,2,0,B|192:240|164:188,1,110,2|8,0:0|0:0,0:0:0
112,88,66673,2,0,B|164:60|216:88,2,110,2|8|2,0:0|0:0|0:0,0:0:0
60,184,67764,2,0,B|280:184,1,220,8|8,0:0|0:0,0:0:0
392,188,68855,5,6,0:0:0
392,188,69219,1,8,0:0:0
204,76,69946,2,0,B|324:40,1,110,8|4,0:0|0:0,0:0:0
420,44,70673,5,8,0:0:0
360,256,71401,1,8,0:0:0
456,204,71764,2,0,B|484:256|456:312,2,110,2|8|2,0:0|0:0|0:0,0:0:0
380,124,72855,2,0,B|252:124,1,110,8|2,0:0|0:0,0:0:0
200,208,73582,6,0,B|144:196|136:128,2,110,8|2|8,0:0|0:0|0:0,0:0:0
312,204,74673,2,0,B|316:264|264:300,1,110,2|8,0:0|0:0,0:0:0
160,320,75401,1,2,0:0:0
92,236,75764,2,0,B|92:124,1,110,8|4,0:0|0:0,0:0:0
172,48,76492,5,8,0:0:0
375,130,77219,1,8,0:0:0
288,332,77946,1,8,0:0:0
92,236,78673,1,8,0:0:0
160,148,79037,5,4,0:0:0
256,204,79401,2,0,B|285:255|347:258,2,110,8|2|8,0:0|0:0|0:0,0:0:0
348,144,80492,2,0,B|464:144,1,110,2|8,0:0|0:0,0:0:0
396,52,81219,2,0,B|172:52,1,220,2|4,0:0|0:0,0:0:0
72,92,82310,5,8,0:0:0
256,216,83037,1,8,0:0:0
356,260,83401,6,0,B|464:232,1,110,4|8,0:0|0:0,0:0:0
340,48,84492,2,0,B|304:96|332:156,1,110,0|4,0:0|0:0,0:0:0
388,100,90673,5,4,0:0:0
292,44,91037,2,0,B|172:20|88:104,1,220,8|8,0:0|0:0,0:0:0
152,312,92492,2,0,B|272:336|356:252,1,220,8|8,0:0|0:0,0:0:0
464,260,93582,6,0,B|516:196|480:84,2,165,4|4|4,0:0|0:0|0:0,0:0:0
312,328,95219,2,0,B|227:331|164:265,1,165,8|8,0:0|0:0,0:0:0
64,312,96128,2,0,B|32:260|64:208,1,110,8|4,0:0|0:0,0:0:0
144,132,96855,5,8,0:0:0
400,64,97582,2,0,B|456:168|388:280,1,220,8|8,0:0|0:0,0:0:0
336,368,98673,2,0,B|276:376|240:328,1,110,0|8,0:0|0:0,0:0:0
172,243,99401,5,0,0:0:0
116,148,99764,2,0,B|88:92|124:36,2,110,8|0|8,0:0|0:0|0:0,0:0:0
164,176,100673,2,0,B|252:156|320:212,1,165,0|8,0:0|0:0,0:0:0
380,304,101582,2,0,B|420:348|484:329,2,110,8|8|4,0:0|0:0|0:0,0:0:0
452,224,102673,5,8,0:0:0
292,80,103401,2,0,B|184:44|68:120,1,220,8|8,0:0|0:0,0:0:0
44,216,104492,2,0,B|104:232|148:192,1,110,0|8,0:0|0:0,0:0:0
204,288,105219,6,0,B|257:256|260:197,2,110,0|8|0,0:0|0:0|0:0,0:0:0
104,332,106310,1,8,0:0:0
324,344,107037,1,8,0:0:0
428,316,107401,2,0,B|468:212,1,110,8|12,0:0|0:0,0:0:0
448,104,108128,5,4,0:0:0
360,168,108492,2,0,B|252:232|252:140|144:192,1,220,8|8,0:0|0:0,0:0:0
136,300,109582,2,0,B|264:300,1,110,0|8,0:0|0:0,0:0:0
336,240,110310,2,0,B|376:112,1,110,0|8,0:0|0:0,0:0:0
424,40,111037,5,0,0:0:0
472,140,111401,2,0,B|504:252|416:352,2,220,8|8|8,0:0|0:0|0:0,0:0:0
252,132,113582,2,0,B|192:136|164:68,1,110,8|4,0:0|0:0,0:0:0
256,40,114310,6,0,B|368:20|480:52,3,220,8|8|8|8,0:0|0:0|0:0|0:0,0:0:0
472,160,116855,1,0,0:0:0
452,268,117219,1,8,0:0:0
240,216,117946,1,8,0:0:0
248,324,118310,6,0,B|148:328|92:236,1,165,4|2,0:0|0:0,0:0:0
160,100,119401,1,2,0:0:0
264,132,119764,6,0,B|340:44,2,110,4|8|0,0:0|0:0|0:0,0:0:0
192,216,120855,1,8,0:0:0
264,300,121219,2,0,B|360:372|484:336,2,220
156,292,123037,6,0,B|84:292,2,55,8|0|0,0:0|0:0|0:0,0:0:0
220,200,123764,2,0,B|276:180|328:216,1,110,8|0,0:0|0:0,0:0:0
424,264,124492,1,8,0:0:0
476,48,125219,1,8,0:0:0
368,56,125582,5,4,0:0:0
260,80,125946,2,0,B|200:88|164:36,1,110,8|0,0:0|0:0,0:0:0
68,84,126673,1,8,0:0:0
160,288,127401,1,8,0:0:0
380,288,128128,1,8,0:0:0
300,88,128855,5,8,0:0:0
196,128,129219,2,0,B|136:144|88:100,1,110,0|8,0:0|0:0,0:0:0
16,184,129946,2,0,B|96:260|224:240,1,220,4|2,0:0|0:0,0:0:0
432,264,131401,5,4,0:0:0
380,164,131764,1,10,0:0:0
332,64,132128,2,0,B|212:36,1,110,2|10,0:0|0:0,0:0:0
164,128,132855,2,0,B|99:167|-13:127,2,165,2|2|10,0:0|0:0|0:0,0:0:0
172,240,134310,1,2,0:0:0
180,352,134673,6,0,B|120:356|88:304,2,110,10|2|10,0:0|0:0|0:0,0:0:0
288,340,135764,1,2,0:0:0
396,332,136128,2,0,B|460:312|464:240,2,110,10|2|10,0:0|0:0|0:0,0:0:0
288,340,137219,5,4,0:0:0
180,352,137582,2,0,B|172:288|220:252,1,110,10|2,0:0|0:0,0:0:0
320,216,138310,2,0,B|293:157|234:150,1,110,10|2,0:0|0:0,0:0:0
136,196,139037,2,0,B|116:136|152:88,1,110,10|2,0:0|0:0,0:0:0
180,48,139582,2,0,B|352:40,1,165,2|4,0:0|0:0,0:0:0
424,120,140492,5,10,0:0:0
424,120,140855,2,0,B|460:168|440:228,1,110,2|10,0:0|0:0,0:0:0
376,316,141582,2,0,B|260:356|152:284,1,220,4|2,0:0|0:0,0:0:0
116,192,142673,1,8,0:0:0
144,84,143037,6,0,B|240:24|372:60,1,220,4|0,0:0|0:0,0:0:0
436,132,144128,1,8,0:0:0
344,332,144855,1,8,0:0:0
128,288,145582,1,8,0:0:0
128,288,145946,1,0,0:0:0
224,344,146310,6,0,B|260:292|224:224,2,110,8|0|8,0:0|0:0|0:0,0:0:0
128,288,147401,2,0,B|92:236|128:168,1,110,0|8,0:0|0:0,0:0:0
204,112,148128,2,0,B|256:88|312:112,2,110,0|8|4,0:0|0:0|0:0,0:0:0
120,184,149219,6,0,B|56:184,2,55,8|0|0,0:0|0:0|0:0,0:0:0
220,232,149946,1,8,0:0:0
280,324,150310,2,0,B|332:352|388:324,1,110,0|8,0:0|0:0,0:0:0
472,260,151037,2,0,B|500:208|472:152,1,110,0|8,0:0|0:0,0:0:0
392,80,151764,6,0,B|292:28|176:64,2,220,0|0|4,0:0|0:0|0:0,0:0:0
384,188,153582,2,0,B|364:304,1,110,8|0,0:0|0:0,0:0:0
256,288,154310,2,0,B|276:172,1,110,8|4,0:0|0:0,0:0:0
232,76,155037,6,0,B|120:60|28:148,2,220,8|8|8,0:0|0:0|0:0,0:0:0
440,152,157219,2,0,B|472:100|440:44,1,110,8|0,0:0|0:0,0:0:0
344,100,157946,6,0,B|212:100,2,110,8|0|8,0:0|0:0|0:0,0:0:0
348,208,159037,2,0,B|224:208,1,110,0|8,0:0|0:0,0:0:0
140,256,159764,2,0,B|108:200|140:152,1,110,0|8,0:0|0:0,0:0:0
224,80,160492,1,4,0:0:0
256,192,160673,12,4,163401,0:0:0
244,312,164492,6,0,B|116:304|52:184,2,220,8|8|8,0:0|0:0|0:0,0:0:0
352,332,166310,2,0,B|388:216,1,110,4|8,0:0|0:0,0:0:0
256,48,167401,1,8,0:0:0
256,192,167764,12,4,169218,0:0:0
256,192,177946,12,4,179401,0:0:0
416,192,180492,5,8,0:0:0
352,280,180855,2,0,B|244:328|136:280,1,220,4|0,0:0|0:0,0:0:0
68,200,181946,1,8,0:0:0
240,64,182673,1,8,0:0:0
68,200,183401,2,0,B|40:252|68:304,1,110,8|0,0:0|0:0,0:0:0
164,252,184128,6,0,B|284:252,2,110,8|0|8,0:0|0:0|0:0,0:0:0
68,200,185219,2,0,B|104:136|152:136|152:136|272:136,2,220,0|0|4,0:0|0:0|0:0,0:0:0
36,304,187037,5,8,0:0:0
252,352,187764,1,8,0:0:0
352,308,188128,2,0,B|330:251|268:240,1,110,0|8,0:0|0:0,0:0:0
173,199,188855,2,0,B|57:199,2,110,0|8|4,0:0|0:0|0:0,0:0:0
256,128,189946,6,0,B|312:104|364:128,2,110,8|0|8,0:0|0:0|0:0,0:0:0
152,92,191037,2,0,B|36:92,1,110,0|8,0:0|0:0,0:0:0
60,200,191764,2,0,B|176:200,1,110,0|8,0:0|0:0,0:0:0
280,201,192492,5,4,0:0:0
360,128,192855,1,8,0:0:0
460,324,193582,1,8,0:0:0
256,192,193946,12,4,195401,0:0:0
348,336,196128,6,0,B|224:352,1,110,0|8,0:0|0:0,0:0:0
212,244,196855,2,0,B|240:192|208:136,1,110,0|8,0:0|0:0,0:0:0
112,200,197582,2,0,B|84:252|116:308,1,110,0|8,0:0|0:0,0:0:0
212,356,198310,5,0,0:0:0
308,300,198673,1,8,0:0:0
508,196,199401,1,8,0:0:0
508,196,199764,2,0,B|488:136|420:119,1,110,0|8,0:0|0:0,0:0:0
328,160,200492,1,8,0:0:0
252,80,200855,1,8,0:0:0
220,184,201219,6,0,B|160:172|144:112,2,110,4|8|0,0:0|0:0|0:0,0:0:0
328,160,202310,2,0,B|356:217|328:265,1,110,8|0,0:0|0:0,0:0:0
260,348,203037,1,8,0:0:0
48,284,203764,1,8,0:0:0
92,184,204128,5,0,0:0:0
192,232,204492,2,0,B|256:136,1,110,8|0,0:0|0:0,0:0:0
324,224,205219,2,0,B|432:184,1,110,8|0,0:0|0:0,0:0:0
464,288,205946,2,0,B|356:328,1,110,8|8,0:0|0:0,0:0:0
252,328,206673,1,12,0:0:0
140,328,207037,6,0,B|88:296|88:232,1,110,4|8,0:0|0:0,0:0:0
188,192,207764,2,8,B|316:192,2,110,0|8|0,0:0|0:0|0:0,0:0:0
96,128,208855,1,8,0:0:0
296,40,209582,1,8,0:0:0
376,116,209946,6,0,B|484:164,1,110,0|8,0:0|0:0,0:0:0
440,264,210673,2,0,B|332:216,1,110,0|8,0:0|0:0,0:0:0
260,296,211401,2,0,B|216:256|232:184,2,110,0|8|8,0:0|0:0|0:0,0:0:0
360,344,212492,1,8,0:0:0
440,264,212855,6,0,B|464:212|440:156,1,110,4|8,0:0|0:0,0:0:0
356,88,213582,1,0,0:0:0
252,124,213946,2,0,B|192:124,1,55,8|4,0:0|0:0,0:0:0
156,284,214673,2,0,B|204:316|268:296,1,110,8|8,0:0|0:0,0:0:0
360,344,215401,2,0,B|392:296|372:232,1,110,8|4,0:0|0:0,0:0:0
276,188,216128,6,0,B|216:188,1,55,8|2,0:0|0:0,0:0:0
112,204,216673,2,0,B|48:204,2,55,2|8|4,0:0|0:0|0:0,0:0:0
256,192,217219,12,0,224128,0:0:0
