osu file format v11

[General]
AudioFilename: haruhana2.mp3
AudioLeadIn: 2000
PreviewTime: 142401
Countdown: 0
SampleSet: Soft
StackLeniency: 0.7
Mode: 0
LetterboxInBreaks: 0

[Editor]
Bookmarks: 23764,47037,58673,84855,90673,96492,108128,131401,143037,179401,195401,207037,217037
DistanceSpacing: 1.2
BeatDivisor: 4
GridSize: 4

[Metadata]
Title:Haru Hana no Iro -Reboot Ver.-
TitleUnicode:Haru Hana no Iro -Reboot Ver.-
Artist:Rita
ArtistUnicode:Rita
Creator:Frostmourne
Version:Hard
Source:Haruharo!
Tags:meaning bossandy fanzhen0019 Niva Mixagji blueberry yoghurt yogurt propeller cancelled remix collab boss
BeatmapID:178096
BeatmapSetID:53785

[Difficulty]
HPDrainRate:5
CircleSize:4
OverallDifficulty:5
ApproachRate:7
SliderMultiplier:1.3
SliderTickRate:1

[Events]
//Background and Video events
0,0,"UKSNw.jpg"
//Break Periods
2,12328,19955
2,85055,89773
2,169419,177046
//Storyboard Layer 0 (Background)
//Storyboard Layer 1 (Fail)
//Storyboard Layer 2 (Pass)
//Storyboard Layer 3 (Foreground)
//Storyboard Sound Samples
//Background Colour Transformations
3,100,163,162,255

[TimingPoints]
492,363.636363636364,4,2,1,80,1,0
23037,-100,4,2,1,50,0,0
23764,-100,4,2,1,70,0,0
47037,-100,4,2,1,70,0,0
57219,-100,4,2,1,80,0,0
58673,-100,4,2,1,85,0,1
84492,-100,4,2,1,85,0,1
84855,-100,4,2,1,70,0,0
90673,-100,4,2,1,60,0,0
90946,-100,4,2,1,40,0,0
91037,-100,4,2,1,60,0,0
96492,-100,4,2,1,70,0,0
107401,-100,4,2,1,50,0,0
108128,-100,4,2,1,55,0,0
131401,-100,4,2,1,70,0,0
141492,-100,4,2,1,55,0,0
142128,-100,4,2,1,50,0,0
142310,-100,4,2,1,60,0,0
142492,-100,4,2,1,70,0,0
143037,-100,4,2,1,85,0,1
169219,-100,4,2,1,70,0,0
177946,-100,4,2,1,20,0,0
178310,-100,4,2,1,40,0,0
178673,-100,4,2,1,60,0,0
179037,-100,4,2,1,80,0,0
180855,-100,4,2,1,85,0,1
195401,-100,4,2,1,85,0,0
217037,-100,4,2,1,80,0,1
217219,-100,4,2,1,70,0,0
217946,-100,4,2,1,60,0,0
218673,-100,4,2,1,50,0,0
219401,-100,4,2,1,40,0,0
220128,-100,4,2,1,30,0,0
220855,-100,4,2,1,20,0,0
221582,-100,4,2,1,5,0,0

[Colours]
Combo1 : 192,192,192
Combo2 : 255,255,0
Combo3 : 255,128,0
SliderBorder : 255,255,255

[HitObjects]
252,272,492,6,0,B|292:332|380:316,1,130,4|10,0:0|0:0,0:0:0
444,320,1037,1,8,0:0:0
468,164,1401,2,0,B|472:96,1,65,2|8,0:0|0:0,0:0:0
420,44,1764,1,0,0:0:0
348,80,1946,2,0,B|296:124|224:88,1,130,10|2,0:0|0:0,0:0:0
80,36,2673,1,2,0:0:0
112,188,3037,1,2,0:0:0
52,332,3401,6,0,B|152:368|232:284,2,195,8|10|8,0:0|0:0|0:0,0:0:0
112,188,4855,2,0,B|100:112|32:96,2,130,8|2|8,0:0|0:0|0:0,0:0:0
60,248,5764,1,2,0:0:0
104,312,5946,1,0,0:0:0
178,290,6128,1,8,0:0:0
184,212,6310,6,0,B|232:156|307:165,1,130,4|2,0:0|0:0,0:0:0
368,200,6855,2,0,B|396:224|432:212,1,65,8|0,0:0|0:0,0:0:0
440,136,7219,2,0,B|440:68,1,65,2|8,0:0|0:0,0:0:0
400,292,7764,6,0,B|332:312|276:264,1,130,8|2,0:0|0:0,0:0:0
204,288,8310,1,8,0:0:0
132,324,8492,2,0,B|92:260|124:200,2,130,2|2|10,0:0|0:0|0:0,0:0:0
256,192,9582,5,2,0:0:0
256,192,9764,1,8,0:0:0
412,200,10128,1,2,0:0:0
412,200,10310,1,8,0:0:0
288,108,10673,5,2,0:0:0
288,108,10855,2,0,B|228:72|148:120,1,130,2|2,0:0|0:0,0:0:0
163,111,11401,2,0,B|40:72,1,130,2|0,0:0|0:0,0:0:0
40,252,12128,5,4,0:0:0
256,192,20855,12,8,22673,0:0:0
328,196,23037,5,8,0:0:0
328,196,23401,1,8,0:0:0
192,268,23764,6,0,B|120:268|80:212,1,130,4|8,0:0|0:0,0:0:0
48,140,24310,1,2,0:0:0
128,136,24492,2,0,B|184:164|264:148,1,130,0|8,0:0|0:0,0:0:0
312,96,25037,1,2,0:0:0
388,116,25219,2,0,B|456:152|512:104,1,130,0|8,0:0|0:0,0:0:0
476,36,25764,1,2,0:0:0
376,200,26128,5,2,0:0:0
340,268,26310,2,0,B|340:336,2,65,8|2|0,0:0|0:0|0:0,0:0:0
280,216,26855,6,0,B|152:176,1,130,2|0,0:0|0:0,0:0:0
84,148,27401,1,2,0:0:0
84,148,27582,1,2,0:0:0
104,72,27764,1,8,0:0:0
104,72,27946,2,0,B|164:32|240:48,1,130,2|2,0:0|0:0,0:0:0
296,84,28492,2,0,B|384:72,1,65,8|2,0:0|0:0,0:0:0
436,212,29037,5,0,0:0:0
384,152,29219,2,0,B|248:172,1,130,8|4,0:0|0:0,0:0:0
220,240,29764,6,0,B|184:244|160:212,2,65,2|8|2,0:0|0:0|0:0,0:0:0
256,88,30492,2,0,B|256:24,2,65,2|8|2,0:0|0:0|0:0,0:0:0
412,72,31219,2,0,B|448:68|472:100,1,65,2|8,0:0|0:0,0:0:0
480,172,31582,2,0,B|496:268|424:353,1,195,2|8,0:0|0:0,0:0:0
288,280,32492,1,2,0:0:0
216,308,32673,6,0,B|144:256,1,65,2|8,0:0|0:0,0:0:0
88,296,33037,2,0,B|72:232,1,65,2|0,0:0|0:0,0:0:0
36,164,33401,2,0,B|68:144|108:160,2,65,2|8|2,0:0|0:0|0:0,0:0:0
13,88,33946,6,0,B|81:60|149:96,1,130,4|2,0:0|0:0,0:0:0
284,148,34673,2,0,B|352:168|412:120,2,130,2|2|4,0:0|0:0|0:0,0:0:0
252,76,35582,5,2,0:0:0
200,136,35764,1,8,0:0:0
212,212,35946,2,0,B|216:244|248:268,1,65,2|2,0:0|0:0,0:0:0
320,240,36310,2,0,B|396:236,1,65,2|8,0:0|0:0,0:0:0
456,204,36673,1,2,0:0:0
456,204,36855,6,0,B|488:140|464:72,1,130,2|8,0:0|0:0,0:0:0
392,52,37401,2,0,B|320:56|256:32,1,130,2|2,0:0|0:0,0:0:0
188,40,37946,1,8,0:0:0
72,144,38310,1,0,0:0:0
104,216,38492,6,0,B|124:244|180:240,1,65,2|8,0:0|0:0,0:0:0
236,208,38855,2,0,B|236:132,1,65,2|0,0:0|0:0,0:0:0
300,96,39219,2,0,B|344:96|372:144,1,65,2|8,0:0|0:0,0:0:0
416,172,39582,1,2,0:0:0
476,120,39764,5,2,0:0:0
496,196,39946,2,0,B|460:252,1,65,2|8,0:0|0:0,0:0:0
416,316,40310,2,0,B|320:340|228:288,1,195,2|8,0:0|0:0,0:0:0
232,132,41219,1,4,0:0:0
300,96,41401,6,0,B|316:64|296:20,2,65,2|8|2,0:0|0:0|0:0,0:0:0
232,132,41946,1,0,0:0:0
164,96,42128,2,0,B|84:100,1,65,2|8,0:0|0:0,0:0:0
48,160,42492,2,0,B|80:224|164:220,1,130,2|2,0:0|0:0,0:0:0
232,216,43037,1,8,0:0:0
304,184,43219,6,0,B|360:144|432:160,1,130,2|2,0:0|0:0,0:0:0
427,159,43764,2,0,B|460:88,1,65,8|2,0:0|0:0,0:0:0
476,256,44310,6,0,B|392:260,1,65,2|8,0:0|0:0,0:0:0
360,320,44673,2,0,B|280:292,1,65,2|2,0:0|0:0,0:0:0
220,308,45037,2,0,B|140:316,1,65,2|8,0:0|0:0,0:0:0
76,324,45401,6,2,B|24:276|44:200,1,130,2|2,0:0|0:0,0:0:0
108,160,45946,1,8,0:0:0
160,220,46128,2,0,B|255:249|351:185,1,195,2|8,0:0|0:0,0:0:0
420,52,47037,5,4,0:0:0
264,56,47401,2,0,B|196:52|124:80,1,130,10|2,0:0|0:0,0:0:0
64,108,47946,1,0,0:0:0
24,176,48128,1,10,0:0:0
176,148,48492,6,0,B|260:132,1,65,2|0,0:0|0:0,0:0:0
316,128,48855,1,10,0:0:0
312,204,49037,2,0,B|184:228,1,130,2|2,0:0|0:0,0:0:0
108,236,49582,1,10,0:0:0
112,316,49764,2,0,B|156:372,1,65,2|2,0:0|0:0,0:0:0
292,292,50310,6,0,B|365:292|403:219,1,130,10|2,0:0|0:0,0:0:0
283,85,51037,2,0,B|209:84|171:157,1,130,10|2,0:0|0:0,0:0:0
212,216,51582,6,0,B|288:188,1,65,2|10,0:0|0:0,0:0:0
344,160,51946,2,0,B|404:36,2,130,2|10|10,0:0|0:0|0:0,0:0:0
408,208,52855,1,4,0:0:0
408,208,53219,6,0,B|448:268|412:344,1,130,10|2,0:0|0:0,0:0:0
284,244,53946,2,0,B|244:184|280:108,1,130,10|2,0:0|0:0,0:0:0
304,44,54492,2,0,B|220:44,1,65,2|10,0:0|0:0,0:0:0
176,92,54855,2,0,B|92:92,1,65,2|0,0:0|0:0,0:0:0
36,68,55219,2,0,B|8:128|32:196,1,130,8|8,0:0|0:0,0:0:0
92,244,55764,5,4,0:0:0
152,196,55946,2,0,B|208:152|288:168,1,130,2|2,0:0|0:0,0:0:0
352,152,56492,1,10,0:0:0
428,132,56673,2,0,B|488:80,1,65,2|8,0:0|0:0,0:0:0
424,32,57037,6,0,B|356:32,1,65,2|12,0:0|0:0,0:0:0
284,52,57401,2,0,B|200:52,1,65,2|12,0:0|0:0,0:0:0
144,32,57764,2,0,B|80:60|72:144,1,130,8|8,0:0|0:0,0:0:0
112,200,58310,1,8,0:0:0
188,224,58492,1,2,0:0:0
264,244,58673,6,0,B|336:256|384:200,1,130,4|8,0:0|0:0,0:0:0
460,204,59219,2,0,B|492:76,1,130,0|2,0:0|0:0,0:0:0
416,56,59764,1,8,0:0:0
344,84,59946,2,0,B|284:116|216:84,1,130,2|2,0:0|0:0,0:0:0
148,52,60492,1,8,0:0:0
148,128,60673,2,0,B|148:200|84:240,1,130,2|2,0:0|0:0,0:0:0
36,180,61219,1,8,0:0:0
36,180,61401,2,0,B|232:168,1,195,2|8,0:0|0:0,0:0:0
420,208,62310,6,0,B|468:156|445:81,1,130,2|8,0:0|0:0,0:0:0
264,12,63037,2,0,B|216:64|239:139,1,130,2|8,0:0|0:0,0:0:0
304,176,63582,5,0,0:0:0
328,248,63764,2,0,B|360:320,1,65,2|0,0:0|0:0,0:0:0
424,348,64128,2,0,B|488:348,2,65,8|2|4,0:0|0:0|0:0,0:0:0
240,280,64855,6,0,B|196:272|172:312,1,65,8|2,0:0|0:0,0:0:0
128,244,65219,2,0,B|91:269|102:314,1,65,2|2,0:0|0:0,0:0:0
24,308,65582,2,0,B|24:240,1,65,8|2,0:0|0:0,0:0:0
72,180,65946,6,0,B|132:148|204:168,1,130,0|8,0:0|0:0,0:0:0
372,252,66673,1,2,0:0:0
372,252,67037,1,8,0:0:0
456,76,67401,6,0,B|400:36|308:56,1,130,2|8,0:0|0:0,0:0:0
336,128,67946,2,0,B|204:164,1,130,2|0,0:0|0:0,0:0:0
216,84,68492,1,8,0:0:0
216,84,68673,1,2,0:0:0
260,20,68855,6,0,B|200:60|136:24,1,130,4|8,0:0|0:0,0:0:0
72,100,69401,1,10,0:0:0
72,100,69764,2,0,B|92:237,1,130,10|8,0:0|0:0,0:0:0
148,284,70310,6,0,B|204:240|280:260,1,130,4|8,0:0|0:0,0:0:0
348,272,70855,2,0,B|408:220|376:132,1,130,2|2,0:0|0:0,0:0:0
356,80,71401,1,8,0:0:0
280,60,71582,2,0,B|212:36|148:80,1,130,2|2,0:0|0:0,0:0:0
96,124,72128,1,8,0:0:0
168,156,72310,2,0,B|304:156,1,130,2|2,0:0|0:0,0:0:0
376,156,72855,2,0,B|460:156,2,65,8|2|0,0:0|0:0|0:0,0:0:0
168,156,73582,6,0,B|136:216|176:296,2,130,8|2|8,0:0|0:0|0:0,0:0:0
336,60,74673,2,0,B|408:40|464:84,1,130,2|8,0:0|0:0,0:0:0
436,276,75401,2,0,B|404:336|328:344,1,130,2|8,0:0|0:0,0:0:0
264,304,75946,2,0,B|248:216,1,65,2|4,0:0|0:0,0:0:0
256,192,76310,12,4,79037,0:0:0
368,304,79401,6,0,B|300:332|236:288,1,130,8|2,0:0|0:0,0:0:0
168,308,79946,1,2,0:0:0
152,232,80128,1,8,0:0:0
228,212,80310,2,0,B|368:192,1,130,2|2,0:0|0:0,0:0:0
420,240,80855,2,0,B|468:192|448:116,1,130,8|2,0:0|0:0,0:0:0
308,52,81582,1,8,0:0:0
244,96,81764,1,2,0:0:0
172,128,81946,6,0,B|96:120|76:44,2,130,4|8|0,0:0|0:0|0:0,0:0:0
308,52,83037,1,8,0:0:0
256,192,83401,12,4,84855,0:0:0
350,205,90673,6,0,B|283:226,1,65,4|2,0:0|0:0,0:0:0
244,288,91037,2,0,B|192:304|152:268,1,97.5,8|8,0:0|0:0,0:0:0
84,304,91492,2,0,B|56:204,1,97.5,8|10,0:0|0:0,0:0:0
72,132,91946,1,0,0:0:0
148,108,92128,6,0,B|200:68|284:88,1,130,8|10,0:0|0:0,0:0:0
424,204,92855,2,0,B|372:244|288:224,1,130,8|10,0:0|0:0,0:0:0
104,212,93582,6,0,B|116:280|184:316,1,130,4|8,0:0|0:0,0:0:0
252,336,94128,2,0,B|400:332,1,130,4|8,0:0|0:0,0:0:0
444,284,94673,1,4,0:0:0
256,192,94855,12,4,96492,0:0:0
173,232,96855,5,8,0:0:0
324,264,97219,1,2,0:0:0
324,264,97401,1,2,0:0:0
368,328,97582,1,8,0:0:0
400,256,97764,2,0,B|456:212|448:132,1,130,2|0,0:0|0:0,0:0:0
416,72,98310,1,8,0:0:0
340,96,98492,6,0,B|312:32,1,65,0|2,0:0|0:0,0:0:0
236,36,98855,2,0,B|224:116,1,65,2|8,0:0|0:0,0:0:0
148,116,99219,2,0,B|95:39,1,65,2|0,0:0|0:0,0:0:0
124,256,99764,5,8,0:0:0
200,232,99946,1,0,0:0:0
276,216,100128,2,0,B|304:196|344:208,1,65,2|2,0:0|0:0,0:0:0
320,284,100492,1,8,0:0:0
368,344,100673,6,0,B|432:292|416:208,1,130,2|2,0:0|0:0,0:0:0
420,152,101219,1,8,0:0:0
284,76,101582,2,0,B|208:52,2,65,8|2|8,0:0|0:0|0:0,0:0:0
440,96,102310,6,0,B|424:168|348:196,1,130,4|8,0:0|0:0,0:0:0
284,172,102855,1,0,0:0:0
208,196,103037,2,0,B|196:128,1,65,2|2,0:0|0:0,0:0:0
120,132,103401,1,8,0:0:0
44,152,103582,6,0,B|76:344,1,195,2|8,0:0|0:0,0:0:0
228,304,104492,1,2,0:0:0
304,292,104673,1,2,0:0:0
376,320,104855,1,8,0:0:0
156,272,105219,6,0,B|120:212|152:144,2,130,0|8|2,0:0|0:0|0:0,0:0:0
228,304,106128,1,2,0:0:0
304,292,106310,1,8,0:0:0
376,320,106492,2,0,B|464:260|432:140,1,195,2|8,0:0|0:0,0:0:0
356,152,107219,6,0,B|352:76,1,65,2|8,0:0|0:0,0:0:0
280,116,107582,2,0,B|256:40,1,65,2|12,0:0|0:0,0:0:0
104,44,108128,6,0,B|56:88|72:168,1,130,4|8,0:0|0:0,0:0:0
100,236,108673,2,0,B|168:236,1,65,2|2,0:0|0:0,0:0:0
240,212,109037,2,0,B|300:177|376:209,1,130,2|2,0:0|0:0,0:0:0
432,244,109582,6,0,B|412:327,1,65,2|2,0:0|0:0,0:0:0
344,280,109946,1,8,0:0:0
365,204,110128,2,0,B|396:76,1,130,2|2,0:0|0:0,0:0:0
395,78,110673,1,8,0:0:0
244,36,111037,1,0,0:0:0
188,88,111219,6,0,B|152:80|140:44,1,65,2|8,0:0|0:0,0:0:0
68,80,111582,2,0,B|48:48|65:14,2,65,2|2|2,0:0|0:0|0:0,0:0:0
68,80,112128,1,8,0:0:0
124,136,112310,2,0,B|100:168|56:156,1,65,2|2,0:0|0:0,0:0:0
32,228,112673,6,0,B|32:268|68:296,1,65,2|8,0:0|0:0,0:0:0
136,296,113037,2,0,B|224:244|328:272,1,195,2|8,0:0|0:0,0:0:0
432,160,113946,1,4,0:0:0
476,224,114128,6,0,B|448:248|412:236,1,65,2|8,0:0|0:0,0:0:0
352,188,114492,2,0,B|292:64,1,130,2|2,0:0|0:0,0:0:0
295,70,115037,1,8,0:0:0
295,70,115219,2,0,B|232:112|160:60,1,130,2|2,0:0|0:0,0:0:0
173,68,115764,1,8,0:0:0
173,68,115946,2,0,B|235:193,1,130,2|2,0:0|0:0,0:0:0
231,185,116492,2,0,B|184:234,1,65,8|2,0:0|0:0,0:0:0
100,100,117037,6,0,B|84:68|100:36,1,65,2|8,0:0|0:0,0:0:0
172,68,117401,2,0,B|236:68,1,65,2|2,0:0|0:0,0:0:0
316,68,117764,2,0,B|400:68,2,65,2|8|2,0:0|0:0|0:0,0:0:0
332,144,118310,5,4,0:0:0
404,172,118492,2,0,B|440:180|472:156,1,65,2|8,0:0|0:0,0:0:0
496,232,118855,2,0,B|436:264|368:244,1,130,10|8,0:0|0:0,0:0:0
292,240,119401,2,0,B|256:236|232:264,1,65,8|2,0:0|0:0,0:0:0
292,316,119764,1,4,0:0:0
220,340,119946,6,0,B|144:340,1,65,2|8,0:0|0:0,0:0:0
88,300,120310,2,0,B|88:232,1,65,2|2,0:0|0:0,0:0:0
140,176,120673,2,0,B|212:176,1,65,2|8,0:0|0:0,0:0:0
205,176,121037,1,2,0:0:0
260,120,121219,6,0,B|324:92|392:120,1,130,2|8,0:0|0:0,0:0:0
396,196,121764,2,0,B|404:272|480:304,1,130,2|0,0:0|0:0,0:0:0
466,297,122310,1,8,0:0:0
508,148,122673,1,0,0:0:0
488,72,122855,6,0,B|472:40|432:36,1,65,2|8,0:0|0:0,0:0:0
360,32,123219,2,0,B|292:32,1,65,2|2,0:0|0:0,0:0:0
220,16,123582,2,0,B|197:84,1,65,2|8,0:0|0:0,0:0:0
268,112,123946,1,2,0:0:0
268,112,124128,6,0,B|336:144,1,65,2|2,0:0|0:0,0:0:0
296,212,124492,2,0,B|208:228,1,65,8|2,0:0|0:0,0:0:0
128,108,125037,1,2,0:0:0
128,108,125219,1,8,0:0:0
128,108,125401,2,0,B|108:80|116:40,1,65,0|4,0:0|0:0,0:0:0
192,40,125764,6,0,B|264:24,1,65,2|8,0:0|0:0,0:0:0
255,25,126128,2,0,B|324:12|384:60,1,130,2|2,0:0|0:0,0:0:0
428,112,126673,1,8,0:0:0
428,112,126855,2,0,B|410:180|462:232,1,130,2|2,0:0|0:0,0:0:0
504,168,127401,1,8,0:0:0
504,168,127582,2,0,B|360:180,1,130,2|2,0:0|0:0,0:0:0
300,148,128128,1,8,0:0:0
300,148,128310,2,0,B|240:112|172:152,1,130,2|2,0:0|0:0,0:0:0
100,160,128855,6,0,B|100:72,1,65,8|2,0:0|0:0,0:0:0
164,52,129219,2,0,B|248:32,1,65,2|2,0:0|0:0,0:0:0
304,51,129582,2,0,B|388:51,1,65,8|2,0:0|0:0,0:0:0
448,64,129946,1,4,0:0:0
256,192,130128,12,4,131401,0:0:0
333,280,131764,6,0,B|256:288|224:212,1,130,10|2,0:0|0:0,0:0:0
296,80,132492,1,10,0:0:0
368,104,132673,1,0,0:0:0
436,64,132855,6,0,B|472:76|472:120,1,65,2|2,0:0|0:0,0:0:0
440,184,133219,1,10,0:0:0
360,184,133401,2,0,B|232:140,1,130,2|2,0:0|0:0,0:0:0
296,80,133946,1,10,0:0:0
368,104,134128,1,2,0:0:0
436,64,134310,1,0,0:0:0
232,36,134673,6,0,B|160:28|108:84,2,130,10|2|10,0:0|0:0|0:0,0:0:0
240,244,135764,1,2,0:0:0
316,220,135946,6,0,B|348:204|384:216,1,65,2|10,0:0|0:0,0:0:0
416,284,136310,2,0,B|384:300|348:288,1,65,2|0,0:0|0:0,0:0:0
280,316,136673,1,2,0:0:0
204,340,136855,2,0,B|172:320|168:280,1,65,10|2,0:0|0:0,0:0:0
168,208,137219,1,4,0:0:0
168,208,137582,6,0,B|168:72,2,130,10|2|10,0:0|0:0|0:0,0:0:0
280,316,138673,2,0,B|312:316|340:288,1,65,2|2,0:0|0:0,0:0:0
280,236,139037,1,10,0:0:0
248,164,139219,1,0,0:0:0
200,104,139401,2,0,B|172:84|132:96,1,65,2|2,0:0|0:0,0:0:0
160,168,139764,1,10,0:0:0
80,348,140128,6,0,B|52:324|60:288,1,65,4|2,0:0|0:0,0:0:0
136,296,140492,1,10,0:0:0
192,244,140673,2,0,B|220:268|212:304,1,65,2|2,0:0|0:0,0:0:0
288,312,141037,1,2,0:0:0
288,312,141219,2,0,B|290:348|259:368,1,65,10|2,0:0|0:0,0:0:0
356,376,141582,6,0,B|384:312|356:248,1,130,12|12,0:0|0:0,0:0:0
296,200,142128,2,0,B|264:136,1,65,10|0,0:0|0:0,0:0:0
344,128,142492,2,0,B|372:148|412:136,1,65,2|8,0:0|0:0,0:0:0
384,64,142855,1,2,0:0:0
384,64,143037,6,0,B|329:25|249:49,1,130,4|8,0:0|0:0,0:0:0
204,96,143582,2,0,B|136:124|76:72,1,130,2|2,0:0|0:0,0:0:0
132,16,144128,1,8,0:0:0
82,77,144310,2,0,B|52:136|80:212,1,130,2|2,0:0|0:0,0:0:0
152,184,144855,1,8,0:0:0
77,203,145037,2,0,B|104:344,1,130,2|2,0:0|0:0,0:0:0
24,324,145582,1,8,0:0:0
101,331,145764,2,0,B|168:384|212:260|300:308,1,195,2|8,0:0|0:0,0:0:0
440,188,146673,6,0,B|476:124|444:60,1,130,2|8,0:0|0:0,0:0:0
256,156,147401,2,0,B|220:220|252:284,1,130,2|8,0:0|0:0,0:0:0
344,92,148128,1,2,0:0:0
344,92,148310,1,0,0:0:0
344,92,148492,2,0,B|280:44,1,65,8|2,0:0|0:0,0:0:0
216,32,148855,1,4,0:0:0
116,184,149219,6,0,B|48:160,2,65,8|2|0,0:0|0:0|0:0,0:0:0
156,264,149764,2,0,B|144:300|96:308,2,65,2|8|2,0:0|0:0|0:0,0:0:0
116,184,150310,2,0,B|88:116|128:52,1,130,2|8,0:0|0:0,0:0:0
304,28,151037,1,2,0:0:0
424,172,151401,1,8,0:0:0
328,324,151764,6,0,B|260:344|204:296,1,130,2|8,0:0|0:0,0:0:0
224,220,152310,2,0,B|292:200|348:248,1,130,2|2,0:0|0:0,0:0:0
345,245,152855,1,8,0:0:0
404,300,153037,2,0,B|432:276|428:232,1,65,2|4,0:0|0:0,0:0:0
256,192,153401,12,4,154673,0:0:0
133,146,155037,5,8,0:0:0
196,196,155219,2,0,B|216:264|168:316,1,130,2|2,0:0|0:0,0:0:0
96,288,155764,1,8,0:0:0
96,288,155946,2,0,B|224:340,1,130,2|2,0:0|0:0,0:0:0
284,296,156492,1,8,0:0:0
356,320,156673,2,0,B|424:292|428:200,1,130,2|2,0:0|0:0,0:0:0
500,252,157219,1,8,0:0:0
492,176,157401,2,0,B|447:117|357:137,1,130,2|2,0:0|0:0,0:0:0
328,196,157946,5,8,0:0:0
260,156,158128,1,0,0:0:0
216,92,158310,2,0,B|192:60|204:20,1,65,2|0,0:0|0:0,0:0:0
280,24,158673,2,0,B|304:56|292:96,1,65,8|0,0:0|0:0,0:0:0
260,156,159037,2,0,B|239:218|164:232,1,130,2|8,0:0|0:0,0:0:0
100,188,159582,1,0,0:0:0
100,188,159764,1,2,0:0:0
64,256,159946,2,0,B|28:248|24:208,1,65,0|8,0:0|0:0,0:0:0
28,132,160310,2,0,B|28:96,2,32.5,10|8|4,0:0|0:0|0:0,0:0:0
120,320,160855,5,8,0:0:0
120,320,161037,2,0,B|172:364|244:344,1,130,2|0,0:0|0:0,0:0:0
308,300,161582,1,8,0:0:0
384,296,161764,2,0,B|444:248,1,65,2|0,0:0|0:0,0:0:0
372,208,162128,2,0,B|376:136,1,65,0|8,0:0|0:0,0:0:0
296,156,162492,2,0,B|264:96,1,65,8|2,0:0|0:0,0:0:0
204,148,162855,2,0,B|136:120,1,65,8|10,0:0|0:0,0:0:0
124,280,163401,1,4,0:0:0
276,312,163764,6,0,B|304:288|344:296,1,65,8|2,0:0|0:0,0:0:0
408,260,164128,2,0,B|396:228|360:220,1,65,2|2,0:0|0:0,0:0:0
280,216,164492,1,8,0:0:0
208,244,164673,2,0,B|148:204|152:116,1,130,2|2,0:0|0:0,0:0:0
152,56,165219,1,8,0:0:0
152,56,165582,2,0,B|184:32|241:43,1,65,2|2,0:0|0:0,0:0:0
292,60,165946,1,8,0:0:0
292,60,166128,2,0,B|368:64,1,65,2|4,0:0|0:0,0:0:0
456,184,166673,6,0,B|492:248|444:312,2,130,8|2|8,0:0|0:0|0:0,0:0:0
256,192,167764,12,4,169219,0:0:0
256,192,177946,12,4,179401,0:0:0
256,192,179764,5,8,0:0:0
68,52,180310,1,8,0:0:0
68,52,180492,1,2,0:0:0
68,52,180673,1,8,0:0:0
140,84,180855,6,0,B|204:112|272:72,1,130,4|8,0:0|0:0,0:0:0
336,44,181401,1,2,0:0:0
412,64,181582,1,0,0:0:0
484,28,181764,2,0,B|504:60|480:100,2,65,2|8|2,0:0|0:0|0:0,0:0:0
412,64,182310,1,0,0:0:0
396,140,182492,6,0,B|360:148|336:120,2,65,2|8|2,0:0|0:0|0:0,0:0:0
472,164,183037,1,0,0:0:0
460,240,183219,2,0,B|468:280|504:288,2,65,2|8|2,0:0|0:0|0:0,0:0:0
384,220,183764,1,2,0:0:0
392,296,183946,1,0,0:0:0
392,296,184128,6,0,B|336:340|260:300,1,130,8|2,0:0|0:0,0:0:0
100,108,184855,2,0,B|156:64|232:104,1,130,8|2,0:0|0:0,0:0:0
276,156,185401,5,0,0:0:0
308,84,185582,2,0,B|348:96|352:140,1,65,8|0,0:0|0:0,0:0:0
340,208,185946,1,2,0:0:0
264,232,186128,2,0,B|200:216,1,65,2|8,0:0|0:0,0:0:0
124,216,186492,2,0,B|92:192,2,32.5,8|8|4,0:0|0:0|0:0,0:0:0
256,192,186855,12,4,189582,0:0:0
112,184,189946,6,0,B|108:108|172:72,1,130,8|2,0:0|0:0,0:0:0
244,100,190492,2,0,B|304:128|380:104,1,130,2|2,0:0|0:0,0:0:0
440,144,191037,2,0,B|472:204|440:272,1,130,2|8,0:0|0:0,0:0:0
256,340,191764,2,0,B|224:280|256:212,1,130,2|8,0:0|0:0,0:0:0
316,72,192492,1,4,0:0:0
256,192,192673,12,4,193946,0:0:0
160,320,194310,6,0,B|256:368|352:320,2,195,8|12|4,0:0|0:0|0:0,0:0:0
116,172,195764,5,8,0:0:0
116,172,195946,1,0,0:0:0
116,172,196128,2,0,B|88:104|128:48,1,130,2|8,0:0|0:0,0:0:0
192,92,196673,2,0,B|248:136|336:104,1,130,2|0,0:0|0:0,0:0:0
376,64,197219,1,8,0:0:0
376,64,197401,1,2,0:0:0
376,64,197582,2,0,B|320:104|336:180,1,130,0|8,0:0|0:0,0:0:0
396,232,198128,1,2,0:0:0
416,308,198310,6,0,B|328:308,1,65,2|0,0:0|0:0,0:0:0
280,336,198673,2,0,B|264:300|284:268,1,65,8|0,0:0|0:0,0:0:0
208,244,199037,2,0,B|222:207|258:198,1,65,2|2,0:0|0:0,0:0:0
320,160,199401,1,8,0:0:0
252,124,199582,1,2,0:0:0
176,148,199764,6,0,B|112:124,1,65,0|2,0:0|0:0,0:0:0
64,184,200128,2,0,B|20:120,1,65,8|0,0:0|0:0,0:0:0
44,56,200492,2,0,B|72:36|112:52,1,65,2|2,0:0|0:0,0:0:0
184,68,200855,2,0,B|236:20|308:36,1,130,8|4,0:0|0:0,0:0:0
436,120,201582,5,8,0:0:0
360,256,201946,1,2,0:0:0
204,280,202310,1,8,0:0:0
204,280,202492,2,0,B|120:240,1,65,2|0,0:0|0:0,0:0:0
72,280,202855,2,0,B|56:240|80:204,1,65,2|8,0:0|0:0,0:0:0
124,156,203219,2,0,B|172:112,2,65,0|2|2,0:0|0:0|0:0,0:0:0
124,156,203764,1,8,0:0:0
268,216,204128,6,0,B|340:204|372:128,2,130,2|8|2,0:0|0:0|0:0,0:0:0
244,140,205037,2,0,B|284:80,1,65,2|8,0:0|0:0,0:0:0
356,64,205401,2,0,B|428:64,1,65,2|0,0:0|0:0,0:0:0
460,132,205764,5,2,0:0:0
468,208,205946,1,8,0:0:0
452,284,206128,2,0,B|436:356,1,65,2|8,0:0|0:0,0:0:0
360,332,206492,2,0,B|376:260,1,65,0|12,0:0|0:0,0:0:0
408,116,207037,5,4,0:0:0
284,24,207401,1,8,0:0:0
220,67,207582,2,0,B|184:71|160:39,1,65,0|2,0:0|0:0,0:0:0
88,60,207946,1,2,0:0:0
88,60,208128,1,8,0:0:0
36,120,208310,6,0,B|4:184|40:256,1,130,2|0,0:0|0:0,0:0:0
84,304,208855,1,8,0:0:0
240,324,209219,2,0,B|308:324,1,65,2|2,0:0|0:0,0:0:0
380,296,209582,1,8,0:0:0
452,260,209764,6,0,B|452:184,1,65,2|2,0:0|0:0,0:0:0
376,184,210128,2,0,B|376:112,1,65,0|8,0:0|0:0,0:0:0
320,64,210492,2,0,B|280:116,1,65,0|2,0:0|0:0,0:0:0
280,192,210855,2,0,B|320:244,1,65,2|8,0:0|0:0,0:0:0
284,312,211219,6,0,B|216:328|160:272,1,130,2|2,0:0|0:0,0:0:0
88,272,211764,2,0,B|100:200,1,65,8|2,0:0|0:0,0:0:0
176,200,212128,2,0,B|196:132,1,65,8|0,0:0|0:0,0:0:0
264,104,212492,2,0,B|324:68|396:96,1,130,8|4,0:0|0:0,0:0:0
464,232,213219,5,8,0:0:0
432,304,213401,1,0,0:0:0
432,304,213582,2,0,B|400:320|360:304,1,65,2|2,0:0|0:0,0:0:0
316,248,213946,1,8,0:0:0
260,304,214128,6,0,B|112:280,1,130,4|8,0:0|0:0,0:0:0
131,283,214673,1,8,0:0:0
100,212,214855,1,0,0:0:0
176,204,215037,2,0,B|212:140|156:72,1,130,8|8,0:0|0:0,0:0:0
260,204,215764,6,0,B|348:256|457:194,2,195,4|8|10,0:0|0:0|0:0,0:0:0
256,124,217037,1,4,0:0:0
256,192,217219,12,0,224128,0:0:0
