osu file format v11

[General]
AudioFilename: haruhana2.mp3
AudioLeadIn: 2000
PreviewTime: 142401
Countdown: 0
SampleSet: Soft
StackLeniency: 0.7
Mode: 0
LetterboxInBreaks: 0

[Editor]
DistanceSpacing: 1.1
BeatDivisor: 4
GridSize: 4

[Metadata]
Title:Haru Hana no Iro -Reboot Ver.-
TitleUnicode:Haru Hana no Iro -Reboot Ver.-
Artist:Rita
ArtistUnicode:Rita
Creator:Frostmourne
Version:Easy
Source:Haruharo!
Tags:meaning bossandy fanzhen0019 Niva Mixagji blueberry yoghurt yogurt propeller cancelled remix collab boss
BeatmapID:199308
BeatmapSetID:53785

[Difficulty]
HPDrainRate:2
CircleSize:3
OverallDifficulty:1
ApproachRate:2
SliderMultiplier:0.8
SliderTickRate:1

[Events]
//Background and Video events
0,0,"UKSNw.jpg"
//Break Periods
2,12328,20750
2,85055,89113
2,169418,176386
//Storyboard Layer 0 (Background)
//Storyboard Layer 1 (Fail)
//Storyboard Layer 2 (Pass)
//Storyboard Layer 3 (Foreground)
//Storyboard Sound Samples
//Background Colour Transformations
3,100,163,162,255

[TimingPoints]
492,363.636363636364,4,2,1,72,1,0
23764,-100,4,2,1,55,0,0
47037,-100,4,2,1,72,0,0
58673,-100,4,2,1,86,0,1
84855,-100,4,2,1,72,0,0
90673,-100,4,2,1,63,0,0
96492,-100,4,2,1,72,0,0
108128,-100,4,2,1,55,0,0
131401,-100,4,2,1,72,0,0
143037,-100,4,2,1,86,0,1
169219,-100,4,2,1,72,0,0
180855,-100,4,2,1,86,0,1
195401,-100,4,2,1,72,0,0
216855,-100,4,2,1,60,0,0
217219,-100,4,2,1,70,0,0
217946,-100,4,2,1,60,0,0
218673,-100,4,2,1,50,0,0
219401,-100,4,2,1,40,0,0
220128,-100,4,2,1,30,0,0
220855,-100,4,2,1,20,0,0
221582,-100,4,2,1,15,0,0
223037,-100,4,2,1,10,0,0
223764,-100,4,2,1,5,0,0

[Colours]
Combo1 : 192,192,192
Combo2 : 255,255,0
Combo3 : 255,128,0
SliderBorder : 255,255,255

[HitObjects]
144,328,492,2,0,B|256:400|372:332,1,240,12|8,0:0|0:0,0:0:0
428,268,1946,1,10,0:0:0
440,92,2673,1,2,0:0:0
292,188,3401,6,0,B|212:216|184:124|184:124|256:56,1,240,8|8,0:0|0:0,0:0:0
351,42,4855,1,10,0:0:0
384,216,5582,1,2,0:0:0
232,308,6310,5,12,0:0:0
152,152,7037,1,2,0:0:0
32,280,7764,1,8,0:0:0
88,112,8492,2,0,B|184:108|212:212,1,160,2|8,0:0|0:0,0:0:0
200,284,9582,5,2,0:0:0
48,192,10310,1,10,0:0:0
256,192,10673,12,4,12128,0:0:0
256,192,22310,12,4,23764,0:0:0
124,244,24855,5,8,0:0:0
296,288,25582,1,8,0:0:0
460,220,26310,2,0,B|488:144,1,80,8|2,0:0|0:0,0:0:0
416,96,27037,5,8,0:0:0
244,128,27764,1,8,0:0:0
72,164,28492,2,0,B|44:240,2,80,8|2|8,0:0|0:0|0:0,0:0:0
104,80,29582,5,4,0:0:0
276,44,30310,1,2,0:0:0
332,112,30673,2,0,B|408:140,2,80,8|2|8,0:0|0:0|0:0,0:0:0
160,156,32128,1,8,0:0:0
332,184,32855,5,8,0:0:0
268,244,33219,2,0,B|184:244,2,80,2|8|4,0:0|0:0|0:0,0:0:0
320,76,34673,1,2,0:0:0
472,164,35401,1,4,0:0:0
372,308,36128,6,0,B|296:352|220:308,2,160,2|2|2,0:0|0:0|0:0,0:0:0
300,148,38310,1,2,0:0:0
232,200,38673,5,8,0:0:0
408,200,39401,1,8,0:0:0
408,24,40128,1,8,0:0:0
244,92,40855,2,0,B|164:92,1,80,8|4,0:0|0:0,0:0:0
84,132,41582,6,0,B|32:204|80:300,3,160,8|8|8|8,0:0|0:0|0:0|0:0,0:0:0
244,248,44492,1,8,0:0:0
312,304,44855,1,2,0:0:0
396,280,45219,1,8,0:0:0
460,220,45582,5,4,0:0:0
384,60,46310,2,0,B|316:4|236:56,1,160,2|4,0:0|0:0,0:0:0
200,136,47401,6,0,B|132:80,1,80,10|2,0:0|0:0,0:0:0
56,240,48492,1,2,0:0:0
128,288,48855,1,8,0:0:0
300,320,49582,2,0,B|324:284|300:240,1,80,10|2,0:0|0:0,0:0:0
244,176,50310,6,0,B|208:152|164:176,2,80,8|2|8,0:0|0:0|0:0,0:0:0
332,160,51401,1,2,0:0:0
200,280,52128,1,2,0:0:0
72,160,52855,1,4,0:0:0
116,84,53219,6,0,B|188:32|284:68,1,160,10|10,0:0|0:0,0:0:0
360,212,54673,2,0,B|288:264|192:228,1,160,10|10,0:0|0:0,0:0:0
184,148,55764,1,4,0:0:0
60,272,56492,5,2,0:0:0
136,316,56855,1,10,0:0:0
224,308,57219,1,12,0:0:0
308,332,57582,2,0,B|364:320,1,40,10|10,0:0|0:0,0:0:0
432,220,58310,1,8,0:0:0
344,236,58673,6,0,B|300:208|264:204|264:204|172:224|120:168,1,240,4|10,0:0|0:0,0:0:0
152,88,60128,2,0,B|196:116|232:120|232:120|324:100|376:156,1,240,2|10,0:0|0:0,0:0:0
432,220,61582,1,2,0:0:0
388,296,61946,5,8,0:0:0
212,296,62673,1,8,0:0:0
36,296,63401,1,8,0:0:0
36,120,64128,1,8,0:0:0
92,188,64492,1,4,0:0:0
180,176,64855,6,0,B|252:120|336:168,2,160,8|8|8,0:0|0:0|0:0,0:0:0
44,292,67037,1,8,0:0:0
124,254,67401,2,0,B|201:298|273:242,1,160,2|2,0:0|0:0,0:0:0
236,72,68855,5,4,0:0:0
76,144,69582,1,2,0:0:0
236,72,70310,1,4,0:0:0
292,328,71401,6,0,B|364:384|448:336,2,160,8|8|8,0:0|0:0|0:0,0:0:0
304,240,73219,1,2,0:0:0
208,265,73582,2,0,B|120:265,1,80,8|2,0:0|0:0,0:0:0
116,176,74310,2,0,B|204:176,1,80,8|2,0:0|0:0,0:0:0
272,136,75037,5,8,0:0:0
104,88,75764,1,8,0:0:0
32,140,76128,1,4,0:0:0
256,192,76492,12,4,79037,0:0:0
328,292,80128,5,8,0:0:0
260,236,80492,2,0,B|172:236,1,80,2|8,0:0|0:0,0:0:0
97,203,81219,1,2,0:0:0
200,60,81946,1,4,0:0:0
248,132,82310,5,8,0:0:0
96,44,83037,1,8,0:0:0
256,192,83401,12,4,84855,0:0:0
152,210,90673,5,4,0:0:0
232,248,91037,1,10,0:0:0
400,192,91764,1,10,0:0:0
268,76,92492,1,10,0:0:0
232,248,93219,1,10,0:0:0
160,300,93582,6,0,B|28:292,3,120,4|4|4|4,0:0|0:0|0:0|0:0,0:0:0
120,88,96128,1,8,0:0:0
176,156,96492,6,0,B|240:212|332:176,1,160,4|2,0:0|0:0,0:0:0
372,104,97582,1,8,0:0:0
472,248,98310,1,8,0:0:0
328,352,99037,1,8,0:0:0
252,308,99401,6,0,B|188:252|96:288,2,160,2|2|2,0:0|0:0|0:0,0:0:0
396,204,101582,1,2,0:0:0
240,120,102310,1,4,0:0:0
164,76,102673,6,0,B|108:140|144:232,1,160,8|8,0:0|0:0,0:0:0
312,176,104128,1,8,0:0:0
260,344,104855,2,0,B|196:288,1,80,8|2,0:0|0:0,0:0:0
228,208,105582,5,8,0:0:0
396,152,106310,1,8,0:0:0
224,116,107037,1,8,0:0:0
140,148,107401,2,0,B|120:112|140:72,2,80,8|12|4,0:0|0:0|0:0,0:0:0
140,236,108492,5,8,0:0:0
304,172,109219,1,8,0:0:0
384,208,109582,2,0,B|448:60,2,160,2|2|2,0:0|0:0|0:0,0:0:0
332,280,111401,5,8,0:0:0
220,144,112128,1,8,0:0:0
160,208,112491,2,0,B|72:236|16:168,2,160,2|2|4,0:0|0:0|0:0,0:0:0
136,124,114310,5,8,0:0:0
152,300,115037,1,8,0:0:0
328,284,115764,1,8,0:0:0
316,108,116492,1,8,0:0:0
236,264,117219,6,0,B|148:292|92:224,1,160,8|8,0:0|0:0,0:0:0
76,136,118310,1,4,0:0:0
152,92,118673,1,2,0:0:0
292,196,119401,1,2,0:0:0
380,184,119764,1,4,0:0:0
444,124,120128,6,0,B|389:49|303:71,1,160,8|8,0:0|0:0,0:0:0
136,116,121582,1,8,0:0:0
188,284,122310,1,8,0:0:0
352,348,123037,6,0,B|426:293|404:207,1,160,8|8,0:0|0:0,0:0:0
360,40,124491,1,8,0:0:0
192,92,125219,1,8,0:0:0
240,164,125582,5,4,0:0:0
168,216,125946,2,0,B|113:141|27:163,1,160,8|8,0:0|0:0,0:0:0
124,312,127401,2,0,B|212:336|266:266,1,160,8|8,0:0|0:0,0:0:0
272,92,128855,5,8,0:0:0
144,212,129582,1,8,0:0:0
256,192,129946,12,4,131401,0:0:0
224,172,132492,5,10,0:0:0
140,196,132855,2,0,B|100:144|128:76,2,120,2|2|10,0:0|0:0|0:0,0:0:0
192,268,134310,1,2,0:0:0
276,244,134673,6,0,B|344:192|428:224,2,160,10|10|10,0:0|0:0|0:0,0:0:0
344,84,136855,1,8,0:0:0
268,128,137219,1,6,0:0:0
188,88,137582,6,0,B|104:88,2,80,10|2|10,0:0|0:0|0:0,0:0:0
268,128,138673,1,2,0:0:0
168,272,139401,1,2,0:0:0
92,224,139764,1,10,0:0:0
52,144,140128,1,4,0:0:0
88,64,140492,6,0,B|112:24|168:28,2,80,10|2|10,0:0|0:0|0:0,0:0:0
52,144,141582,1,12,0:0:0
92,224,141946,1,10,0:0:0
256,156,142673,1,8,0:0:0
336,120,143037,6,0,B|372:104|412:116|412:116|476:172|440:268,1,240,4|10,0:0|0:0,0:0:0
360,296,144492,2,0,B|316:268|280:264|280:264|188:284|136:228,1,240,2|10,0:0|0:0,0:0:0
80,164,145946,1,2,0:0:0
124,88,146310,5,8,0:0:0
300,88,147037,1,8,0:0:0
476,88,147765,1,8,0:0:0
476,264,148492,1,8,0:0:0
420,196,148856,1,4,0:0:0
332,208,149219,6,0,B|260:264|176:216,2,160,8|8|8,0:0|0:0|0:0,0:0:0
468,92,151401,1,8,0:0:0
388,130,151765,2,0,B|311:86|239:142,1,160,2|2,0:0|0:0,0:0:0
276,312,153219,5,4,0:0:0
436,240,153946,1,2,0:0:0
276,312,154674,1,4,0:0:0
220,56,155765,6,0,B|148:0|64:48,2,160,8|8|8,0:0|0:0|0:0,0:0:0
208,144,157583,1,2,0:0:0
304,119,157946,2,0,B|392:119,1,80,8|2,0:0|0:0,0:0:0
396,208,158674,2,0,B|308:208,1,80,8|2,0:0|0:0,0:0:0
240,248,159401,5,8,0:0:0
408,296,160128,1,8,0:0:0
480,244,160492,1,4,0:0:0
256,192,160856,12,4,163401,0:0:0
184,92,164492,5,8,0:0:0
252,148,164856,2,0,B|340:148,1,80,2|8,0:0|0:0,0:0:0
415,181,165583,1,2,0:0:0
312,324,166310,1,4,0:0:0
264,252,166674,5,8,0:0:0
416,340,167401,1,8,0:0:0
372,264,167764,2,0,B|328:208|260:188|184:204|128:232|96:308,1,320,2|4,0:0|0:0,0:0:0
256,192,177946,12,4,179401,0:0:0
368,104,180492,5,10,0:0:0
312,172,180855,2,0,B|185:192|77:148,1,240,4|8,0:0|0:0,0:0:0
92,60,182310,5,2,0:0:0
176,84,182673,1,8,0:0:0
152,260,183401,1,8,0:0:0
236,284,183764,1,2,0:0:0
320,264,184128,6,0,B|360:248|408:260,2,80,10|2|10,0:0|0:0|0:0,0:0:0
236,284,185219,1,2,0:0:0
224,196,185582,1,8,0:0:0
140,168,185946,2,0,B|124:128|136:80,2,80,2|10|4,0:0|0:0|0:0,0:0:0
132,256,187037,5,8,0:0:0
220,104,187764,1,8,0:0:0
376,188,188492,1,8,0:0:0
292,344,189219,1,8,0:0:0
216,296,189582,5,4,0:0:0
132,320,189946,2,0,B|92:240|136:168,2,160,8|8|8,0:0|0:0|0:0,0:0:0
216,296,191764,2,0,B|256:280|304:292,1,80,2|8,0:0|0:0,0:0:0
380,312,192492,5,4,0:0:0
360,228,192855,1,8,0:0:0
400,56,193582,1,8,0:0:0
256,192,193946,12,4,195401,0:0:0
228,276,196492,5,8,0:0:0
380,184,197219,2,0,B|420:168|468:180,1,80,8|2,0:0|0:0,0:0:0
428,260,197946,2,0,B|388:276|340:264,1,80,8|2,0:0|0:0,0:0:0
296,196,198673,5,8,0:0:0
196,52,199401,1,8,0:0:0
112,208,200128,1,8,0:0:0
12,64,200855,1,8,0:0:0
92,104,201219,5,4,0:0:0
172,144,201582,2,0,B|212:128|260:140,1,80,8|2,0:0|0:0,0:0:0
308,204,202310,2,0,B|346:213|386:197,1,80,8|2,0:0|0:0,0:0:0
352,116,203037,1,8,0:0:0
224,236,203764,1,8,0:0:0
148,280,204128,6,0,B|120:244|144:192,2,80,2|8|2,0:0|0:0|0:0,0:0:0
224,236,205219,2,0,B|260:208|312:232,2,80,8|2|8,0:0|0:0|0:0,0:0:0
268,312,206310,1,8,0:0:0
352,336,206673,2,0,B|389:309|381:253,1,80,12|4,0:0|0:0,0:0:0
376,176,207401,5,8,0:0:0
260,44,208128,1,8,0:0:0
136,175,208855,1,8,0:0:0
256,304,209582,1,8,0:0:0
332,348,209946,6,0,B|360:312|336:260,2,80,2|8|2,0:0|0:0|0:0,0:0:0
256,304,211037,2,0,B|228:268|252:216,2,80,8|2|8,0:0|0:0|0:0,0:0:0
176,340,212128,2,0,B|130:334|110:280,1,80,8|8,0:0|0:0,0:0:0
160,216,212855,5,4,0:0:0
104,148,213219,1,8,0:0:0
244,40,213946,2,0,B|289:45,1,40,8|4,0:0|0:0,0:0:0
384,132,214673,5,8,0:0:0
312,184,215037,1,8,0:0:0
232,152,215401,1,8,0:0:0
156,108,215764,6,0,B|120:144|96:216|120:284|160:328,1,240,4|8,0:0|0:0,0:0:0
256,192,217219,12,0,224128,0:0:0
