osu file format v11

[General]
AudioFilename: haruhana2.mp3
AudioLeadIn: 2000
PreviewTime: 142401
Countdown: 0
SampleSet: Soft
StackLeniency: 0.7
Mode: 0
LetterboxInBreaks: 0

[Editor]
Bookmarks: 12128,23764,47037,58673,84855,90673,96492,108128,131401,143037,169219,180855,195401,207037,217037
DistanceSpacing: 0.5
BeatDivisor: 4
GridSize: 4

[Metadata]
Title:Haru Hana no Iro -Reboot Ver.-
TitleUnicode:Haru Hana no Iro -Reboot Ver.-
Artist:Rita
ArtistUnicode:Rita
Creator:Frostmourne
Version:Collab
Source:Haruharo!
Tags:meaning bossandy fanzhen0019 Niva Mixagji blueberry yoghurt yogurt propeller cancelled remix collab boss
BeatmapID:163812
BeatmapSetID:53785

[Difficulty]
HPDrainRate:7
CircleSize:4
OverallDifficulty:7
ApproachRate:8
SliderMultiplier:1.8
SliderTickRate:1

[Events]
//Background and Video events
0,0,"UKSNw.jpg"
//Break Periods
2,85055,89923
2,169419,177196
//Storyboard Layer 0 (Background)
//Storyboard Layer 1 (Fail)
//Storyboard Layer 2 (Pass)
//Storyboard Layer 3 (Foreground)
//Storyboard Sound Samples
//Background Colour Transformations
3,100,163,162,255

[TimingPoints]
492,363.636363636364,4,2,1,72,1,0
2401,-100,4,2,1,45,0,0
3310,-100,4,2,1,72,0,0
5310,-100,4,2,1,45,0,0
6219,-100,4,2,1,72,0,0
23764,-100,4,2,1,55,0,0
35128,-100,4,2,1,33,0,0
35401,-100,4,2,1,55,0,0
46401,-100,4,2,1,52,0,0
47037,-100,4,2,1,72,0,0
58673,-100,4,2,1,86,0,1
84855,-100,4,2,1,72,0,0
90673,-100,4,2,1,63,0,0
96492,-100,4,2,1,72,0,0
107310,-100,4,2,1,52,0,0
107673,-100,4,2,1,72,0,0
108128,-100,4,2,1,55,0,0
131401,-100,4,2,1,72,0,0
141673,-100,4,2,1,52,0,0
142401,-100,4,2,1,72,0,0
143037,-100,4,2,1,86,0,1
169219,-100,4,2,1,72,0,0
180855,-100,4,2,1,86,0,1
194401,-100,4,2,1,52,0,1
194855,-100,4,2,1,86,0,1
195401,-100,4,2,1,72,0,0
216219,-100,4,2,1,52,0,0
217037,-100,4,2,1,72,0,0
217219,-100,4,2,1,70,0,0
217946,-100,4,2,1,60,0,0
218673,-100,4,2,1,50,0,0
219401,-100,4,2,1,40,0,0
220128,-100,4,2,1,30,0,0
220855,-100,4,2,1,20,0,0
221582,-100,4,2,1,15,0,0
223037,-100,4,2,1,10,0,0
223764,-100,4,2,1,5,0,0

[Colours]
Combo1 : 192,192,192
Combo2 : 255,255,0
Combo3 : 255,128,0
SliderBorder : 255,255,255

[HitObjects]
414,344,492,2,0,B|367:356|327:329|327:329|287:303|240:318,1,180,12|2,0:0|0:0,0:0:0
174,378,1037,2,0,B|131:326|148:256|213:231,1,180,8|2,0:0|0:0,0:0:0
263,156,1582,2,0,B|248:68,1,90,8|2,0:0|0:0,0:0:0
338,194,1946,2,0,B|410:194|410:194|464:224|513:192,1,180,12|2,0:0|0:0,0:0:0
460,118,2492,1,8,0:0:0
491,294,2855,1,8,0:0:0
318,346,3219,1,8,0:0:0
142,342,3401,6,0,B|183:317|229:327,2,90,12|2|0,0:0|0:0|0:0,0:0:0
61,382,3946,2,0,B|37:332|73:282|73:282|74:205,1,180,10|2,0:0|0:0,0:0:0
119,128,4492,2,0,B|72:105|32:126,1,90,8|2,0:0|0:0,0:0:0
200,166,4855,2,0,B|247:189|290:166,1,90,12|0,0:0|0:0,0:0:0
244,87,5219,1,2,0:0:0
244,87,5401,1,8,0:0:0
357,188,5764,1,8,0:0:0
370,19,6128,1,8,0:0:0
333,101,6310,6,0,B|383:117|422:93,1,90,12|0,0:0|0:0,0:0:0
370,19,6673,1,2,0:0:0
244,87,6855,2,0,B|194:71|155:95,1,90,8|0,0:0|0:0,0:0:0
205,170,7219,1,2,0:0:0
133,224,7401,2,0,B|172:279|258:270|285:210,1,180,8|12,0:0|0:0,0:0:0
205,170,7946,1,0,0:0:0
280,307,8128,1,2,0:0:0
363,168,8310,1,8,0:0:0
282,214,8492,5,2,0:0:0
402,246,8673,1,2,0:0:0
444,125,8855,1,2,0:0:0
319,93,9037,1,2,0:0:0
282,214,9219,6,0,B|216:215|216:215|157:249|108:215,1,180,12|2,0:0|0:0,0:0:0
291,301,9764,2,0,B|356:300|392:227|363:168,1,180,8|2,0:0|0:0,0:0:0
319,93,10310,2,0,B|305:51|332:6,1,90,8|2,0:0|0:0,0:0:0
404,60,10673,2,0,B|450:60,2,45,12|0|2,0:0|0:0|0:0,0:0:0
256,157,11037,1,2,0:0:0
108,60,11219,2,0,B|62:60,2,45,12|0|2,0:0|0:0|0:0,0:0:0
229,244,11582,1,2,0:0:0
342,186,11764,1,8,0:0:0
283,73,11946,1,2,0:0:0
256,156,12128,5,4,0:0:0
168,164,12310,1,0,0:0:0
96,112,12492,2,0,B|48:100|32:56,1,90,8|2,0:0|0:0,0:0:0
256,156,12855,5,0,0:0:0
344,168,13037,2,0,B|392:180|408:224,1,90,0|8,0:0|0:0,0:0:0
324,352,13401,1,2,0:0:0
392,300,13582,6,0,B|440:296|480:320|480:320|464:276|480:232,1,180,0|8,0:0|0:0,0:0:0
508,148,14128,1,2,0:0:0
432,100,14310,2,0,B|400:60|408:16,2,90,0|0|8,0:0|0:0|0:0,0:0:0
108,68,15037,5,2,0:0:0
168,132,15219,1,0,0:0:0
136,216,15401,2,0,B|136:312,1,90,8|0,0:0|0:0,0:0:0
56,344,15764,2,0,B|96:296|176:296|216:344,1,180,0|8,0:0|0:0,0:0:0
300,308,16310,1,0,0:0:0
360,240,16492,6,0,B|356:188|320:160,1,90,2|0,0:0|0:0,0:0:0
300,308,16855,2,0,B|256:337|250:382,1,90,10|0,0:0|0:0,0:0:0
392,324,17219,2,0,B|439:346|481:329,2,90,2|0|10,0:0|0:0|0:0,0:0:0
360,240,17764,1,2,0:0:0
392,208,17855,1,2,0:0:0
384,160,17946,6,0,B|367:114|317:106|317:106|267:99|251:53,1,180,4|8,0:0|0:0,0:0:0
336,24,18492,2,0,B|424:0,1,90,2|0,0:0|0:0,0:0:0
304,192,18855,2,0,B|216:216,1,90,2|8,0:0|0:0,0:0:0
152,152,19219,1,2,0:0:0
168,64,19401,6,0,B|116:60|76:88|68:136|68:136|28:152,1,180,0|8,0:0|0:0,0:0:0
152,152,19946,2,0,B|204:156|236:120,1,90,2|0,0:0|0:0,0:0:0
48,296,20310,2,0,B|87:263|84:217,1,90,2|8,0:0|0:0,0:0:0
360,304,20855,5,0,0:0:0
420,236,21037,1,2,0:0:0
416,148,21219,2,0,B|408:100|364:80,1,90,8|0,0:0|0:0,0:0:0
284,120,21582,2,0,B|244:91|199:108,1,90,0|2,0:0|0:0,0:0:0
184,196,21946,2,0,B|135:204|116:248,1,90,8|2,0:0|0:0,0:0:0
156,328,22310,1,2,0:0:0
244,340,22492,5,0,0:0:0
256,344,22582,1,0,0:0:0
268,344,22673,1,10,0:0:0
280,340,22764,1,0,0:0:0
292,332,22855,1,2,0:0:0
304,328,22946,1,0,0:0:0
316,328,23037,1,2,0:0:0
328,332,23128,1,10,0:0:0
340,340,23219,2,0,B|384:360|428:340,1,90,8|8,0:0|0:0,0:0:0
120,152,23764,5,4,0:0:0
192,208,23946,2,0,B|228:240|288:232,1,90,0|8,0:0|0:0,0:0:0
364,224,24310,1,0,0:0:0
428,288,24492,2,0,B|484:220,1,90
356,340,24855,2,0,B|308:352|268:324,1,90,8|0,0:0|0:0,0:0:0
180,328,25219,5,0,0:0:0
180,328,25401,2,0,B|100:268,1,90,0|8,0:0|0:0,0:0:0
44,340,25764,2,0,B|20:240,1,90
24,160,26128,2,0,B|24:72,2,90,0|8|0,0:0|0:0|0:0,0:0:0
96,212,26673,1,0,0:0:0
184,200,26855,6,0,B|260:152,1,90,0|8,0:0|0:0,0:0:0
336,192,27219,1,0,0:0:0
396,260,27401,2,0,B|432:224|424:176,2,90,0|0|8,0:0|0:0|0:0,0:0:0
248,300,27946,1,0,0:0:0
248,300,28128,2,0,B|116:292,1,90
328,336,28492,1,8,0:0:0
328,336,28673,2,0,B|420:376|504:328,1,180
424,140,29219,1,8,0:0:0
424,140,29310,1,8,0:0:0
424,140,29401,1,0,0:0:0
352,196,29582,5,4,0:0:0
260,196,29764,2,0,B|260:144|304:116,2,90,0|8|0,0:0|0:0|0:0,0:0:0
260,196,30310,1,0,0:0:0
192,256,30492,2,0,B|155:219|166:168,2,90,0|8|0,0:0|0:0|0:0,0:0:0
192,256,31037,1,0,0:0:0
240,332,31219,2,0,B|280:352|328:332,1,90,0|8,0:0|0:0,0:0:0
408,296,31582,2,0,B|444:208|408:112,1,180
344,60,32128,2,0,B|256:32|256:128|160:96,1,180,8|0,0:0|0:0,0:0:0
100,136,32673,6,0,B|80:88|112:48,2,90,0|8|0,0:0|0:0|0:0,0:0:0
168,196,33219,2,0,B|268:216,1,90
108,256,33582,2,0,B|8:276,1,90,8|0,0:0|0:0,0:0:0
164,324,33946,5,4,0:0:0
252,340,34128,2,0,B|284:376,2,45
308,272,34492,1,0,0:0:0
308,272,34583,1,0,0:0:0
308,272,34674,1,0,0:0:0
380,220,34855,2,0,B|416:192,2,45
388,312,35219,1,8,0:0:0
388,312,35310,1,8,0:0:0
388,312,35401,1,4,0:0:0
224,256,35582,6,0,B|192:172,1,90,0|8,0:0|0:0,0:0:0
284,164,35946,1,0,0:0:0
284,164,36128,2,0,B|304:76,2,90,0|0|8,0:0|0:0|0:0,0:0:0
316,252,36673,5,0,0:0:0
216,88,36855,1,0,0:0:0
132,120,37037,6,0,B|120:72|148:32,1,90,0|8,0:0|0:0,0:0:0
216,88,37401,2,0,B|304:112|404:76,1,180
480,60,37946,1,8,0:0:0
456,148,38128,1,0,0:0:0
372,180,38310,1,0,0:0:0
316,252,38492,6,0,B|216:268,1,90,0|8,0:0|0:0,0:0:0
160,324,38855,2,0,B|124:280|148:232,1,90
316,252,39219,2,0,B|436:296,1,90,0|8,0:0|0:0,0:0:0
304,348,39582,5,0,0:0:0
372,180,39764,1,0,0:0:0
316,252,39946,5,0,0:0:0
460,164,40128,1,8,0:0:0
316,252,40310,2,0,B|212:260|148:180,1,180
296,64,40855,1,8,0:0:0
296,64,40946,1,8,0:0:0
296,64,41037,1,0,0:0:0
160,324,41219,1,4,0:0:0
76,292,41401,6,0,B|52:256|64:204,1,90,0|8,0:0|0:0,0:0:0
96,120,41764,1,0,0:0:0
96,120,41946,1,0,0:0:0
160,324,42128,6,0,B|196:352|256:340,1,90,0|8,0:0|0:0,0:0:0
336,328,42492,1,0,0:0:0
336,328,42673,1,0,0:0:0
160,324,42855,5,0,0:0:0
76,292,43037,1,8,0:0:0
76,292,43219,2,0,B|48:248|68:204,2,90
148,240,43764,1,8,0:0:0
148,240,43855,1,8,0:0:0
148,240,43946,2,0,B|256:240,1,90
328,248,44310,5,0,0:0:0
180,148,44492,1,8,0:0:0
160,324,44673,1,0,0:0:0
328,248,44855,1,0,0:0:0
408,288,45037,6,0,B|432:244|408:200,1,90,0|8,0:0|0:0,0:0:0
352,132,45401,1,0,0:0:0
352,132,45492,1,0,0:0:0
352,132,45582,2,0,B|252:84,1,90,4|0,0:0|0:0,0:0:0
264,184,45946,5,8,0:0:0
192,56,46128,1,8,0:0:0
108,28,46310,5,8,0:0:0
86,44,46401,1,8,0:0:0
70,66,46492,1,8,0:0:0
61,91,46582,1,8,0:0:0
54,117,46673,1,8,0:0:0
57,144,46764,1,8,0:0:0
63,170,46855,1,8,0:0:0
74,194,46946,1,8,0:0:0
94,211,47037,1,4,0:0:0
356,280,47401,5,10,0:0:0
356,280,47582,1,0,0:0:0
385,194,47764,2,0,B|372:100,1,90,2|0,0:0|0:0,0:0:0
452,62,48128,2,0,B|374:139|284:76,1,180,8|2,0:0|0:0,0:0:0
221,20,48673,5,2,0:0:0
137,54,48855,1,8,0:0:0
206,114,49037,2,0,B|188:201|188:201|144:226|102:192,1,180,2|0,0:0|0:0,0:0:0
103,192,49582,1,10,0:0:0
258,316,49764,1,2,0:0:0
408,192,49946,1,4,0:0:0
408,192,50310,6,0,B|456:175|505:194,1,90,10|0,0:0|0:0,0:0:0
346,315,50673,2,0,B|298:332|249:313,1,90,2|0,0:0|0:0,0:0:0
180,194,51037,1,10,0:0:0
251,73,51219,1,0,0:0:0
303,146,51401,5,2,0:0:0
178,125,51582,1,2,0:0:0
199,0,51764,1,8,0:0:0
324,21,51946,1,2,0:0:0
504,276,52310,1,2,0:0:0
7,276,52673,1,2,0:0:0
7,276,52855,1,4,0:0:0
7,276,53219,6,0,B|-7:187,1,90,10|0,0:0|0:0,0:0:0
76,333,53582,2,0,B|119:351|164:331,1,90,2|0,0:0|0:0,0:0:0
384,270,53946,2,0,B|341:252|296:272,1,90,10|0,0:0|0:0,0:0:0
174,180,54310,5,2,0:0:0
174,33,54492,1,0,0:0:0
261,157,54673,1,10,0:0:0
122,106,54855,1,0,0:0:0
257,67,55037,1,2,0:0:0
174,180,55219,2,0,B|193:243|272:265|324:217,1,180,2|0,0:0|0:0,0:0:0
396,358,55764,5,4,0:0:0
250,384,55946,2,0,B|203:394|164:367,1,90,0|10,0:0|0:0,0:0:0
291,237,56310,1,0,0:0:0
395,358,56492,2,0,B|439:340|480:366,1,90,2|2,0:0|0:0,0:0:0
278,148,56855,2,0,B|292:237,1,90,10|0,0:0|0:0,0:0:0
216,278,57219,6,0,B|283:204|380:256,1,180,10|8,0:0|0:0,0:0:0
198,364,57764,1,2,0:0:0
156,346,57855,1,0,0:0:0
134,306,57946,1,0,0:0:0
132,260,58037,1,0,0:0:0
151,219,58128,1,10,0:0:0
260,136,58310,1,0,0:0:0
260,136,58401,1,0,0:0:0
260,136,58492,1,10,0:0:0
416,96,58673,5,4,0:0:0
348,152,58855,1,0,0:0:0
348,152,58946,1,0,0:0:0
348,152,59037,1,8,0:0:0
260,136,59219,2,0,B|196:144|180:104|164:64|100:72,1,180,2|0,0:0|0:0,0:0:0
248,60,59764,6,0,B|296:56|328:16,1,90,8|2,0:0|0:0,0:0:0
116,152,60128,2,0,B|68:156|36:196,1,90,0|2,0:0|0:0,0:0:0
248,60,60492,1,8,0:0:0
180,204,60673,2,0,B|184:304|272:348,1,180,2|0,0:0|0:0,0:0:0
352,308,61219,1,8,0:0:0
436,280,61401,1,2,0:0:0
452,268,61492,1,0,0:0:0
464,248,61582,6,0,B|480:200|468:160,1,90
380,140,61946,2,0,B|364:92|376:52,1,90,10|0,0:0|0:0,0:0:0
464,32,62310,5,2,0:0:0
380,140,62492,1,0,0:0:0
244,120,62673,5,10,0:0:0
436,280,62855,1,0,0:0:0
352,244,63037,6,0,B|256:232|184:292,1,180,2|10,0:0|0:0,0:0:0
120,352,63582,1,0,0:0:0
92,332,63673,1,0,0:0:0
72,304,63764,2,0,B|44:268|40:220,1,90,2|0,0:0|0:0,0:0:0
104,160,64128,2,0,B|108:116|92:72,2,90,8|2|4,0:0|0:0|0:0,0:0:0
256,64,64855,5,8,0:0:0
328,116,65037,2,0,B|376:112|404:72,1,90,2|0,0:0|0:0,0:0:0
476,24,65401,1,2,0:0:0
484,112,65582,2,0,B|496:160|476:200,1,90,8|2,0:0|0:0,0:0:0
384,180,65946,5,2,0:0:0
480,296,66128,1,0,0:0:0
404,264,66310,1,10,0:0:0
500,380,66492,1,0,0:0:0
320,240,66673,6,0,B|232:224,1,90,2|0,0:0|0:0,0:0:0
384,180,67037,2,0,B|472:196,1,90,10|0,0:0|0:0,0:0:0
320,240,67401,6,0,B|284:204|289:144|332:112|332:112|324:76,1,180,2|8,0:0|0:0,0:0:0
408,40,67946,1,2,0:0:0
232,68,68128,2,0,B|140:52,1,90
140,144,68492,2,0,B|48:128,1,90,8|2,0:0|0:0,0:0:0
52,220,68855,5,4,0:0:0
104,292,69037,1,2,0:0:0
120,308,69128,1,0,0:0:0
140,320,69219,1,8,0:0:0
212,260,69401,1,2,0:0:0
304,240,69582,6,0,B|308:272|296:288,3,45,0|0|8|0,0:0|0:0|0:0|0:0,0:0:0
284,304,69946,1,0,0:0:0
272,324,70037,1,0,0:0:0
276,344,70128,1,8,0:0:0
292,360,70219,1,0,0:0:0
312,368,70310,6,0,B|368:388|436:336|424:264,1,180,4|8,0:0|0:0,0:0:0
388,184,70855,2,0,B|368:140|380:96,1,90,2|0,0:0|0:0,0:0:0
424,268,71219,2,0,B|399:308|355:324,1,90,0|8,0:0|0:0,0:0:0
480,200,71582,6,0,B|468:272|376:296|328:252,1,180,2|0,0:0|0:0,0:0:0
284,188,72128,1,8,0:0:0
288,96,72310,1,2,0:0:0
460,44,72673,5,2,0:0:0
388,116,72855,1,8,0:0:0
288,96,73037,1,2,0:0:0
200,104,73219,2,0,B|152:108|112:88,1,90
12,60,73582,6,0,B|39:99|42:144,1,90,10|0,0:0|0:0,0:0:0
43,329,73946,2,0,B|28:228|117:179,1,180,2|10,0:0|0:0,0:0:0
204,156,74492,1,0,0:0:0
284,192,74673,5,2,0:0:0
356,136,74855,1,0,0:0:0
272,100,75037,1,10,0:0:0
284,192,75219,1,0,0:0:0
324,272,75401,6,0,B|348:308|392:328,1,90,2|0,0:0|0:0,0:0:0
512,272,75764,2,0,B|488:236|444:216,1,90,10|2,0:0|0:0,0:0:0
364,24,76128,6,0,B|324:60|320:148|360:192,1,180,4|8,0:0|0:0,0:0:0
424,128,76673,2,0,B|382:89|294:93|258:133,1,180,0|0,0:0|0:0,0:0:0
176,92,77219,2,0,B|96:44,1,90,8|0,0:0|0:0,0:0:0
184,184,77582,6,0,B|208:220|208:264|184:296|184:296|184:356,1,180,0|8,0:0|0:0,0:0:0
120,240,78128,2,0,B|96:200|108:152,1,90
176,92,78492,1,0,0:0:0
176,92,78582,1,0,0:0:0
176,92,78673,1,8,0:0:0
452,200,79037,6,0,B|440:240|400:252|400:252|388:304|440:340,1,180,4|8,0:0|0:0,0:0:0
372,160,79582,1,0,0:0:0
444,104,79764,2,0,B|444:16,1,90,2|2,0:0|0:0,0:0:0
452,200,80128,2,0,B|452:288,1,90,8|2,0:0|0:0,0:0:0
372,160,80492,6,0,B|332:92|272:96|272:96|224:60,1,180,0|8,0:0|0:0,0:0:0
196,148,81037,2,0,B|120:92,1,90,2|0,0:0|0:0,0:0:0
164,232,81401,2,0,B|88:176,1,90,2|8,0:0|0:0,0:0:0
132,316,81764,1,0,0:0:0
164,232,81946,6,0,B|136:204|160:160|188:160|188:160|178:119|200:80|256:64|256:64|312:80|336:120|324:160|324:160|352:160|376:204|348:232,1,450,4|0,0:0|0:0,0:0:0
256,264,83037,1,8,0:0:0
148,320,83401,5,2,0:0:0
164,328,83491,1,0,0:0:0
180,334,83582,1,0,0:0:0
197,340,83673,1,0,0:0:0
215,344,83764,1,2,0:0:0
233,346,83855,1,0,0:0:0
251,347,83946,1,2,0:0:0
269,347,84037,1,2,0:0:0
287,345,84128,1,0,0:0:0
304,342,84219,1,0,0:0:0
322,337,84310,1,2,0:0:0
339,331,84400,1,0,0:0:0
355,324,84491,1,0,0:0:0
256,192,84855,5,4,0:0:0
92,332,90673,5,4,0:0:0
152,264,90855,2,0,B|196:256|244:264,1,90,0|8,0:0|0:0,0:0:0
348,348,91219,1,0,0:0:0
336,352,91310,1,8,0:0:0
324,348,91401,1,0,0:0:0
316,340,91492,1,8,0:0:0
316,328,91582,2,0,B|344:280|332:240,1,90,0|8,0:0|0:0,0:0:0
292,160,91946,1,0,0:0:0
440,232,92128,6,0,B|420:184|372:172,1,90
432,80,92492,2,0,B|382:64|342:93,1,90,8|0,0:0|0:0,0:0:0
300,8,92855,2,0,B|256:36|252:85,1,90
176,68,93219,2,0,B|169:119|204:153,1,90,8|0,0:0|0:0,0:0:0
188,240,93582,6,0,B|116:276|56:212,1,135,4|8,0:0|0:0,0:0:0
64,220,93946,1,8,0:0:0
331,226,94128,6,0,B|398:271|373:355,1,135,4|8,0:0|0:0,0:0:0
376,344,94492,1,8,0:0:0
248,109,94673,6,0,B|253:28|338:8,1,135,4|8,0:0|0:0,0:0:0
327,11,95037,1,8,0:0:0
331,226,95219,5,8,0:0:0
100,112,95401,1,8,0:0:0
100,112,95492,1,8,0:0:0
100,112,95582,1,0,0:0:0
188,240,95764,5,8,0:0:0
224,224,95855,1,0,0:0:0
256,192,95946,1,8,0:0:0
260,148,96037,1,0,0:0:0
248,108,96128,1,8,0:0:0
220,80,96219,1,0,0:0:0
184,72,96310,1,0,0:0:0
128,196,96492,5,4,0:0:0
164,280,96673,2,0,B|200:308|252:292,1,90,0|8,0:0|0:0,0:0:0
332,256,97037,1,0,0:0:0
400,196,97219,2,0,B|404:140|344:128,1,90,2|2,0:0|0:0,0:0:0
292,56,97582,1,8,0:0:0
292,56,97764,2,0,B|384:32|464:84,1,180,2|0,0:0|0:0,0:0:0
476,172,98310,5,8,0:0:0
416,240,98492,2,0,B|312:236,1,90,2|0,0:0|0:0,0:0:0
324,328,98855,2,0,B|220:324,1,90,2|8,0:0|0:0,0:0:0
156,280,99219,5,0,0:0:0
304,152,99401,1,2,0:0:0
392,136,99582,6,0,B|384:88|344:64,1,90,0|8,0:0|0:0,0:0:0
208,160,99946,2,0,B|216:208|256:232,1,90,0|2,0:0|0:0,0:0:0
304,152,100310,5,2,0:0:0
128,100,100492,1,8,0:0:0
156,280,100673,1,2,0:0:0
228,336,100855,6,0,B|280:336,2,45
148,372,101219,1,8,0:0:0
148,372,101401,1,2,0:0:0
72,324,101582,5,8,0:0:0
72,324,101673,1,8,0:0:0
72,324,101764,1,10,0:0:0
208,160,101946,1,8,0:0:0
208,160,102310,6,0,B|288:104|388:144,1,180,4|8,0:0|0:0,0:0:0
448,200,102855,1,0,0:0:0
372,248,103037,1,2,0:0:0
284,224,103219,1,2,0:0:0
372,248,103401,1,8,0:0:0
284,224,103582,2,0,B|212:228|172:292,1,135,2|8,0:0|0:0,0:0:0
164,312,103946,1,8,0:0:0
252,332,104128,6,0,B|332:368|432:332,1,180,8|10,0:0|0:0,0:0:0
448,324,104582,1,8,0:0:0
465,309,104673,1,8,0:0:0
448,200,104855,1,8,0:0:0
372,248,105037,1,2,0:0:0
448,200,105219,1,0,0:0:0
452,108,105401,6,0,B|404:104|372:148,1,90,0|8,0:0|0:0,0:0:0
312,80,105764,2,0,B|275:111|283:164,1,90,0|2,0:0|0:0,0:0:0
312,80,106128,5,2,0:0:0
372,248,106310,1,8,0:0:0
196,208,106492,2,0,B|160:116|220:28,1,180,2|2,0:0|0:0,0:0:0
272,272,107037,5,8,0:0:0
104,176,107219,1,0,0:0:0
128,352,107401,1,8,0:0:0
128,352,107492,1,8,0:0:0
128,352,107582,2,0,B|80:376|36:344,1,90,8|12,0:0|0:0,0:0:0
280,188,108128,6,0,B|320:164|368:172,1,90,4|0,0:0|0:0,0:0:0
444,220,108492,1,8,0:0:0
484,300,108673,2,0,B|420:232|448:132,1,180
476,48,109219,2,0,B|440:16|392:16,1,90,8|0,0:0|0:0,0:0:0
368,100,109582,5,0,0:0:0
300,40,109764,1,0,0:0:0
280,128,109946,1,8,0:0:0
160,68,110128,1,0,0:0:0
160,68,110491,1,0,0:0:0
100,152,110673,1,8,0:0:0
88,124,110764,1,0,0:0:0
76,96,110854,1,0,0:0:0
32,208,111037,6,0,B|64:296,1,90
180,376,111401,2,0,B|148:288,1,90,8|0,0:0|0:0,0:0:0
160,68,111764,2,0,B|220:236,1,180,0|8,0:0|0:0,0:0:0
304,276,112310,1,0,0:0:0
380,228,112492,5,0,0:0:0
472,328,112673,1,0,0:0:0
456,192,112855,1,8,0:0:0
392,312,113037,1,0,0:0:0
456,192,113219,2,0,B|464:100,1,90
392,312,113582,2,0,B|308:348,1,90,8|0,0:0|0:0,0:0:0
80,260,113946,5,4,0:0:0
100,172,114128,2,0,B|108:120|64:96,1,90,0|8,0:0|0:0,0:0:0
80,260,114492,1,0,0:0:0
236,352,114673,5,0,0:0:0
288,272,114855,1,0,0:0:0
160,300,115037,1,8,0:0:0
364,324,115219,1,0,0:0:0
276,140,115401,6,0,B|252:100|200:104,1,90
364,324,115764,2,0,B|388:364|440:360,1,90,8|0,0:0|0:0,0:0:0
236,352,116128,1,0,0:0:0
364,324,116310,1,0,0:0:0
212,224,116492,2,0,B|164:136,1,90,8|0,0:0|0:0,0:0:0
88,104,116855,6,0,B|168:172|271:120,1,180,0|8,0:0|0:0,0:0:0
172,300,117401,2,0,B|216:268|212:224,1,90
296,52,117764,2,0,B|252:84|256:128,1,90,0|8,0:0|0:0,0:0:0
324,188,118128,1,0,0:0:0
400,236,118310,5,6,0:0:0
468,144,118492,1,2,0:0:0
492,308,118673,1,2,0:0:0
400,236,118855,1,2,0:0:0
388,352,119037,1,0,0:0:0
372,359,119128,1,0,0:0:0
354,363,119219,1,0,0:0:0
337,363,119310,1,0,0:0:0
319,359,119401,1,0,0:0:0
303,350,119492,1,0,0:0:0
289,338,119583,1,0,0:0:0
279,324,119673,1,0,0:0:0
272,308,119764,6,0,B|244:248|180:244|180:244|156:224|152:188,1,180,4|8,0:0|0:0,0:0:0
172,104,120310,1,0,0:0:0
88,68,120492,2,0,B|152:60|168:100|184:140|248:132,1,180,0|8,0:0|0:0,0:0:0
328,88,121037,1,0,0:0:0
408,48,121219,6,0,B|432:92|408:136,1,90
472,280,121582,2,0,B|448:236|472:192,1,90,8|0,0:0|0:0,0:0:0
496,100,121946,2,0,B|428:88|368:148|376:224,1,180,0|8,0:0|0:0,0:0:0
384,292,122492,1,0,0:0:0
428,296,122582,1,0,0:0:0
472,280,122673,1,0,0:0:0
304,256,122855,6,0,B|264:232|212:244,1,90,0|8,0:0|0:0,0:0:0
140,292,123219,1,0,0:0:0
60,252,123401,2,0,B|52:208|80:168,1,90
140,292,123764,2,0,B|148:336|120:376,1,90,8|0,0:0|0:0,0:0:0
60,252,124128,5,0,0:0:0
17,122,124310,1,0,0:0:0
144,85,124492,1,8,0:0:0
186,215,124673,1,0,0:0:0
186,215,125037,1,0,0:0:0
140,292,125219,1,8,0:0:0
140,292,125310,1,8,0:0:0
140,292,125401,1,0,0:0:0
186,215,125582,6,0,B|216:180|208:132,1,90,4|0,0:0|0:0,0:0:0
140,72,125946,1,8,0:0:0
207,130,126128,2,0,B|296:172|380:104,1,180
444,48,126673,2,0,B|476:84|472:136,1,90,8|0,0:0|0:0,0:0:0
476,360,127037,6,0,B|388:296|420:188,1,180,0|8,0:0|0:0,0:0:0
472,132,127582,1,0,0:0:0
304,260,127764,1,0,0:0:0
304,260,127855,1,0,0:0:0
304,260,127946,1,0,0:0:0
476,360,128128,5,8,0:0:0
428,232,128310,1,0,0:0:0
304,260,128492,2,0,B|208:304|128:276,1,180,0|8,0:0|0:0,0:0:0
60,216,129037,1,0,0:0:0
40,176,129128,1,0,0:0:0
44,132,129219,2,0,B|56:84|112:72,2,90,0|0|8,0:0|0:0|0:0,0:0:0
128,168,129764,1,0,0:0:0
60,216,129946,6,0,B|36:224|24:244,1,45,6|0,0:0|0:0,0:0:0
60,272,130128,2,0,B|43:290|42:314,1,45,2|0,0:0|0:0,0:0:0
88,316,130310,2,0,B|82:340|94:361,3,45,10|0|2|0,0:0|0:0|0:0|0:0,0:0:0
114,366,130673,5,10,0:0:0
135,360,130764,1,0,0:0:0
155,351,130855,1,0,0:0:0
168,333,130946,1,0,0:0:0
177,312,131037,1,10,0:0:0
191,294,131128,1,0,0:0:0
211,284,131219,1,0,0:0:0
280,344,131401,5,4,0:0:0
328,268,131582,1,0,0:0:0
408,308,131764,2,0,B|464:232|436:124,1,180,10|2,0:0|0:0,0:0:0
392,60,132310,1,0,0:0:0
332,128,132492,2,0,B|292:100|300:40,1,90,10|0,0:0|0:0,0:0:0
392,60,132855,5,2,0:0:0
324,216,133037,1,0,0:0:0
216,88,133219,1,10,0:0:0
204,176,133401,6,0,B|104:172|60:72,1,180
140,32,133946,1,10,0:0:0
140,32,134128,1,0,0:0:0
176,264,134310,1,4,0:0:0
176,264,134673,6,0,B|248:324|348:288,1,180,10|2,0:0|0:0,0:0:0
428,252,135219,1,0,0:0:0
194,357,135401,2,0,B|150:261|210:173,1,180,10|2,0:0|0:0,0:0:0
276,132,135946,6,0,B|300:88|272:40,2,90,0|10|0,0:0|0:0|0:0,0:0:0
176,264,136492,1,2,0:0:0
176,264,136582,1,8,0:0:0
176,264,136673,2,0,B|80:264,1,90,0|10,0:0|0:0,0:0:0
48,184,137037,1,8,0:0:0
48,184,137128,1,8,0:0:0
48,184,137219,1,4,0:0:0
88,104,137401,5,0,0:0:0
160,156,137582,2,0,B|248:196|340:148,1,180,10|2,0:0|0:0,0:0:0
334,151,138128,1,0,0:0:0
404,92,138310,1,10,0:0:0
420,180,138492,5,0,0:0:0
312,72,138673,1,2,0:0:0
224,88,138855,5,0,0:0:0
404,92,139037,1,10,0:0:0
492,136,139219,5,8,0:0:0
492,136,139310,1,8,0:0:0
492,136,139401,2,0,B|516:180|492:224,1,90,2|0,0:0|0:0,0:0:0
436,292,139764,1,10,0:0:0
352,260,139946,1,8,0:0:0
352,260,140037,1,8,0:0:0
352,260,140128,2,0,B|304:248|264:280,1,90,4|0,0:0|0:0,0:0:0
328,344,140492,5,8,0:0:0
492,136,140673,2,0,B|424:212,1,90
364,72,141037,2,0,B|344:165,1,90,0|12,0:0|0:0,0:0:0
308,320,141401,1,0,0:0:0
256,184,141582,1,12,0:0:0
132,284,141764,5,8,0:0:0
119,264,141855,1,8,0:0:0
111,242,141946,1,8,0:0:0
108,219,142037,1,8,0:0:0
108,196,142128,1,8,0:0:0
115,174,142219,1,8,0:0:0
125,153,142310,1,8,0:0:0
140,137,142401,1,8,0:0:0
158,124,142492,1,8,0:0:0
256,184,142673,2,0,B|296:212|364:196,1,90,8|0,0:0|0:0,0:0:0
379,372,143037,6,0,B|300:315|208:336,1,180,4|8,0:0|0:0,0:0:0
133,286,143582,2,0,B|66:211|118:107,1,180,0|2,0:0|0:0,0:0:0
278,76,144128,2,0,B|237:60|190:72,1,90,8|2,0:0|0:0,0:0:0
363,107,144492,2,0,B|411:118|456:100,1,90,0|2,0:0|0:0,0:0:0
493,181,144855,1,8,0:0:0
420,234,145037,2,0,B|382:298|421:372|487:379,1,180,2|2,0:0|0:0,0:0:0
498,289,145582,1,8,0:0:0
323,349,145764,2,0,B|284:369|235:347|235:347|192:326|142:346,1,180,2|0,0:0|0:0,0:0:0
71,295,146310,6,0,B|47:339|67:381,1,90,10|0,0:0|0:0,0:0:0
194,245,146673,2,0,B|216:202|193:159,1,90,2|0,0:0|0:0,0:0:0
70,23,147037,2,0,B|46:67|66:109,1,90,10|0,0:0|0:0,0:0:0
107,202,147401,6,0,B|197:201|197:201|288:201,1,180,2|10,0:0|0:0,0:0:0
432,293,147946,1,0,0:0:0
373,123,148128,1,2,0:0:0
373,123,148219,1,8,0:0:0
373,123,148310,1,0,0:0:0
328,294,148492,1,10,0:0:0
458,197,148673,1,2,0:0:0
458,197,148764,1,0,0:0:0
458,197,148855,1,4,0:0:0
458,197,149219,5,10,0:0:0
328,294,149401,1,2,0:0:0
196,197,149582,2,0,B|152:181|108:197,1,90,0|2,0:0|0:0,0:0:0
328,293,149946,2,0,B|372:309|416:293,1,90,10|0,0:0|0:0,0:0:0
346,128,150310,1,2,0:0:0
328,294,150492,1,0,0:0:0
173,357,150673,1,10,0:0:0
12,330,150855,1,0,0:0:0
57,252,151037,5,2,0:0:0
162,273,151219,1,0,0:0:0
259,234,151401,1,10,0:0:0
263,132,151582,1,0,0:0:0
336,44,151764,2,0,B|396:32|452:92|429:163,1,180,2|8,0:0|0:0,0:0:0
353,351,152310,2,0,B|293:363|237:303|260:232,1,180
345,198,152855,1,10,0:0:0
345,198,153037,1,2,0:0:0
422,253,153219,5,4,0:0:0
259,235,153401,1,0,0:0:0
354,103,153582,1,8,0:0:0
512,240,153764,1,0,0:0:0
508,284,153855,1,0,0:0:0
484,322,153946,1,0,0:0:0
443,341,154037,1,0,0:0:0
397,340,154128,1,10,0:0:0
163,373,154310,1,0,0:0:0
182,333,154401,1,0,0:0:0
218,307,154492,1,10,0:0:0
264,298,154582,1,0,0:0:0
308,311,154673,5,4,0:0:0
443,341,154855,1,0,0:0:0
494,200,155037,2,0,B|475:160|481:109,1,90,8|0,0:0|0:0,0:0:0
367,34,155401,1,0,0:0:0
229,82,155582,2,0,B|179:94|138:67,1,90,2|8,0:0|0:0,0:0:0
367,34,155946,2,0,B|460:4|537:64,1,180,2|2,0:0|0:0,0:0:0
339,171,156492,1,8,0:0:0
229,83,156673,2,0,B|134:118|62:47,1,180,2|2,0:0|0:0,0:0:0
225,239,157219,1,8,0:0:0
382,294,157401,1,2,0:0:0
471,141,157582,1,0,0:0:0
471,141,157946,6,0,B|427:122|384:140,1,90,10|0,0:0|0:0,0:0:0
226,239,158310,2,0,B|269:262|316:238,1,90,2|0,0:0|0:0,0:0:0
155,140,158673,2,0,B|111:121|68:139,1,90,10|0,0:0|0:0,0:0:0
270,172,159037,1,2,0:0:0
270,172,159128,1,8,0:0:0
270,173,159219,1,0,0:0:0
470,141,159401,6,0,B|426:122|383:141,1,90,10|0,0:0|0:0,0:0:0
191,360,159764,2,0,B|230:331|236:285,1,90,2|0,0:0|0:0,0:0:0
143,18,160128,2,0,B|148:66|186:95,1,90,10|2,0:0|0:0,0:0:0
270,172,160492,5,4,0:0:0
500,306,160855,1,8,0:0:0
422,351,161037,1,0,0:0:0
333,333,161219,1,0,0:0:0
280,259,161401,1,0,0:0:0
270,172,161582,2,0,B|267:118|308:84,1,90,8|0,0:0|0:0,0:0:0
359,159,161946,5,0,0:0:0
233,225,162128,1,0,0:0:0
87,200,162310,1,8,0:0:0
13,73,162492,1,0,0:0:0
13,73,162582,1,8,0:0:0
13,73,162673,1,0,0:0:0
13,73,162764,1,8,0:0:0
13,73,162855,1,0,0:0:0
134,320,163037,1,8,0:0:0
480,378,163401,1,4,0:0:0
480,378,163764,6,0,B|436:396|390:371,1,90,10|2,0:0|0:0,0:0:0
134,319,164128,2,0,B|173:299|221:310,1,90,0|2,0:0|0:0,0:0:0
352,216,164491,1,8,0:0:0
352,216,164673,2,0,B|376:173|352:130|352:130|329:88|352:36,1,180,2|0,0:0|0:0,0:0:0
427,87,165219,2,8,B|516:87,1,90,10|0,0:0|0:0,0:0:0
278,173,165582,2,0,B|160:173,1,90,2|0,0:0|0:0,0:0:0
445,284,165946,2,0,B|538:284,1,90,10|0,0:0|0:0,0:0:0
260,359,166310,6,0,B|197:358|197:358|140:394|86:355,1,180,4|8,0:0|0:0,0:0:0
143,285,166855,2,0,B|140:238|110:203|110:203|140:168|148:118,1,180
256,194,167401,1,8,0:0:0
256,194,167582,1,0,0:0:0
369,285,167764,6,0,B|417:285,2,45,0|8|0,0:0|0:0|0:0,0:0:0
255,376,168128,1,8,0:0:0
143,285,168310,2,0,B|95:285,2,45,0|8|8,0:0|0:0|0:0,0:0:0
256,194,168673,2,0,B|262:186|262:186|249:185|249:185|262:176|262:176|249:176|249:176|262:166|262:166|249:168|249:168|262:158|262:158|249:159|249:159|256:146|256:146|257:85,1,180,0|0,0:0|0:0,0:0:0
256,285,169219,5,4,0:0:0
256,192,177946,12,4,179401,0:0:0
440,160,179582,6,0,B|464:120|448:72,2,90,0|8|0,0:0|0:0|0:0,0:0:0
368,108,180128,1,0,0:0:0
296,160,180310,2,0,B|248:168|236:224,1,90,8|0,0:0|0:0,0:0:0
196,296,180673,5,8,0:0:0
196,296,180764,1,8,0:0:0
196,296,180855,2,0,B|96:284|36:192,1,180,4|8,0:0|0:0,0:0:0
45,116,181401,2,0,B|45:20,1,90,2|0,0:0|0:0,0:0:0
45,206,181764,6,0,B|46:310,1,90,2|8,0:0|0:0,0:0:0
132,160,182128,2,0,B|228:128|300:200,1,180,2|2,0:0|0:0,0:0:0
196,296,182673,5,8,0:0:0
296,56,182855,2,0,B|386:101|386:203,1,180,2|2,0:0|0:0,0:0:0
196,296,183401,5,8,0:0:0
400,328,183582,2,0,B|483:275|474:174,1,180,2|0,0:0|0:0,0:0:0
256,216,184128,5,10,0:0:0
256,216,184310,2,0,B|172:176,1,90,0|2,0:0|0:0,0:0:0
308,312,184673,5,0,0:0:0
88,212,184855,2,0,B|72:164|104:116,1,90,10|0,0:0|0:0,0:0:0
296,56,185219,2,0,B|312:104|280:152,1,90,2|0,0:0|0:0,0:0:0
195,142,185582,2,0,B|379:142,1,180,10|2,0:0|0:0,0:0:0
208,56,186128,5,0,0:0:0
360,224,186310,1,8,0:0:0
368,312,186492,5,10,0:0:0
368,312,186582,1,8,0:0:0
368,312,186673,2,0,B|416:304|436:260,1,90,4|0,0:0|0:0,0:0:0
360,224,187037,1,8,0:0:0
280,348,187219,5,2,0:0:0
436,176,187401,1,0,0:0:0
360,224,187582,5,0,0:0:0
432,88,187764,1,10,0:0:0
348,116,187946,5,0,0:0:0
260,96,188128,1,2,0:0:0
172,76,188310,1,2,0:0:0
84,56,188492,1,8,0:0:0
28,124,188673,5,0,0:0:0
28,124,188764,1,8,0:0:0
28,124,188855,2,0,B|23:174|59:207,1,90,8|0,0:0|0:0,0:0:0
136,160,189219,1,8,0:0:0
48,296,189401,5,8,0:0:0
48,296,189492,1,8,0:0:0
48,296,189582,2,0,B|132:344|224:304,1,180,4|8,0:0|0:0,0:0:0
296,256,190128,1,0,0:0:0
216,212,190310,5,2,0:0:0
296,256,190492,2,0,B|340:272|384:240,1,90,0|8,0:0|0:0,0:0:0
388,36,190855,2,0,B|292:12|216:68,1,180,2|0,0:0|0:0,0:0:0
300,340,191401,2,0,B|396:364|472:308,1,180,8|2,0:0|0:0,0:0:0
496,220,191946,1,0,0:0:0
432,160,192128,1,8,0:0:0
344,172,192310,5,8,0:0:0
344,172,192401,1,8,0:0:0
344,172,192492,2,0,B|280:92,1,90,4|0,0:0|0:0,0:0:0
232,172,192855,2,0,B|148:140,1,90,8|0,0:0|0:0,0:0:0
140,232,193219,2,0,B|44:252,2,90,0|0|8,0:0|0:0|0:0,0:0:0
176,316,193764,1,0,0:0:0
260,280,193946,1,4,0:0:0
328,340,194128,5,0,0:0:0
339,320,194219,1,0,0:0:0
346,298,194310,1,8,0:0:0
347,275,194401,1,8,0:0:0
343,252,194492,1,8,0:0:0
334,231,194582,1,8,0:0:0
318,214,194673,1,8,0:0:0
299,201,194764,1,8,0:0:0
277,195,194855,2,0,B|223:191|210:141|225:102|275:86|314:125,1,180,4|0,0:0|0:0,0:0:0
386,161,195401,5,4,0:0:0
465,119,195582,1,0,0:0:0
384,78,195764,1,10,0:0:0
384,78,195946,1,0,0:0:0
388,246,196128,2,0,B|388:273|388:273|376:306|388:336,1,90
474,307,196492,1,10,0:0:0
291,310,196673,2,0,B|237:310|237:310|167:332|167:332|116:332,1,180,2|0,0:0|0:0,0:0:0
37,284,197219,2,0,B|12:328|32:370,1,90,10|0,0:0|0:0,0:0:0
85,208,197582,2,0,B|110:164|86:114,1,90,2|0,0:0|0:0,0:0:0
7,159,197946,1,10,0:0:0
174,231,198128,1,0,0:0:0
329,160,198310,6,0,B|372:140|417:160,1,90,2|0,0:0|0:0,0:0:0
465,234,198673,2,0,B|422:254|377:234,1,90,10|0,0:0|0:0,0:0:0
327,73,199037,1,2,0:0:0
277,232,199219,1,0,0:0:0
408,139,199401,1,10,0:0:0
247,137,199582,2,0,B|177:138|177:138|119:167|69:137,1,180,2|2,0:0|0:0,0:0:0
122,63,200128,1,8,0:0:0
173,231,200310,1,2,0:0:0
353,184,200492,1,10,0:0:0
353,184,200582,1,8,0:0:0
353,184,200673,1,0,0:0:0
297,18,200855,1,10,0:0:0
297,18,201219,6,0,B|343:3|385:19,1,90,4|0,0:0|0:0,0:0:0
122,63,201582,2,0,B|76:78|33:61,1,90,10|0,0:0|0:0,0:0:0
291,272,201946,2,0,B|262:187,1,90
326,359,202310,1,10,0:0:0
238,335,202492,2,0,B|244:293|284:255|336:253|383:282,1,180,2|0,0:0|0:0,0:0:0
459,237,203037,2,0,B|482:280|459:323,1,90,10|0,0:0|0:0,0:0:0
326,203,203401,2,0,B|303:160|326:115,1,90,2|0,0:0|0:0,0:0:0
451,0,203764,2,0,B|474:43|451:86,1,90,10|0,0:0|0:0,0:0:0
398,159,204128,6,0,B|351:159|351:159|272:170|272:170|216:170,1,180,2|10,0:0|0:0,0:0:0
173,92,204673,2,0,B|262:91,1,90,0|2,0:0|0:0,0:0:0
459,237,205037,2,2,B|370:238,1,90,0|8,0:0|0:0,0:0:0
184,281,205401,2,0,B|289:282|289:282|308:318|347:326,1,180,2|2,0:0|0:0,0:0:0
422,109,205946,1,8,0:0:0
244,239,206128,1,2,0:0:0
459,237,206310,1,10,0:0:0
459,237,206401,1,8,0:0:0
459,237,206492,1,0,0:0:0
281,107,206673,1,6,0:0:0
112,264,207037,5,4,0:0:0
180,324,207219,2,0,B|148:364|88:352,2,90,0|8|0,0:0|0:0|0:0,0:0:0
240,260,207764,1,2,0:0:0
172,196,207946,1,2,0:0:0
112,264,208128,1,8,0:0:0
180,324,208310,1,2,0:0:0
180,324,208492,6,0,B|268:368|364:300,1,180,0|8,0:0|0:0,0:0:0
432,348,209037,2,0,B|456:304|432:260,1,90,2|0,0:0|0:0,0:0:0
340,132,209401,2,0,B|316:176|340:220,1,90,2|8,0:0|0:0,0:0:0
420,176,209764,5,0,0:0:0
420,176,209946,2,0,B|462:92,1,90,2|0,0:0|0:0,0:0:0
271,272,210310,2,0,B|229:356,1,90,10|0,0:0|0:0,0:0:0
340,132,210673,5,2,0:0:0
340,132,210855,1,2,0:0:0
180,252,211037,1,8,0:0:0
256,164,211219,2,0,B|160:172|92:96,1,180,2|0,0:0|0:0,0:0:0
116,12,211764,1,10,0:0:0
28,40,211946,2,0,B|0:84|16:132,1,90,0|8,0:0|0:0,0:0:0
20,148,212219,1,8,0:0:0
56,252,212401,2,0,B|88:292,1,45,0|8,0:0|0:0,0:0:0
180,340,212673,5,10,0:0:0
180,340,212764,1,8,0:0:0
180,340,212855,2,0,B|220:362|272:344,1,90,4|0,0:0|0:0,0:0:0
336,284,213219,1,8,0:0:0
267,346,213401,2,0,B|239:262,1,90,0|2,0:0|0:0,0:0:0
104,292,213764,2,0,B|76:208,1,90,2|8,0:0|0:0,0:0:0
172,204,214128,1,4,0:0:0
260,152,214310,5,0,0:0:0
260,152,214401,1,8,0:0:0
260,152,214492,1,8,0:0:0
340,196,214673,1,8,0:0:0
412,140,214855,1,10,0:0:0
412,140,214946,1,8,0:0:0
412,140,215037,2,0,B|436:180|420:228,2,90,8|0|8,0:0|0:0|0:0,0:0:0
340,196,215582,5,2,0:0:0
212,72,215764,1,4,0:0:0
316,88,215946,5,0,0:0:0
176,248,216128,1,8,0:0:0
100,292,216310,5,8,0:0:0
89,272,216401,1,8,0:0:0
81,250,216492,1,8,0:0:0
77,228,216582,1,8,0:0:0
77,205,216673,1,8,0:0:0
78,182,216764,1,8,0:0:0
84,160,216855,1,8,0:0:0
92,139,216946,1,8,0:0:0
105,120,217037,1,4,0:0:0
256,192,217128,12,0,224128,0:0:0
