osu file format v12

[General]
AudioFilename: Rita - Hajimari no Toki.mp3
AudioLeadIn: 0
PreviewTime: 86946
Countdown: 0
SampleSet: Normal
StackLeniency: 0.7
Mode: 2
LetterboxInBreaks: 0

[Editor]
DistanceSpacing: 1
BeatDivisor: 4
GridSize: 16

[Metadata]
Title:Hajimari no Toki
TitleUnicode:ハジマリノトキ
Artist:Rita
ArtistUnicode:Rita
Creator:Deif
Version:Platter
Source:OniMari
Tags:130cm
BeatmapID:247642
BeatmapSetID:91485

[Difficulty]
HPDrainRate:6
CircleSize:4
OverallDifficulty:8
ApproachRate:8
SliderMultiplier:2
SliderTickRate:1

[Events]
//Background and Video events
0,0,"BG.jpg",0,0
//Break Periods
//Storyboard Layer 0 (Background)
//Storyboard Layer 1 (Fail)
//Storyboard Layer 2 (Pass)
//Storyboard Layer 3 (Foreground)
//Storyboard Sound Samples
//Background Colour Transformations
3,100,163,162,255

[TimingPoints]
4788,397.350993377483,4,1,1,65,1,0
5980,-200,4,2,1,25,0,0
20086,-100,4,1,2,40,0,0
20682,-100,4,2,2,65,0,0
21874,-100,4,1,2,65,0,0
22271,-100,4,2,3,80,0,1
25450,-100,4,2,4,70,0,1
28033,-100,4,2,3,80,0,1
31807,-100,4,2,4,70,0,1
32801,-100,4,2,3,80,0,1
34986,-100,4,2,3,70,0,0
47503,-100,4,2,1,10,0,0
48496,-200,4,2,1,20,0,0
49291,-200,4,2,2,35,0,0
61012,-100,4,2,2,50,0,0
72536,-100,4,1,2,50,0,0
72933,-100,4,2,2,50,0,0
73529,-100,4,1,2,50,0,0
74423,-100,4,2,2,50,0,0
74721,-100,4,2,1,65,0,0
75317,-75.7575757575758,4,2,1,65,0,0
75715,-100,4,2,1,65,0,0
85648,-100,4,2,1,80,0,0
86244,-100,4,2,5,65,0,0
87039,-100,4,2,1,80,0,0
87436,-100,4,2,3,80,0,1
90615,-100,4,2,4,70,0,1
93198,-100,4,2,3,80,0,1
96973,-100,4,2,4,70,0,1
98562,-100,4,1,2,70,0,1
99754,-100,4,2,3,80,0,1
103331,-100,4,2,4,70,0,1
105913,-100,4,2,3,80,0,1
109688,-100,4,2,4,70,0,1
111278,-100,4,1,2,70,0,1
112470,-100,4,2,3,80,0,1
112866,-200,4,2,1,35,0,0
115251,-100,4,2,1,70,0,0
115450,-100,4,1,2,70,0,0
116046,-100,4,2,1,70,0,0
124837,-100,4,2,1,35,0,0
125384,-100,4,2,1,70,0,0
127172,-100,4,1,2,70,0,0
128859,-100,4,2,1,30,0,0
135019,-100,4,2,1,5,0,0

[Colours]
Combo1 : 255,0,128
Combo2 : 255,128,192
Combo3 : 255,128,128

[HitObjects]
256,192,3794,12,2,6377,0:1:0:0:
256,192,7172,2,0,B|304:144|304:144|208:144,1,150
160,144,7966,1,2,0:0:0:0:
256,80,8364,1,2,0:0:0:0:
256,192,8761,1,2,0:0:0:0:
352,144,9158,1,2,0:0:0:0:
160,144,9555,5,2,0:0:0:0:
256,240,9953,2,0,L|320:240,1,50,2|0,0:0|0:0,0:0:0:0:
368,144,10350,2,0,L|336:240,1,100,2|2,0:0|0:0,0:0:0:0:
224,240,11145,5,2,0:0:0:0:
112,240,11543,1,2,0:0:0:0:
256,192,11940,1,2,0:0:0:0:
400,240,12337,1,2,0:0:0:0:
352,208,12536,1,0,0:0:0:0:
288,208,12735,5,4,0:1:0:0:
176,208,13132,1,0,0:0:0:0:
336,208,13529,2,0,B|384:160|384:160|288:160,1,150,2|0,0:0|0:0,0:0:0:0:
240,160,14324,1,2,0:0:0:0:
352,160,14721,5,2,0:0:0:0:
208,160,15119,1,2,0:0:0:0:
384,160,15516,2,0,L|384:272,1,100,2|2,0:0|0:0,0:0:0:0:
128,160,16311,6,0,B|128:256|128:256|176:160,1,200,2|2,0:0|0:0,0:0:0:0:
336,160,17503,1,2,0:0:0:0:
176,160,17900,6,0,L|176:110,1,50,2|2,0:0|0:0,0:0:0:0:
128,112,18298,2,0,L|128:64,2,33.3333333333333,2|0|0,0:0|0:0|0:0,0:0:0:0:
80,112,18695,2,0,L|80:64,2,33.3333333333333,2|0|0,0:0|0:0|0:0,0:0:0:0:
32,112,19092,6,0,B|112:176|112:176|192:112,1,200,6|2,0:1|0:0,0:0:0:0:
256,48,20086,1,8,0:0:0:0:
240,96,20185,1,0,0:0:0:0:
256,144,20284,1,8,0:0:0:0:
272,192,20384,1,0,0:0:0:0:
256,240,20483,1,8,0:0:0:0:
240,288,20582,1,0,0:0:0:0:
256,336,20682,6,0,L|416:336,1,150,2|0,0:0|0:0,0:0:0:0:
96,336,21278,2,0,L|208:336,1,100,2|2,0:0|0:0,0:0:0:0:
304,336,21675,1,0,0:0:0:0:
416,336,21874,6,0,L|400:224,1,100,8|0,0:0|0:0,0:0:0:0:
96,48,22271,2,0,L|112:160,1,100,12|8,0:0|0:0,0:0:0:0:
320,336,22668,2,0,L|304:224,1,100,0|10,0:0|0:0,0:0:0:0:
192,48,23066,1,2,0:0:0:0:
96,336,23463,6,0,L|112:224,1,100,0|8,0:0|0:0,0:0:0:0:
416,48,23860,2,0,L|400:160,1,100,8|8,0:0|0:0,0:0:0:0:
192,336,24257,2,0,L|208:224,1,100,0|10,0:0|0:0,0:0:0:0:
320,48,24655,1,2,0:0:0:0:
256,192,25052,5,0,0:0:0:0:
160,192,25251,1,8,0:0:0:0:
352,192,25450,2,0,B|432:144|432:144|464:32,2,200,8|8|8,0:0|0:0|0:0,0:0:0:0:
240,192,26443,1,8,0:0:0:0:
208,192,26542,1,0,0:0:0:0:
160,192,26642,1,0,0:0:0:0:
64,192,26840,1,8,0:0:0:0:
256,128,27039,5,8,0:0:0:0:
352,128,27238,1,8,0:0:0:0:
384,128,27337,1,0,0:0:0:0:
432,128,27437,1,0,0:0:0:0:
352,192,27635,1,8,0:0:0:0:
160,192,27834,1,8,0:0:0:0:
256,240,28033,1,8,0:0:0:0:
96,336,28231,6,0,L|112:224,1,100,2|8,0:1|0:0,0:0:0:0:
416,48,28628,2,0,L|400:160,1,100,8|8,0:0|0:0,0:0:0:0:
192,336,29025,2,0,L|176:224,1,100,0|10,0:0|0:0,0:0:0:0:
320,48,29423,1,2,0:0:0:0:
336,336,29820,6,0,L|352:224,1,100,0|8,0:0|0:0,0:0:0:0:
176,48,30217,2,0,L|160:160,1,100,8|8,0:0|0:0,0:0:0:0:
400,240,30614,2,0,L|416:128,1,100,0|10,0:0|0:0,0:0:0:0:
112,144,31013,1,2,0:0:0:0:
208,240,31410,5,0,0:0:0:0:
304,240,31608,1,8,0:0:0:0:
416,240,31807,1,8,0:0:0:0:
96,240,32205,1,8,0:0:0:0:
384,240,32602,2,0,L|352:144,1,100,8|8,0:0|0:0,0:0:0:0:
128,240,32999,2,0,L|160:144,1,100,0|8,0:0|0:0,0:0:0:0:
384,80,33397,5,12,0:0:0:0:
288,80,33595,1,8,0:0:0:0:
400,80,33794,1,0,0:0:0:0:
288,80,33993,1,8,0:0:0:0:
416,80,34191,1,0,0:0:0:0:
288,80,34390,2,0,L|336:96,1,50,8|0,0:0|0:0,0:0:0:0:
208,80,34688,2,0,L|256:96,1,50,0|8,0:0|0:0,0:0:0:0:
128,304,34986,5,0,0:0:0:0:
32,304,35185,1,8,0:0:0:0:
144,304,35384,1,0,0:0:0:0:
48,304,35582,1,8,0:0:0:0:
160,304,35781,1,0,0:0:0:0:
256,304,35980,2,0,L|304:272,1,50,8|0,0:0|0:0,0:0:0:0:
176,304,36278,2,0,L|224:272,1,50,0|8,0:0|0:0,0:0:0:0:
96,192,36576,5,0,0:0:0:0:
192,192,36774,1,8,0:0:0:0:
416,192,36973,1,0,0:0:0:0:
320,192,37171,1,8,0:0:0:0:
96,192,37370,1,0,0:0:0:0:
224,192,37569,2,0,L|176:176,1,50,8|0,0:0|0:0,0:0:0:0:
288,192,37867,2,0,L|336:176,1,50,0|8,0:0|0:0,0:0:0:0:
192,192,38165,5,0,0:0:0:0:
96,192,38363,1,8,0:0:0:0:
320,192,38562,1,0,0:0:0:0:
416,192,38760,1,0,0:0:0:0:
192,192,38960,1,0,0:0:0:0:
96,192,39158,2,0,L|128:144,1,50,8|8,0:0|0:0,0:0:0:0:
240,192,39357,2,0,L|208:144,1,50,2|0,0:1|0:0,0:0:0:0:
96,192,39556,1,8,0:0:0:0:
128,304,39754,5,0,0:0:0:0:
224,304,39952,1,8,0:0:0:0:
112,304,40151,1,0,0:0:0:0:
224,304,40350,1,8,0:0:0:0:
96,304,40548,1,0,0:0:0:0:
224,304,40747,2,0,L|176:288,1,50,8|0,0:0|0:0,0:0:0:0:
304,304,41045,2,0,L|256:288,1,50,0|8,0:0|0:0,0:0:0:0:
384,80,41343,5,0,0:0:0:0:
480,80,41542,1,8,0:0:0:0:
368,80,41741,1,0,0:0:0:0:
464,80,41939,1,8,0:0:0:0:
352,80,42138,1,0,0:0:0:0:
256,80,42337,2,0,L|208:112,1,50,8|0,0:0|0:0,0:0:0:0:
336,80,42635,2,0,L|288:112,1,50,0|8,0:0|0:0,0:0:0:0:
416,192,42933,5,0,0:0:0:0:
320,192,43131,1,8,0:0:0:0:
96,192,43330,1,0,0:0:0:0:
192,192,43528,1,8,0:0:0:0:
416,192,43727,1,0,0:0:0:0:
288,192,43926,2,0,L|336:208,1,50,8|0,0:0|0:0,0:0:0:0:
224,192,44224,2,0,L|176:208,1,50,0|8,0:0|0:0,0:0:0:0:
320,192,44522,5,0,0:0:0:0:
416,192,44720,1,8,0:0:0:0:
192,192,44919,1,0,0:0:0:0:
96,192,45119,1,0,0:0:0:0:
304,192,45317,2,0,L|320:240,1,50,8|8,0:0|0:0,0:0:0:0:
208,192,45516,2,0,L|192:240,1,50,2|0,0:1|0:0,0:0:0:0:
304,112,45715,1,8,0:0:0:0:
256,112,45814,1,8,0:0:0:0:
208,112,45913,1,0,0:0:0:0:
256,192,46112,12,0,47701,0:0:0:0:
336,192,48495,5,0,0:0:0:0:
416,192,48893,1,0,0:0:0:0:
256,192,49290,5,12,0:0:0:0:
80,192,49688,1,2,0:0:0:0:
48,192,50086,1,0,0:0:0:0:
16,192,50483,1,2,0:0:0:0:
256,192,50880,5,8,0:0:0:0:
400,192,51278,1,2,0:0:0:0:
432,192,51675,1,0,0:0:0:0:
464,192,52072,1,2,0:0:0:0:
256,192,52470,5,8,0:0:0:0:
368,192,52867,1,2,0:0:0:0:
336,192,53066,1,0,0:0:0:0:
304,192,53264,1,10,0:0:0:0:
144,192,53662,1,2,0:0:0:0:
176,192,53860,1,0,0:0:0:0:
208,192,54059,5,8,0:0:0:0:
256,192,54456,1,2,0:0:0:0:
304,192,54854,1,0,0:0:0:0:
160,192,55251,1,2,0:0:0:0:
352,192,55648,5,8,0:0:0:0:
400,192,56046,1,2,0:0:0:0:
352,192,56443,1,0,0:0:0:0:
304,192,56840,1,2,0:0:0:0:
240,192,57039,1,0,0:0:0:0:
160,192,57238,5,8,0:0:0:0:
48,192,57635,1,2,0:0:0:0:
256,192,58032,1,0,0:0:0:0:
464,192,58429,1,2,0:0:0:0:
400,192,58629,1,0,0:0:0:0:
320,192,58827,5,8,0:0:0:0:
192,192,59225,1,2,0:0:0:0:
368,192,59622,1,8,0:0:0:0:
144,192,60019,1,2,0:0:0:0:
80,192,60218,1,0,0:0:0:0:
32,192,60417,5,10,0:0:0:0:
208,192,60814,1,8,0:1:0:0:
416,192,61211,1,8,0:1:0:0:
320,192,61410,1,0,0:1:0:0:
96,192,61609,1,10,0:1:0:0:
192,192,61808,1,0,0:1:0:0:
416,192,62006,6,0,L|320:160,2,100,12|0|2,0:0|0:0|0:0,0:0:0:0:
96,192,62801,2,0,L|192:160,2,100,0|0|2,0:0|0:0|0:0,0:0:0:0:
336,192,63595,1,8,0:0:0:0:
368,192,63794,1,0,0:0:0:0:
176,192,63993,1,2,0:0:0:0:
144,192,64192,1,0,0:0:0:0:
400,192,64390,1,0,0:0:0:0:
256,192,64589,1,0,0:0:0:0:
112,192,64787,1,2,0:0:0:0:
400,192,65185,6,0,B|464:272|464:272|384:208,1,200,8|2,0:0|0:0,0:0:0:0:
192,160,65980,1,8,0:0:0:0:
320,224,66377,1,2,0:0:0:0:
112,192,66774,2,0,B|48:112|48:112|128:176,1,200,8|2,0:0|0:0,0:0:0:0:
320,224,67569,1,0,0:0:0:0:
432,160,67966,1,2,0:0:0:0:
32,192,68364,6,0,B|112:64,1,150,8|0,0:0|0:0,0:0:0:0:
32,64,68761,1,2,0:0:0:0:
162,127,68960,2,0,B|224:176|224:176|272:64,1,200
480,64,69754,1,0,0:0:0:0:
368,64,69953,1,8,0:0:0:0:
96,192,70350,5,2,0:0:0:0:
416,192,70748,1,0,0:0:0:0:
112,192,71145,1,2,0:0:0:0:
400,192,71542,2,0,L|224:96,2,200,8|2|8,0:0|0:0|0:0,0:0:0:0:
320,192,72536,1,8,0:0:0:0:
288,192,72635,1,8,0:0:0:0:
256,192,72735,1,8,0:0:0:0:
224,192,72834,1,8,0:0:0:0:
192,224,72933,6,0,B|96:192|96:192|192:160,1,200,4|0,0:0|0:0,0:0:0:0:
320,160,73529,1,8,0:0:0:0:
128,112,73728,1,0,0:0:0:0:
384,192,73927,2,0,L|415:286,1,100,8|8,0:0|0:0,0:0:0:0:
128,192,74324,2,0,L|96:96,1,100,10|8,0:1|0:0,0:0:0:0:
415,286,74721,5,6,0:0:0:0:
224,192,75119,1,8,0:0:0:0:
96,192,75317,1,2,0:0:0:0:
384,192,75715,1,2,0:0:0:0:
288,192,75913,1,8,0:0:0:0:
192,192,76112,1,2,0:0:0:0:
480,192,76509,1,2,0:0:0:0:
352,192,76708,2,0,L|416:112,1,100,8|0,0:0|0:0,0:0:0:0:
256,192,77105,2,0,L|320:112,1,100,8|2,0:0|0:0,0:0:0:0:
480,192,77503,2,0,L|416:112,1,100,8|2,0:0|0:0,0:0:0:0:
97,286,77900,5,6,0:0:0:0:
288,192,78298,1,8,0:0:0:0:
416,192,78496,1,2,0:0:0:0:
128,192,78894,1,2,0:0:0:0:
224,192,79092,1,8,0:0:0:0:
320,192,79291,1,2,0:0:0:0:
32,192,79688,1,2,0:0:0:0:
160,192,79887,2,0,L|96:112,1,100,8|0,0:0|0:0,0:0:0:0:
256,192,80284,2,0,L|192:112,1,100,8|10,0:0|0:0,0:0:0:0:
32,192,80682,2,0,L|96:112,1,100,2|2,0:0|0:0,0:0:0:0:
480,192,81079,6,0,L|416:272,1,100,4|2,0:0|0:0,0:0:0:0:
320,304,81476,2,0,L|416:272,1,100,0|10,0:0|0:0,0:0:0:0:
256,192,81874,1,0,0:0:0:0:
256,192,82072,1,10,0:0:0:0:
192,192,82271,1,8,0:0:0:0:
320,192,82470,1,2,0:0:0:0:
32,192,82668,6,0,L|96:112,1,100,0|2,0:0|0:0,0:0:0:0:
192,80,83065,2,0,L|96:112,1,100,0|10,0:0|0:0,0:0:0:0:
256,192,83463,1,0,0:0:0:0:
256,192,83661,1,10,0:0:0:0:
320,192,83860,1,8,0:0:0:0:
192,192,84059,6,0,L|160:288,1,100,2|0,0:0|0:0,0:0:0:0:
320,192,84456,2,0,L|352:288,1,100,2|8,0:0|0:0,0:0:0:0:
448,224,84854,2,0,L|348:224,1,100,2|0,0:0|0:0,0:0:0:0:
164,224,85251,2,0,L|64:224,1,100,10|8,0:0|0:0,0:0:0:0:
420,192,85648,6,0,B|448:288|448:288|448:176,1,200,4|8,0:0|0:0,0:0:0:0:
64,188,86244,1,2,0:0:0:0:
97,143,87039,6,0,L|144:48,1,100
415,143,87437,2,0,L|368:48,1,100,12|8,0:0|0:0,0:0:0:0:
208,112,87834,2,0,L|304:144,1,100,0|10,0:0|0:0,0:0:0:0:
192,112,88231,1,2,0:0:0:0:
415,241,88629,6,0,L|368:336,1,100,0|8,0:0|0:0,0:0:0:0:
97,241,89027,2,0,L|144:336,1,100,8|8,0:0|0:0,0:0:0:0:
304,272,89424,2,0,L|208:240,1,100,0|10,0:0|0:0,0:0:0:0:
320,272,89821,1,2,0:0:0:0:
304,192,90218,5,0,0:0:0:0:
208,192,90417,1,8,0:0:0:0:
320,192,90615,2,0,B|416:160|416:160|480:80,2,200,8|8|8,0:0|0:0|0:0,0:0:0:0:
192,192,91609,1,8,0:0:0:0:
160,192,91708,1,0,0:0:0:0:
176,192,91808,1,0,0:0:0:0:
336,192,92006,1,8,0:0:0:0:
256,96,92205,5,8,0:0:0:0:
352,96,92404,1,8,0:0:0:0:
400,96,92503,1,0,0:0:0:0:
432,96,92603,1,0,0:0:0:0:
160,96,92801,1,8,0:0:0:0:
352,96,93000,1,8,0:0:0:0:
160,96,93198,1,8,0:0:0:0:
32,96,93397,6,0,L|96:176,1,100,2|8,0:1|0:0,0:0:0:0:
480,288,93794,2,0,L|416:208,1,100,12|8,0:0|0:0,0:0:0:0:
94,174,94191,2,0,L|128:272,1,100,0|10,0:0|0:0,0:0:0:0:
417,209,94589,1,2,0:0:0:0:
385,115,94986,6,0,L|417:209,1,100,0|8,0:0|0:0,0:0:0:0:
126,268,95384,2,0,L|94:174,1,100,8|0,0:0|0:0,0:0:0:0:
417,209,95781,2,0,L|480:288,1,100,0|10,0:0|0:0,0:0:0:0:
94,174,96178,1,2,0:0:0:0:
96,80,96576,5,0,0:0:0:0:
256,80,96774,1,8,0:0:0:0:
416,80,96973,1,8,0:0:0:0:
96,192,97369,1,8,0:0:0:0:
416,192,97768,2,0,L|384:288,1,100,8|8,0:0|0:0,0:0:0:0:
96,192,98165,2,0,L|128:96,1,100,0|8,0:0|0:0,0:0:0:0:
272,96,98562,5,8,0:0:0:0:
224,96,98662,1,0,0:0:0:0:
192,96,98761,1,0,0:0:0:0:
400,192,98960,1,8,0:0:0:0:
240,288,99158,1,0,0:0:0:0:
192,288,99258,1,0,0:0:0:0:
160,288,99357,1,8,0:0:0:0:
400,192,99556,1,0,0:0:0:0:
208,48,99754,6,0,L|112:80,1,100,2|0,0:1|0:0,0:0:0:0:
464,192,100152,2,0,L|416:96,1,100,12|8,0:0|0:0,0:0:0:0:
240,176,100549,2,0,L|288:272,1,100,0|10,0:0|0:0,0:0:0:0:
128,336,100946,1,2,0:0:0:0:
304,336,101344,6,0,L|400:304,1,100,0|8,0:0|0:0,0:0:0:0:
48,192,101741,2,0,L|96:288,1,100,8|8,0:0|0:0,0:0:0:0:
272,208,102138,2,0,L|224:112,1,100,0|10,0:0|0:0,0:0:0:0:
384,48,102536,1,2,0:0:0:0:
208,192,102933,5,0,0:0:0:0:
304,192,103132,1,8,0:0:0:0:
192,192,103330,2,0,B|96:224|96:224|32:304,2,200,8|8|8,0:0|0:0|0:0,0:0:0:0:
320,192,104324,1,8,0:0:0:0:
352,192,104423,1,0,0:0:0:0:
336,192,104523,1,0,0:0:0:0:
176,192,104721,1,8,0:0:0:0:
256,288,104920,5,8,0:0:0:0:
160,288,105119,1,8,0:0:0:0:
112,288,105218,1,0,0:0:0:0:
80,288,105318,1,0,0:0:0:0:
352,288,105516,1,8,0:0:0:0:
160,288,105715,1,8,0:0:0:0:
352,288,105913,1,8,0:0:0:0:
480,288,106112,6,0,L|416:208,1,100,2|8,0:1|0:0,0:0:0:0:
32,96,106509,2,0,L|96:176,1,100,12|8,0:0|0:0,0:0:0:0:
418,210,106906,2,0,L|384:112,1,100,0|10,0:0|0:0,0:0:0:0:
95,175,107304,1,2,0:0:0:0:
127,269,107701,6,0,L|95:175,1,100,0|8,0:0|0:0,0:0:0:0:
386,116,108099,2,0,L|418:210,1,100,8|8,0:0|0:0,0:0:0:0:
95,175,108496,2,0,L|32:96,1,100,0|8,0:0|0:0,0:0:0:0:
418,210,108893,1,2,0:0:0:0:
416,304,109291,5,0,0:0:0:0:
256,304,109489,1,8,0:0:0:0:
96,304,109688,1,8,0:0:0:0:
416,192,110086,1,8,0:0:0:0:
96,192,110483,2,0,L|128:96,1,100,8|8,0:0|0:0,0:0:0:0:
416,192,110880,2,0,L|384:288,1,100,0|8,0:0|0:0,0:0:0:0:
208,288,111277,5,0,0:0:0:0:
160,288,111377,1,0,0:0:0:0:
128,288,111476,1,0,0:0:0:0:
336,192,111675,1,8,0:0:0:0:
208,96,111873,1,0,0:0:0:0:
160,96,111973,1,0,0:0:0:0:
128,96,112072,1,8,0:0:0:0:
368,192,112271,1,0,0:0:0:0:
320,192,112470,5,2,0:1:0:0:
272,192,112668,1,0,0:0:0:0:
224,192,112867,1,12,0:0:0:0:
48,192,113662,2,0,L|80:96,1,100,2|0,0:0|0:0,0:0:0:0:
464,192,114456,6,0,L|432:288,1,100,4|0,0:0|0:0,0:0:0:0:
128,192,115251,1,4,0:0:0:0:
384,192,115450,1,8,0:0:0:0:
320,192,115549,1,0,0:0:0:0:
272,192,115648,1,8,0:0:0:0:
240,192,115748,1,0,0:0:0:0:
224,192,115847,1,8,0:0:0:0:
240,176,115946,1,0,0:0:0:0:
256,160,116046,1,4,0:0:0:0:
256,192,116244,12,8,119026,0:0:0:0:
336,192,119225,6,0,L|256:128,1,100,0|8,0:0|0:0,0:0:0:0:
400,192,119622,2,0,L|320:128,1,100,0|8,0:0|0:0,0:0:0:0:
176,192,120019,2,0,L|256:128,1,100,0|8,0:0|0:0,0:0:0:0:
112,192,120416,2,0,L|192:128,1,100,0|8,0:0|0:0,0:0:0:0:
48,192,120814,5,0,0:0:0:0:
32,160,121013,1,8,0:0:0:0:
256,192,121211,1,0,0:0:0:0:
256,192,121410,1,8,0:0:0:0:
480,224,121609,1,0,0:0:0:0:
464,192,121807,1,8,0:0:0:0:
432,192,121907,1,8,0:0:0:0:
400,192,122006,1,2,0:1:0:0:
368,192,122105,1,0,0:0:0:0:
336,192,122205,1,10,0:0:0:0:
128,192,122403,6,0,L|96:96,1,100,0|8,0:0|0:0,0:0:0:0:
384,192,122801,2,0,L|416:288,1,100,0|8,0:0|0:0,0:0:0:0:
256,192,123198,1,0,0:0:0:0:
128,192,123397,2,0,B|96:96|96:96|112:48,1,150,8|0,0:0|0:0,0:0:0:0:
176,48,123794,1,8,0:0:0:0:
384,192,123993,2,0,B|416:288|416:288|400:336,1,150,8|8,0:0|0:0,0:0:0:0:
336,336,124390,1,0,0:0:0:0:
176,336,124589,1,2,0:0:0:0:
256,192,124787,2,0,L|320:272,1,100,2|0,0:0|0:0,0:0:0:0:
256,192,125185,2,0,L|192:112,1,100,0|8,0:0|0:0,0:0:0:0:
48,192,125582,6,0,L|96:48,1,150,8|8,0:0|0:0,0:0:0:0:
16,48,125980,2,0,L|128:48,1,100
464,192,126377,2,0,L|416:336,1,150,8|8,0:0|0:0,0:0:0:0:
496,336,126774,2,0,L|384:336,1,100
144,192,127172,6,0,L|96:176,2,50,0|0|4,0:0|0:0|0:0,0:0:0:0:
368,192,127569,2,0,L|416:176,2,50,0|0|4,0:0|0:0|0:0,0:0:0:0:
96,240,127966,2,0,L|32:240,2,50,0|0|4,0:0|0:0|0:0,0:0:0:0:
416,240,128364,2,0,L|480:240,2,50,2|0|4,0:0|0:0|0:0,0:0:0:0:
256,192,128760,12,0,135118,0:0:0:0:
