osu file format v9

[General]
AudioFilename: Egao no Sphere.mp3
AudioLeadIn: 0
PreviewTime: 72506
Countdown: 0
SampleSet: Soft
StackLeniency: 0.7
Mode: 1
LetterboxInBreaks: 1

[Editor]
DistanceSpacing: 1.2
BeatDivisor: 4
GridSize: 4

[Metadata]
Title:Egao no Sphere (Short Ver.)
Artist:Rita
Creator:KanaRin
Version:Taiko Oni
Source:Marguerite Sphere
Tags:Meteor karenying SiU_Leaf

[Difficulty]
HPDrainRate:5
CircleSize:5
OverallDifficulty:5
ApproachRate:5
SliderMultiplier:1.4
SliderTickRate:1

[Events]
//Background and Video events
Video,-4800,"video2.flv"
0,0,"Taiko_BG.jpg"
//Break Periods
//Storyboard Layer 0 (Background)
//Storyboard Layer 1 (Fail)
//Storyboard Layer 2 (Pass)
//Storyboard Layer 3 (Foreground)
//Storyboard Sound Samples
//Background Colour Transformations
3,100,163,162,255

[TimingPoints]
1030,394.736842105263,4,2,1,90,1,0
16818,454.545454545455,4,2,1,90,1,0
53181,-133.333333333333,4,2,1,90,0,0
65454,-100,4,2,1,90,0,0
73181,-100,4,2,1,90,0,1
104090,-100,4,2,1,90,0,0

[Colours]
Combo1 : 255,255,255
Combo2 : 255,255,128
Combo3 : 255,128,128

[HitObjects]
144,164,16818,1,4
248,144,17045,5,0
248,144,17158,1,0
248,144,17272,1,2
248,144,17499,1,0
248,144,17727,1,2
288,152,17840,1,0
248,144,18068,1,0
248,144,18181,1,2
248,144,18636,1,0
248,144,18749,1,0
248,144,18863,1,2
248,144,19090,1,8
248,144,19318,1,0
248,144,19431,1,2
296,136,19658,1,2
248,144,19772,1,0
248,144,19999,1,8
248,144,20454,1,8
268,184,20568,1,2
248,144,20681,1,0
248,144,20908,1,2
248,144,21136,1,0
248,144,21249,1,0
248,144,21477,1,8
248,144,21590,1,8
248,144,21818,1,2
248,144,22272,1,2
248,144,22613,1,2
248,144,22954,1,2
248,144,23181,1,0
180,152,23295,1,0
248,144,23408,1,0
232,180,23522,1,0
248,144,23636,1,2
248,144,23863,1,0
248,144,24090,1,4
248,144,24318,1,0
248,144,24545,1,2
248,144,24772,1,2
180,152,24886,1,2
248,144,25113,1,2
248,144,25227,1,0
248,144,25454,1,2
248,144,25681,1,0
248,144,25908,1,2
248,144,26136,1,0
248,144,26363,1,2
248,144,26590,1,0
248,144,26704,1,2
248,144,26931,1,2
248,144,27045,1,2
248,144,27272,1,2
248,144,27499,1,0
248,144,27727,1,0
176,156,27840,1,0
248,144,27954,1,2
248,144,28181,1,2
248,144,28408,5,0
248,144,28636,1,2
228,168,28749,1,0
248,144,28863,1,0
248,144,29090,1,2
248,144,29318,1,0
248,144,29545,1,2
280,156,29658,1,0
248,144,29886,1,0
248,144,29999,1,2
248,144,30227,1,0
248,144,30454,1,0
204,164,30568,1,0
248,144,30681,1,2
244,176,30795,1,0
248,144,30908,1,2
248,144,31136,1,0
248,144,31363,1,4
248,144,31590,1,0
248,144,31818,1,2
248,144,32045,1,0
292,148,32158,1,2
248,144,32386,1,0
248,144,32499,1,0
248,144,32727,1,2
248,144,32954,1,0
248,144,33181,1,2
248,144,33408,1,0
248,144,33636,1,2
248,144,33863,1,0
192,164,33977,1,0
248,144,34204,5,0
248,144,34318,1,0
248,144,34545,1,2
248,144,34772,1,0
248,144,34999,1,0
248,144,35113,1,0
248,144,35227,1,2
248,144,35454,1,2
248,144,35681,1,0
248,144,35908,1,2
184,188,36022,1,2
248,144,36136,1,2
248,144,36363,1,2
248,144,36590,1,0
248,144,36817,1,2
256,172,36931,1,0
248,144,37158,1,0
248,144,37272,1,2
248,144,37499,1,0
248,144,37727,1,0
248,144,37840,1,8
248,144,37954,1,0
248,144,38068,1,8
248,144,38181,1,0
248,144,38295,1,0
248,144,38408,1,2
248,144,38636,1,4
248,144,38863,1,0
248,144,39090,1,2
176,156,39317,1,2
248,144,39431,1,2
248,144,39658,1,2
248,144,39772,5,0
248,144,39999,1,2
248,144,40227,1,0
248,144,40454,1,2
248,144,40681,1,0
248,144,40908,1,2
248,144,41136,1,0
200,156,41249,1,2
248,144,41477,1,2
248,144,41590,1,0
248,144,41817,1,2
248,144,42045,1,0
248,144,42272,1,2
236,176,42386,1,0
248,144,42499,1,0
248,144,42727,1,2
248,144,42954,1,0
248,144,43181,1,2
276,172,43295,1,2
248,144,43408,1,0
248,144,43636,1,2
248,144,43863,1,0
248,144,44090,1,2
212,160,44204,1,0
248,144,44431,1,0
248,144,44545,1,2
248,144,44772,1,0
248,144,44999,1,2
248,144,45113,1,0
248,144,45227,1,2
248,144,45454,5,0
168,152,45567,1,2
248,144,45681,1,0
248,144,45908,1,4
248,144,46136,1,0
248,144,46363,1,2
168,152,46590,1,0
248,144,46704,1,0
248,144,46931,1,2
248,144,47045,1,0
248,144,47272,1,2
248,144,47499,1,0
248,144,47727,1,2
212,156,47840,1,0
248,144,47954,1,2
248,144,48181,1,2
248,144,48408,1,0
192,184,48522,1,2
248,144,48749,1,2
248,144,48863,1,0
248,144,49090,1,2
164,144,49317,1,0
248,144,49545,1,2
192,184,49658,1,0
248,144,49886,1,0
248,144,49999,1,2
248,144,50227,1,0
248,144,50454,1,2
192,184,50567,1,2
248,144,50795,1,2
248,144,50908,1,2
248,144,51136,5,6
248,144,51363,1,2
248,144,51817,1,2
248,144,52045,1,0
248,144,52272,1,2
200,176,52386,1,2
248,144,52499,1,2
248,144,52727,1,0
200,176,52840,1,0
248,144,52954,1,0
248,144,53181,1,4
248,144,53636,1,2
248,144,54090,1,0
248,144,54545,1,2
248,144,54999,1,2
196,180,55227,1,0
248,144,55454,1,2
196,180,55681,1,0
248,144,55908,1,0
248,144,56590,1,0
248,144,56817,5,2
248,144,57272,1,2
248,144,57499,1,0
248,144,58181,1,2
248,144,58408,1,0
248,144,58636,1,2
248,144,58863,1,0
248,144,59090,1,2
176,156,59317,1,0
220,168,59431,1,0
248,144,59545,1,2
248,144,59772,1,0
248,144,59999,1,2
248,144,60227,1,0
248,144,60454,1,4
248,144,60908,1,2
248,144,61363,1,0
248,144,61817,1,0
168,200,62045,1,0
248,144,62272,1,2
248,144,62727,1,2
128,188,62954,1,0
248,144,63408,1,0
248,144,63636,1,2
248,144,63863,1,0
248,144,64090,1,2
248,144,64772,1,0
248,144,64999,1,2
248,144,65227,1,2
140,152,65454,1,0
164,168,65681,1,2
248,144,65795,1,2
248,144,65908,1,0
248,144,66136,1,0
248,144,66363,1,2
248,144,66817,1,0
248,144,67045,1,0
248,144,67272,1,2
248,144,67727,1,2
248,144,67954,1,0
248,144,68181,5,2
248,144,68636,1,0
248,144,68863,1,0
248,144,69090,1,2
248,144,69545,1,0
248,144,69772,1,0
248,144,69999,1,2
248,144,70227,1,2
248,144,70454,1,2
248,144,70567,1,2
248,144,70681,1,0
248,144,70795,1,0
248,144,70908,1,2
248,144,71022,1,2
248,144,71136,1,0
248,144,71363,1,4
248,144,71817,1,0
248,144,72045,1,0
248,144,72272,1,0
180,208,72386,1,0
248,144,72613,1,0
248,144,72727,1,2
248,144,72954,1,0
248,144,73181,1,2
248,144,73295,1,0
248,144,73408,1,2
248,144,73522,1,0
248,144,73636,1,0
248,144,73863,5,0
248,144,74090,1,2
248,144,74317,1,0
248,144,74431,1,2
248,144,74545,1,2
248,144,74772,1,0
248,144,74999,1,2
248,144,75340,1,2
248,144,75681,1,0
248,144,75908,1,2
248,144,76136,1,0
248,144,76477,1,2
248,144,76817,1,2
248,144,76931,1,0
248,144,77045,1,2
248,144,77272,1,2
248,144,77499,1,0
248,144,77727,1,0
248,144,77840,1,2
248,144,77954,1,0
248,144,78181,1,2
144,148,78408,1,0
248,144,78636,1,2
248,144,79090,1,2
248,144,79317,1,0
248,144,79772,1,0
248,144,79999,1,2
248,144,80227,1,0
248,144,80454,1,0
108,164,80567,1,0
168,168,80795,1,0
328,192,80908,1,2
168,168,81136,1,0
248,144,81590,1,0
248,144,81817,1,2
168,168,82045,1,0
100,172,82272,1,2
168,168,82386,1,0
100,172,82613,1,2
248,144,82727,1,2
248,144,82954,1,0
248,144,83181,1,2
248,144,83636,1,2
248,144,83863,1,0
248,144,84090,1,2
192,160,84204,1,2
248,144,84317,1,2
248,144,84545,1,2
248,144,84772,1,0
248,144,84999,1,2
248,200,85113,1,0
248,144,85227,5,2
248,144,85454,1,2
248,144,85681,1,0
248,144,85908,1,2
360,188,86022,1,0
248,144,86249,1,2
248,144,86363,1,0
248,144,86590,1,2
248,144,86817,1,0
216,172,86931,1,0
248,144,87045,1,2
216,172,87158,1,2
248,144,87272,1,2
248,144,87499,1,0
248,144,87727,1,4
172,160,87954,1,0
172,160,88181,1,2
248,144,88408,1,0
240,184,88522,1,2
248,144,88749,1,2
248,144,88863,1,0
248,144,89090,1,2
248,144,89317,1,0
248,144,89545,1,2
248,144,89886,1,2
248,144,90227,1,0
248,144,90454,1,2
248,144,90681,1,0
248,144,91022,5,2
248,144,91363,1,0
248,144,91477,1,0
248,144,91590,1,2
248,144,91818,1,2
248,144,92045,1,0
248,144,92272,1,2
280,164,92386,1,0
248,144,92499,1,0
248,144,92727,1,2
248,144,92954,1,0
248,144,93181,1,2
248,144,93636,1,2
248,144,93863,1,0
248,144,94318,1,0
248,144,94545,1,2
248,144,94772,1,2
248,144,94999,1,4
248,144,95227,1,2
248,144,95681,1,2
248,144,95908,1,4
248,144,96136,1,2
248,144,96590,5,2
248,144,96818,1,4
248,144,97045,1,2
152,164,97272,1,2
248,144,97499,1,0
280,196,97613,1,0
248,144,97727,1,2
248,144,97954,1,0
248,144,98181,1,2
248,144,98408,1,2
280,196,98522,1,0
248,144,98636,1,2
248,144,98863,1,0
248,144,99090,1,2
248,144,99318,1,2
200,172,99431,1,2
248,144,99545,1,2
248,144,99772,1,0
248,144,99999,1,2
256,192,100227,12,0,101818
248,144,102045,5,4
104,104,102499,1,2
104,104,102727,1,2
104,104,102954,1,2
104,104,103181,1,2
128,136,103295,1,0
164,144,103408,1,2
164,144,103636,1,2
164,144,103863,1,0
164,144,104090,1,4
276,144,104431,1,2
276,144,104772,1,0
276,144,105227,1,0
276,144,105454,1,2
124,140,105908,1,2
204,152,106249,1,2
204,152,106590,1,0
204,152,107045,1,0
204,152,107272,1,2
204,152,107727,1,2
204,152,108068,1,2
204,152,108408,1,0
204,152,108863,1,0
204,152,109090,1,2
276,160,109545,1,0
276,160,109886,1,2
224,120,110227,1,6
252,128,110681,1,6
