osu file format v9

[General]
AudioFilename: 03. Dream Walker.mp3
AudioLeadIn: 0
PreviewTime: 87568
Countdown: 0
SampleSet: Normal
StackLeniency: 0.7
Mode: 0
LetterboxInBreaks: 1

[Editor]
Bookmarks: 87568,155307
DistanceSpacing: 0.8
BeatDivisor: 4
GridSize: 4

[Metadata]
Title:Dream Walker
Artist:Rita
Creator:Quilt
Version:Insane
Source:
Tags:Naryuga alacat Electro.muster Emt Taishi Katou Yoshiharu karory The Personalizer GWAVE

[Difficulty]
HPDrainRate:7
CircleSize:4
OverallDifficulty:8
ApproachRate:9
SliderMultiplier:1.8
SliderTickRate:2

[Events]
//Background and Video events
0,0,"BG.jpg"
//Break Periods
2,77355,87013
2,114384,120441
2,192727,197413
2,210184,221413
//Storyboard Layer 0 (Background)
//Storyboard Layer 1 (Fail)
//Storyboard Layer 2 (Pass)
//Storyboard Layer 3 (Foreground)
//Storyboard Sound Samples
//Background Colour Transformations
3,100,163,162,255

[TimingPoints]
22299,342.857142857143,4,1,1,80,1,0
22470,-100,4,2,1,80,0,0
23070,-100,4,1,1,80,0,0
23241,-100,4,2,1,80,0,0
23584,-100,4,1,1,80,0,0
23756,-100,4,2,1,80,0,0
24527,-100,4,1,1,80,0,0
24613,-100,4,2,1,80,0,0
24956,-100,4,1,1,80,0,0
25127,-100,4,2,1,80,0,0
25813,-100,4,1,1,80,0,0
25984,-100,4,2,1,80,0,0
26327,-100,4,1,1,80,0,0
26499,-100,4,2,1,80,0,0
27184,-100,4,1,1,80,0,0
27356,-100,4,2,1,80,0,0
27699,-100,4,1,1,80,0,0
27870,-100,4,2,1,80,0,0
28556,-100,4,1,1,80,0,0
28727,-100,4,2,1,80,0,0
29070,-100,4,1,1,80,0,0
29241,-100,4,2,1,80,0,0
29927,-100,4,1,1,80,0,0
30099,-100,4,2,1,80,0,0
30441,-100,4,1,1,80,0,0
30613,-100,4,2,1,80,0,0
31299,-100,4,1,1,80,0,0
31470,-100,4,2,1,80,0,0
31813,-100,4,1,1,80,0,0
31984,-100,4,2,1,80,0,0
32327,-100,4,1,1,80,0,0
32499,-100,4,2,1,80,0,0
32841,-100,4,1,1,80,0,0
33356,-100,4,2,1,80,0,0
34041,-100,4,1,1,80,0,0
34213,-100,4,2,1,80,0,0
34556,-100,4,1,1,80,0,0
34727,-100,4,2,1,80,0,0
35413,-100,4,1,1,80,0,0
35584,-100,4,2,1,80,0,0
35927,-100,4,1,1,80,0,0
36099,-100,4,2,1,80,0,0
36784,-100,4,1,1,80,0,0
36956,-100,4,2,1,80,0,0
37299,-100,4,1,1,80,0,0
37470,-100,4,2,1,80,0,0
38241,-100,4,1,1,80,0,0
38327,-100,4,2,1,80,0,0
38670,-100,4,1,1,80,0,0
38841,-100,4,2,1,80,0,0
40041,-100,4,1,1,70,0,0
40213,-100,4,2,1,70,0,0
40899,-100,4,1,1,60,0,0
41070,-100,4,2,1,60,0,0
41413,-100,4,1,1,50,0,0
41584,-100,4,2,1,50,0,0
42270,-100,4,1,1,50,0,0
42441,-100,4,2,1,50,0,0
42784,-100,4,1,1,50,0,0
42956,-100,4,2,1,50,0,0
43470,-100,4,2,1,50,0,0
43641,-100,4,2,1,40,0,0
43984,-100,4,2,1,50,0,0
44241,-100,4,2,1,80,0,0
44327,-100,4,2,1,80,0,0
45013,-100,4,1,1,80,0,0
45184,-100,4,2,1,80,0,0
45527,-100,4,1,1,80,0,0
45699,-100,4,2,1,80,0,0
46384,-100,4,1,1,80,0,0
46556,-100,4,2,1,80,0,0
46899,-100,4,1,1,80,0,0
47070,-100,4,2,1,80,0,0
47756,-100,4,1,1,80,0,0
47927,-100,4,2,1,80,0,0
48270,-100,4,1,1,80,0,0
48441,-100,4,2,1,80,0,0
49127,-100,4,1,1,80,0,0
49299,-100,4,2,1,80,0,0
49727,-100,4,1,1,80,0,0
49899,-100,4,2,1,80,0,0
50499,-100,4,1,1,80,0,0
50670,-100,4,2,1,80,0,0
51013,-100,4,1,1,80,0,0
51184,-100,4,2,1,80,0,0
52384,-100,4,1,1,80,0,0
52556,-100,4,2,1,80,0,0
53756,-100,4,1,1,80,0,0
53927,-100,4,2,1,80,0,0
54270,-100,4,1,1,80,0,0
54441,-100,4,2,1,80,0,0
54613,-100,4,1,1,80,0,0
54784,-100,4,2,1,80,0,0
55470,-100,4,1,1,70,0,0
55641,-100,4,2,1,60,0,0
55984,-100,4,1,1,60,0,0
56156,-100,4,2,1,60,0,0
56499,-100,4,1,1,60,0,0
56670,-100,4,2,1,60,0,0
57356,-100,4,1,1,60,0,0
57527,-100,4,2,1,60,0,0
57870,-100,4,1,1,60,0,0
58041,-100,4,2,1,60,0,0
58727,-100,4,1,1,60,0,0
58899,-100,4,2,1,60,0,0
59241,-100,4,1,1,60,0,0
59413,-100,4,2,1,60,0,0
60099,-100,4,1,1,60,0,0
60270,-100,4,2,1,60,0,0
60613,-100,4,1,1,60,0,0
60784,-100,4,2,1,60,0,0
61470,-100,4,1,1,60,0,0
61641,-100,4,2,1,60,0,0
61984,-100,4,1,1,60,0,0
62156,-100,4,2,1,60,0,0
62841,-100,4,1,1,60,0,0
63013,-100,4,2,1,60,0,0
63356,-100,4,1,1,60,0,0
63527,-100,4,2,1,60,0,0
64213,-100,4,1,1,60,0,0
64384,-100,4,2,1,60,0,0
64727,-100,4,1,1,60,0,0
64899,-100,4,2,1,60,0,0
65241,-100,4,1,1,60,0,0
65413,-100,4,2,1,60,0,0
66956,-100,4,1,1,60,0,0
67127,-100,4,2,1,60,0,0
67470,-100,4,1,1,60,0,0
67641,-100,4,2,1,60,0,0
68327,-100,4,1,1,60,0,0
68499,-100,4,2,1,60,0,0
68841,-100,4,1,1,60,0,0
69013,-100,4,2,1,60,0,0
69699,-100,4,1,1,60,0,0
69870,-100,4,2,1,60,0,0
70213,-100,4,1,1,60,0,0
70384,-100,4,2,1,60,0,0
71070,-100,4,1,1,60,0,0
71241,-100,4,2,1,60,0,0
71584,-100,4,1,1,60,0,0
71756,-100,4,2,1,60,0,0
72441,-100,4,1,1,60,0,0
72613,-100,4,2,1,60,0,0
72956,-100,4,1,1,60,0,0
73127,-100,4,2,1,60,0,0
73813,-100,4,1,1,60,0,0
73984,-100,4,2,1,60,0,0
74327,-100,4,1,1,60,0,0
74499,-100,4,2,1,60,0,0
75184,-100,4,1,1,60,0,0
75356,-100,4,2,1,60,0,0
88127,-100,4,2,1,80,0,1
88899,-100,4,1,1,80,0,1
89070,-100,4,2,1,80,0,1
89413,-100,4,1,1,80,0,1
89584,-100,4,2,1,80,0,1
90270,-100,4,1,1,80,0,1
90441,-100,4,2,1,80,0,1
90784,-100,4,1,1,80,0,1
90956,-100,4,2,1,80,0,1
91641,-100,4,1,1,80,0,1
91813,-100,4,2,1,80,0,1
92156,-100,4,1,1,80,0,1
92327,-100,4,2,1,80,0,1
93013,-100,4,1,1,80,0,1
93184,-100,4,2,1,80,0,1
93613,-100,4,1,1,80,0,1
93699,-100,4,2,1,80,0,1
94384,-100,4,1,1,80,0,1
94556,-100,4,2,1,80,0,1
94899,-100,4,1,1,80,0,1
95070,-100,4,2,1,80,0,1
95756,-100,4,1,1,80,0,1
95927,-100,4,2,1,80,0,1
96270,-100,4,1,1,80,0,1
96441,-100,4,2,1,80,0,1
97127,-100,4,1,1,80,0,1
97299,-100,4,2,1,80,0,1
97641,-100,4,1,1,80,0,1
97813,-100,4,2,1,80,0,1
98156,-100,4,1,1,80,0,1
98327,-100,4,2,1,80,0,1
99870,-100,4,1,1,80,0,1
100041,-100,4,2,1,80,0,1
100384,-100,4,1,1,80,0,1
100556,-100,4,2,1,80,0,1
101241,-100,4,1,1,80,0,1
101413,-100,4,2,1,80,0,1
101756,-100,4,1,1,80,0,1
101927,-100,4,2,1,80,0,1
102613,-100,4,1,1,80,0,1
102784,-100,4,2,1,80,0,1
103127,-100,4,1,1,80,0,1
103299,-100,4,2,1,80,0,1
103984,-100,4,1,1,80,0,1
104156,-100,4,2,1,80,0,1
104499,-100,4,1,1,80,0,1
104670,-100,4,2,1,80,0,1
105356,-100,4,1,1,80,0,1
105527,-100,4,2,1,80,0,1
105870,-100,4,1,1,80,0,1
106041,-100,4,2,1,80,0,1
106727,-100,4,1,1,80,0,1
106899,-100,4,2,1,80,0,1
107241,-100,4,1,1,80,0,1
107413,-100,4,2,1,80,0,1
108099,-100,4,1,1,80,0,1
108270,-100,4,2,1,80,0,1
109127,-100,4,1,1,60,0,1
109299,-100,4,2,1,80,0,1
109470,-100,4,1,1,80,0,1
109641,-100,4,2,1,80,0,1
110070,-100,4,2,1,80,0,0
114099,-100,4,2,1,5,0,0
121041,-100,4,2,1,40,0,0
121470,-100,4,1,1,40,0,0
121641,-100,4,2,1,40,0,0
121813,-100,4,1,1,40,0,0
121984,-100,4,2,1,40,0,0
122670,-100,4,1,1,40,0,0
122841,-100,4,2,1,40,0,0
123356,-100,4,1,1,40,0,0
123527,-100,4,2,1,40,0,0
123699,-100,4,1,1,40,0,0
123870,-100,4,2,1,40,0,0
124213,-100,4,1,1,40,0,0
124384,-100,4,2,1,40,0,0
124556,-100,4,1,1,40,0,0
124727,-100,4,2,1,40,0,0
125413,-100,4,1,1,40,0,0
125584,-100,4,2,1,40,0,0
126013,-100,4,1,1,40,0,0
126099,-100,4,2,1,40,0,0
126441,-100,4,1,1,40,0,0
126613,-100,4,2,1,40,0,0
126956,-100,4,1,1,40,0,0
127127,-100,4,2,1,40,0,0
127299,-100,4,1,1,40,0,0
127470,-100,4,2,1,40,0,0
128156,-100,4,1,1,40,0,0
128327,-100,4,2,1,40,0,0
131670,-100,4,2,1,50,0,0
142470,-100,4,2,1,60,0,0
153099,-100,4,2,1,50,0,0
153270,-100,4,2,1,60,0,0
153956,-100,4,2,1,70,0,0
155241,-100,4,1,1,70,0,0
155413,-100,4,2,1,70,0,0
156099,-100,4,1,1,70,0,0
156270,-100,4,2,1,70,0,0
156613,-100,4,1,1,70,0,0
156784,-100,4,2,1,70,0,0
157470,-100,4,1,1,70,0,0
157641,-100,4,2,1,70,0,0
157984,-100,4,1,1,70,0,0
158156,-100,4,2,1,70,0,0
158841,-100,4,1,1,70,0,0
159013,-100,4,2,1,70,0,0
161584,-100,4,1,1,70,0,0
161756,-100,4,2,1,70,0,0
162099,-100,4,1,1,70,0,0
162270,-100,4,2,1,70,0,0
162956,-100,4,1,1,70,0,0
163127,-100,4,2,1,70,0,0
164070,-100,4,2,1,5,0,0
164413,-100,4,2,1,80,0,0
165099,-100,4,2,1,80,0,1
165699,-100,4,1,1,80,0,1
165870,-100,4,2,1,80,0,1
166213,-100,4,1,1,80,0,1
166384,-100,4,2,1,80,0,1
167070,-100,4,1,1,80,0,1
167241,-100,4,2,1,80,0,1
167584,-100,4,1,1,80,0,1
167756,-100,4,2,1,80,0,1
168441,-100,4,1,1,80,0,1
168613,-100,4,2,1,80,0,1
168956,-100,4,1,1,80,0,1
169127,-100,4,2,1,80,0,1
169899,-100,4,1,1,80,0,1
169984,-100,4,2,1,80,0,1
171184,-100,4,1,1,80,0,1
171356,-100,4,2,1,80,0,1
172556,-100,4,1,1,80,0,1
172727,-100,4,2,1,80,0,1
173070,-100,4,1,1,80,0,1
173241,-100,4,2,1,80,0,1
173927,-100,4,1,1,80,0,1
174099,-100,4,2,1,80,0,1
174441,-100,4,1,1,80,0,1
174613,-100,4,2,1,80,0,1
174956,-100,4,1,1,80,0,1
175127,-100,4,2,1,80,0,1
186870,-100,4,2,1,80,0,0
198013,-133.333333333333,4,2,1,60,0,0
198099,-133.333333333333,4,2,1,5,0,0
198441,-133.333333333333,4,2,1,60,0,0
198613,-133.333333333333,4,2,1,5,0,0
198956,-133.333333333333,4,2,1,60,0,0
200756,-133.333333333333,4,2,1,50,0,0
200841,-133.333333333333,4,2,1,5,0,0
201184,-133.333333333333,4,2,1,50,0,0
201356,-133.333333333333,4,2,1,5,0,0
201699,-133.333333333333,4,2,1,50,0,0
203499,-133.333333333333,4,2,1,40,0,0
203584,-133.333333333333,4,2,1,5,0,0
203927,-133.333333333333,4,2,1,40,0,0
206241,-133.333333333333,4,2,1,30,0,0
206327,-133.333333333333,4,2,1,5,0,0
206670,-133.333333333333,4,2,1,30,0,0
222013,-100,4,2,1,60,0,0
222527,-100,4,2,1,80,0,1
223299,-100,4,1,1,80,0,1
223470,-100,4,2,1,80,0,1
223813,-100,4,1,1,80,0,1
223984,-100,4,2,1,80,0,1
224670,-100,4,1,1,80,0,1
224841,-100,4,2,1,80,0,1
225184,-100,4,1,1,80,0,1
225356,-100,4,2,1,80,0,1
226041,-100,4,1,1,80,0,1
226213,-100,4,2,1,80,0,1
226556,-100,4,1,1,80,0,1
226727,-100,4,2,1,80,0,1
227499,-100,4,1,1,80,0,1
227584,-100,4,2,1,80,0,1
228784,-100,4,1,1,80,0,1
228956,-100,4,2,1,80,0,1
229299,-100,4,1,1,80,0,1
229470,-100,4,2,1,80,0,1
230156,-100,4,1,1,80,0,1
230327,-100,4,2,1,80,0,1
230670,-100,4,1,1,80,0,1
230841,-100,4,2,1,80,0,1
231527,-100,4,1,1,80,0,1
231699,-100,4,2,1,80,0,1
232041,-100,4,1,1,80,0,1
232213,-100,4,2,1,80,0,1
232556,-100,4,1,1,80,0,1
232727,-100,4,2,1,80,0,1
232984,-100,4,1,1,80,0,1
233070,-100,4,2,1,80,0,1
234270,-100,4,1,1,80,0,1
234441,-100,4,2,1,80,0,1
235641,-100,4,1,1,80,0,1
235813,-100,4,2,1,80,0,1
236156,-100,4,1,1,80,0,1
236327,-100,4,2,1,80,0,1
237013,-100,4,1,1,80,0,1
237184,-100,4,2,1,80,0,1
237527,-100,4,1,1,80,0,1
237699,-100,4,2,1,80,0,1
238384,-100,4,1,1,80,0,1
238556,-100,4,2,1,80,0,1
240270,-100,4,1,1,80,0,1
240441,-100,4,2,1,80,0,1
241127,-100,4,1,1,80,0,1
241299,-100,4,2,1,80,0,1
243527,-100,4,1,1,80,0,1
243699,-100,4,2,1,80,0,1
244041,-100,4,1,1,80,0,1
244213,-100,4,2,1,80,0,1
244470,-100,4,2,1,80,0,0
248584,-100,4,2,1,80,0,0
249870,-100,4,1,1,80,0,0
250041,-100,4,2,1,80,0,0
250727,-100,4,1,1,80,0,0
250899,-100,4,2,1,80,0,0
251241,-100,4,1,1,80,0,0
251413,-100,4,2,1,80,0,0
252099,-100,4,1,1,80,0,0
252270,-100,4,2,1,80,0,0
252613,-100,4,1,1,80,0,0
252784,-100,4,2,1,80,0,0
253470,-100,4,1,1,80,0,0
253641,-100,4,2,1,80,0,0
254070,-100,4,1,1,80,0,0
254156,-100,4,2,1,80,0,0
254499,-100,4,1,1,80,0,0
254670,-100,4,2,1,80,0,0
256213,-100,4,1,1,80,0,0
256384,-100,4,2,1,80,0,0
256727,-100,4,1,1,80,0,0
256899,-100,4,2,1,80,0,0
257584,-100,4,1,1,80,0,0
257756,-100,4,2,1,80,0,0
258956,-100,4,1,1,80,0,0
259127,-100,4,2,1,80,0,0
259556,-100,4,1,1,80,0,0
259641,-100,4,2,1,80,0,0
260413,-100,4,1,1,80,0,0
260499,-100,4,2,1,80,0,0
260927,-100,4,1,1,80,0,0
261013,-100,4,2,1,80,0,0
261699,-100,4,1,1,80,0,0
261870,-100,4,2,1,80,0,0
262213,-100,4,1,1,80,0,0
262384,-100,4,2,1,80,0,0
263070,-100,4,1,1,80,0,0
263241,-100,4,2,1,80,0,0
264441,-100,4,1,1,80,0,0
264613,-100,4,2,1,80,0,0

[Colours]
Combo1 : 255,0,0
Combo2 : 15,230,224
Combo3 : 255,108,255

[HitObjects]
256,192,22299,5,0
220,293,22641,2,0,B|290:313|348:280|368:221,1,180,8|0
328,128,23156,2,0,B|366:95|414:105,1,90,0|8
429,192,23499,2,0,B|474:201|512:168,2,90,0|0|0
329,127,24013,1,8
252,215,24184,1,0
180,124,24356,1,0
180,124,24441,1,0
180,124,24527,2,0,B|156:78|108:75,1,90,0|8
52,180,24870,1,0
140,236,25041,6,0,B|124:280|72:288,1,90
52,180,25384,2,0,B|68:136|120:128,1,90,8|0
212,88,25727,1,0
312,80,25899,1,0
268,168,26070,1,8
368,160,26241,1,0
312,80,26413,6,0,B|440:52|500:164,1,180,0|8
368,196,26927,1,2
312,80,27099,2,0,B|268:57|223:81,2,90,0|0|8
437,97,27613,1,0
368,196,27784,1,0
475,263,27956,1,0
369,331,28127,2,0,B|325:354|280:330,1,90,8|0
160,172,28470,2,0,B|215:168|234:214,1,90
153,307,28813,2,0,B|125:349|74:325,2,90,8|0|0
217,219,29327,5,0
250,205,29413,1,0
284,215,29499,1,8
345,303,29670,2,0,B|365:347|411:362,2,90
281,215,30184,2,0,B|217:199|173:139|177:79,1,180,8|0
65,137,30699,6,0,B|13:241,1,90,0|8
148,192,31041,2,0,B|188:112,1,90
252,220,31384,2,0,B|208:304,2,90,0|8|0
292,136,31899,1,0
292,136,32070,1,0
372,68,32241,1,8
372,68,32413,1,0
472,68,32584,1,8
472,68,32670,1,0
472,68,32756,1,8
504,160,32927,2,0,B|452:200|440:272|472:324,1,180,0|0
504,160,33441,6,8,B|448:148|380:160|332:208,1,180,0|0
252,284,33956,2,0,B|272:336|344:332,2,90,0|0|8
196,200,34470,1,0
260,124,34641,1,0
192,52,34813,1,0
284,20,34984,2,0,B|330:4|362:48,1,90,8|0
448,156,35327,2,0,B|396:172|364:136,1,90
260,88,35670,5,8
260,88,35756,1,0
260,88,35841,2,0,B|216:56|172:76,2,90
388,160,36356,2,0,B|428:196|424:240,1,90,8|0
344,340,36699,2,0,B|296:308|312:252,1,90,0|0
388,160,37041,2,0,B|440:172|476:132,2,90,8|0|0
288,96,37556,1,0
212,184,37727,1,8
156,80,37898,1,0
84,172,38070,1,0
84,172,38156,1,0
84,172,38241,2,0,B|76:128|20:120,2,90,0|8|0
152,268,38756,6,0,B|178:331|234:356|302:337,1,180,0|8
264,224,39270,1,0
376,188,39441,2,0,B|356:132|280:96|224:120,1,180,0|8
264,224,39956,1,0
264,224,40127,2,0,B|344:272,1,90
188,280,40470,2,0,B|108:232,1,90,8|0
300,124,40813,2,0,B|380:172,1,90
292,300,41156,2,0,B|132:200,1,180,8|0
68,136,41670,5,0
68,136,41756,1,0
68,136,41841,2,0,B|20:120|4:64,2,90,8|0|0
168,148,42356,1,0
264,176,42527,1,8
344,240,42698,2,0,B|392:256|412:312,1,90
320,348,43041,6,0,B|272:336|244:280,1,90,0|8
212,204,43384,1,0
236,108,43556,1,0
300,32,43727,1,8
300,32,43898,1,0
236,108,44070,5,0
128,148,44241,1,4
128,148,44413,2,0,B|76:160|52:112,1,90,0|8
160,72,44756,2,0,B|212:64|236:108,1,90
232,208,45098,2,0,B|256:256|316:248,1,90,0|8
376,156,45441,2,0,B|352:108|292:116,2,90,0|0|0
336,256,45956,6,0,B|360:304|409:296,1,90,8|0
468,188,46298,2,0,B|448:140|392:132,1,90
320,64,46641,1,8
252,148,46813,1,0
192,56,46984,5,0
116,132,47156,1,0
88,156,47241,1,0
76,192,47327,1,8
52,296,47498,2,0,B|-3:312|-8:360,2,90,0|0|0
169,247,48013,2,0,B|218:237|228:181,1,90,8|0
262,64,48356,2,0,B|314:72|338:108,1,90
397,217,48698,2,0,B|449:217|469:165,2,90,8|0|0
272,240,49213,1,0
168,184,49384,1,8
96,264,49556,1,0
96,264,49641,1,0
96,264,49727,6,0,B|80:312|32:336,2,90,0|0|8
168,184,50241,1,0
92,108,50413,1,0
185,54,50584,2,0,B|221:14|273:30,2,90,0|8|0
268,152,51098,2,0,B|337:171|389:147|421:91,1,180,0|8
308,44,51613,1,0
280,199,51784,2,0,B|349:218|401:194|433:138,1,180,0|8
465,26,52298,1,0
466,25,52470,5,0
445,54,52556,1,0
424,83,52641,1,0
395,105,52727,1,0
368,128,52813,1,8
336,146,52899,1,0
303,160,52984,1,0
268,170,53070,1,0
236,180,53156,2,0,B|182:204|104:190|67:153,1,180,0|8
149,89,53670,5,0
223,228,53841,2,0,B|169:252|91:238|54:201,1,180,0|8
150,89,54356,1,0
220,292,54527,1,0
40,140,54698,1,0
132,308,54870,1,2
208,100,55041,1,2
88,244,55213,6,0,B|156:256|216:240|252:184,1,180,0|4
352,108,55727,2,0,B|352:12,2,90
356,216,56241,1,8
380,320,56413,2,0,B|411:360|464:346,2,90
292,256,56927,2,0,B|238:248|220:204,1,90,8|0
322,147,57270,2,0,B|376:155|394:199,1,90,0|0
344,312,57613,2,0,B|296:328|256:292,1,90,8|0
208,172,57956,6,0,B|248:132|320:120|380:164,1,180,0|8
460,264,58470,2,0,B|420:304|348:316|288:272,1,180,0|0
176,212,58984,2,0,B|123:207|106:160,1,90,8|0
235,118,59327,2,0,B|288:123|305:170,1,90,0|0
342,329,59670,2,0,B|294:309|272:276,1,90,8|0
264,168,60013,1,0
196,24,60184,1,0
168,156,60356,1,8
284,40,60527,1,0
160,240,60698,6,0,B|200:280|272:304|328:288,1,180,0|8
444,240,61213,2,0,B|416:192|360:164|288:164,1,180,0|0
172,204,61727,2,0,B|180:256|232:272,2,90,8|0|0
168,96,62241,1,0
276,116,62413,2,0,B|322:129|330:181,2,90,8|0|0
168,96,62927,1,0
172,204,63098,1,8
68,232,63270,1,0
108,332,63441,6,0,B|152:372|232:384|284:344,1,180,0|8
404,304,63956,2,0,B|396:240|356:192|292:176,1,180
172,120,64470,2,0,B|120:120|84:84,1,90,8|0
152,208,64813,6,0,B|204:208|240:244,1,90
320,332,65156,1,8
464,248,65327,1,0
264,192,65498,1,0
432,132,65670,1,0
432,132,65756,1,0
432,132,65841,1,8
432,132,65927,1,0
432,132,66013,1,0
432,132,66098,1,0
432,132,66184,6,0,B|412:200|364:232|300:240,1,180,4|8
160,216,66698,2,0,B|180:148|228:116|292:108,1,180
344,244,67213,2,0,B|236:212|204:128,1,180,8|0
244,276,67727,1,0
290,107,67898,1,8
160,217,68070,1,0
348,164,68241,2,0,B|396:180|440:156,2,90,0|0|8
244,120,68756,1,0
136,40,68927,6,0,B|84:68|60:140|92:204,1,180,0|8
196,304,69441,2,0,B|248:276|272:204|240:140,1,180
140,72,69956,2,0,B|60:32,1,90,8|0
84,156,70298,2,0,B|164:196,1,90
184,320,70641,2,0,B|104:280,1,90,8|0
212,220,70984,2,0,B|292:260,1,90
392,296,71327,1,8
496,260,71498,1,0
444,164,71670,6,0,B|448:96|400:52|328:40,1,180,0|8
284,172,72184,2,0,B|280:240|328:284|400:296,1,180
444,164,72699,1,8
339,65,72870,2,0,B|285:78|276:122,1,90
231,240,73213,1,0
297,346,73384,1,8
424,352,73556,2,0,B|472:340|508:256|468:192,1,180
416,108,74070,1,8
328,172,74241,1,0
264,84,74413,6,0,B|207:48|123:84|111:132,1,180,0|8
28,200,74927,2,0,B|36:264|88:308|156:308,1,180
276,300,75441,2,0,B|288:352|332:372,2,90,8|0|4
198,111,75956,6,0,B|194:59|234:27,1,90,0|8
388,246,76298,2,0,B|392:298|352:330,1,90
198,290,76641,2,0,B|146:294|114:254,1,90,0|8
408,84,76984,2,0,B|460:80|492:120,1,90,8|4
188,172,87613,5,0
188,172,87699,1,0
188,172,87784,1,0
188,172,87870,1,0
188,172,87956,1,0
188,172,88041,1,0
188,172,88127,6,0,B|160:214|184:256,2,90,4|0|8
264,108,88641,2,0,B|312:144|392:140|432:104,1,180
346,36,89156,1,8
263,107,89327,2,0,B|251:160|289:188,1,90
406,231,89670,2,0,B|418:178|380:150,1,90
295,83,90013,1,0
280,189,90184,1,0
380,150,90356,1,0
294,84,90527,6,0,B|266:44|210:48,1,90,8|0
120,130,90870,2,0,B|148:170|204:166,1,90
294,84,91213,2,0,B|330:52|378:76,1,90,8|0
433,189,91556,2,0,B|485:190|505:145,2,90,0|0|8
311,224,92070,1,0
240,328,92241,2,0,B|176:344|104:304|84:256,1,180,0|8
70,116,92756,2,0,B|44:74|-4:72,2,90
184,140,93270,2,0,B|232:128|268:164,1,90,8|0
387,165,93613,5,0
376,280,93784,2,0,B|400:324|452:320,1,90,0|8
460,204,94127,2,0,B|436:160|384:164,1,90
272,188,94470,1,0
168,240,94641,2,0,B|136:280|92:284,2,90,8|0|0
248,164,95156,1,0
308,76,95327,1,8
308,76,95413,1,0
308,76,95499,1,0
308,76,95584,1,0
308,76,95670,2,0,B|328:120|376:132,1,90
476,204,96013,6,0,B|456:252|412:260,1,90,8|0
296,244,96356,1,0
200,324,96527,1,0
160,204,96699,1,8
40,264,96870,1,0
56,132,97041,1,0
176,80,97213,5,0
296,120,97384,1,8
296,244,97556,1,0
160,204,97727,1,0
344,92,97899,1,0
320,308,98070,1,8
208,124,98241,1,0
320,224,98413,1,0
160,267,98584,5,0
160,267,98670,1,0
160,267,98756,1,0
160,267,98841,1,0
160,267,98927,1,0
160,267,99013,1,0
160,267,99099,6,0,B|105:256|92:213,1,90,4|0
213,179,99441,2,0,B|268:190|281:233,1,90,8|0
369,320,99784,2,0,B|381:372|425:384,2,90,0|0|8
374,192,100299,1,0
316,80,100470,2,0,B|280:36|240:32|192:36|160:76,1,180,0|8
60,168,100984,2,0,B|96:212|136:216|184:212|216:172,1,180
100,104,101499,6,0,B|100:168|128:220|196:256,1,180,8|0
276,296,102013,1,0
372,316,102184,1,8
464,280,102356,1,0
464,280,102441,1,0
464,280,102527,2,0,B|468:336|512:356,2,90,0|0|8
456,180,103041,1,0
484,84,103213,6,0,B|444:24|368:16|324:48,1,180,0|8
268,148,103727,2,0,B|224:200|144:196|108:156,1,180
72,44,104241,1,8
176,73,104413,1,0
108,156,104584,5,0
49,247,104756,1,0
49,247,104841,1,0
50,247,104927,2,0,B|68:305|144:333|206:321,1,180,8|0
344,296,105441,2,0,B|368:352|420:348,2,90,0|8|0
252,207,105956,1,0
296,51,106127,1,0
341,207,106299,1,8
223,112,106470,1,0
372,110,106641,5,0
372,109,106813,2,0,B|352:161|374:196,1,90,0|8
480,180,107156,2,0,B|500:232|478:267,2,90
424,88,107670,1,8
328,136,107841,1,0
264,48,108013,1,0
190,149,108184,5,0
76,94,108356,1,0
176,18,108527,1,0
316,52,108699,1,4
388,132,108870,1,0
360,256,109041,1,8
264,364,109213,1,0
132,308,109384,5,0
228,200,109556,1,0
360,256,109727,1,8
476,204,109899,1,8
428,88,110070,1,4
256,192,110241,12,4,114184
168,212,121041,5,4
168,212,121213,1,0
256,268,121384,1,0
256,268,121556,1,0
348,328,121727,2,0,B|388:368|436:352,1,90,8|0
432,220,122070,2,0,B|392:180|344:196,1,90,8|8
256,268,122413,6,0,B|256:368,2,90,0|8|0
256,152,122927,1,0
256,152,123099,2,0,B|256:56,2,90,8|0|0
256,248,123784,5,0
256,248,123956,1,0
256,248,124127,2,0,B|256:348,2,90,0|0|8
208,136,124641,2,0,B|196:88|144:78,1,90
36,68,124984,2,8,B|-12:156|36:256,1,180
136,216,125499,1,0
136,216,125670,1,0
256,248,125841,1,0
256,248,125927,1,8
256,248,126013,1,0
256,248,126184,6,0,B|280:304|340:332|416:320,2,180,8|0|0
212,148,127041,2,0,B|196:100|144:96,1,90,0|8
120,200,127384,2,0,B|136:248|188:252,1,90,0|0
280,200,127727,2,0,B|328:184|332:132,1,90,8|0
196,116,128070,2,0,B|148:132|144:184,1,90,8|0
192,272,128413,2,0,B|208:320|260:324,1,90,0|8
272,64,128756,2,0,B|256:16|204:12,1,90,0|4
256,192,129270,12,8,130984
208,112,131499,21,8
148,219,131670,1,8
240,300,131841,1,8
308,193,132013,2,0,B|372:181|432:201|468:253,2,180,4|4|0
200,264,132870,2,0,B|164:300|108:280,2,90,0|0|4
256,132,133899,5,4
256,132,134241,1,0
332,232,134413,1,2
208,244,134584,1,0
136,140,134756,2,0,B|132:80|184:28|256:36,1,180,0|2
328,140,135270,2,0,B|332:200|280:252|208:244,1,180,0|2
238,140,135784,2,0,B|328:140,1,90,0|4
328,140,136984,5,0
204,112,137156,1,2
164,232,137327,1,0
288,256,137499,2,0,B|392:264|440:176,1,180,2|0
480,60,138013,2,0,B|376:52|328:140,1,180,2|0
288,256,138527,1,2
412,272,138699,2,0,B|416:212|360:156|296:156,1,180
192,156,139213,1,2
252,68,139384,1,0
132,248,139727,6,0,B|32:248,2,90,0|2|0
132,248,140241,1,4
416,204,140756,2,0,B|400:104|304:76,1,180,2|0
284,200,141270,1,0
160,192,141441,2,0,B|176:292|272:320,1,180,2|0
380,324,141956,1,0
336,228,142127,1,4
124,128,142470,5,0
124,128,142641,1,0
124,128,142813,1,0
124,128,142984,2,0,B|84:176|88:252|140:296,1,180,4|0
252,360,143499,2,0,B|292:312|288:236|236:192,1,180,2|0
124,128,144013,2,0,B|72:124|56:80,2,90,2|0|0
228,152,144527,1,0
332,120,144699,1,2
396,208,144870,1,0
292,240,145041,1,0
228,152,145213,6,0,B|236:96|288:88,2,90,0|2|0
224,260,145727,2,0,B|240:320|308:360|376:340,1,180,0|2
507,317,146241,2,0,B|491:257|423:217|355:237,1,180
224,260,146756,1,2
108,212,146927,1,0
140,88,147099,1,0
255,137,147270,2,0,B|295:177|359:177,2,90,0|2|0
204,48,147784,2,0,B|164:8|100:8,1,90
20,32,148127,5,2
8,140,148299,1,0
108,176,148470,2,0,B|148:232|212:256|264:252,1,180,4|0
384,144,148984,2,0,B|344:88|280:64|228:68,1,180,4|0
112,112,149499,2,0,B|96:60|44:56,2,90,2|0|0
120,220,150013,1,0
92,328,150184,1,2
16,248,150356,1,4
180,56,150699,5,0
339,295,150870,2,0,B|447:295,2,90,2|0|4
120,220,151727,2,0,B|112:112|192:44,1,180,4|0
240,180,152241,1,2
360,140,152413,2,0,B|368:248|288:316,1,180,4|0
208,232,152927,1,10
208,232,153013,1,8
208,232,153099,1,8
208,232,153184,1,8
208,232,153270,2,0,B|152:240|140:188,1,90,8|2
144,152,153527,5,0
160,120,153613,1,8
188,96,153699,1,0
220,84,153784,1,2
256,84,153870,1,0
292,92,153956,6,0,B|344:108|344:160,1,90,4|0
292,252,154299,2,0,B|268:296|304:340,1,90,8|0
408,348,154641,2,0,B|460:312|488:256|476:188,1,180,0|8
384,248,155156,1,0
280,276,155327,2,0,B|264:216|296:140|344:120,1,180,0|8
424,200,155841,2,0,B|435:263|407:319|355:355,1,180
248,360,156356,1,8
180,276,156527,1,0
264,208,156699,6,0,B|328:200|376:160|384:80,1,180,0|8
472,188,157213,2,0,B|408:196|360:236|352:316,1,180
352,304,157727,1,8
280,132,157899,1,0
456,316,158070,1,0
184,256,158241,1,0
364,120,158413,1,8
256,264,158584,2,0,B|236:312|192:328,1,90
304,184,158927,2,0,B|324:136|368:120,1,90,0|8
436,256,159270,1,0
436,256,159441,6,0,B|380:272|316:252|272:200,1,180,4|8
364,120,159956,1,0
424,20,160127,2,0,B|364:0|288:16|264:68,1,180,4|8
256,176,160641,1,0
232,292,160813,2,0,B|292:312|368:296|392:244,1,180,4|8
464,140,161327,2,0,B|504:112|500:60,2,90
353,200,161841,2,0,B|298:195|278:240,1,90,8|0
192,332,162184,6,0,B|128:308|100:232|128:180,1,180,0|8
172,88,162699,2,0,B|192:40|240:28,1,90
276,128,163041,2,0,B|256:176|208:188,1,90,0|8
88,168,163384,2,0,B|60:240|84:304|116:352|167:377|224:380|308:360,1,360
256,40,164413,5,0
256,64,164499,1,0
256,88,164584,1,0
256,112,164670,1,0
256,136,164756,1,0
256,160,164841,1,0
256,184,164927,1,0
256,208,165013,1,0
256,232,165099,2,0,B|216:260|168:232,2,90,0|4|0
360,196,165613,5,0
423,108,165784,1,0
329,55,165956,1,8
256,136,166127,2,0,B|216:172|176:168,2,90
364,100,166641,2,0,B|408:72|448:72,1,90,8|0
398,217,166984,2,0,B|362:241|314:245,1,90
204,240,167327,1,8
104,200,167499,1,0
184,128,167670,5,0
84,92,167841,1,0
180,44,168013,1,8
180,44,168184,1,0
260,208,168356,5,0
84,92,168527,1,0
124,260,168699,1,8
264,88,168870,1,0
48,172,169041,5,0
240,292,169213,1,0
132,104,169384,1,8
320,248,169556,1,0
180,44,169727,1,0
216,220,169899,5,0
216,220,169984,1,0
216,220,170070,1,8
216,220,170156,1,0
216,220,170241,2,0,B|236:280|304:312|368:300,1,180,0|0
480,252,170756,2,0,B|460:192|392:160|328:172,1,180,8|0
208,156,171270,2,0,B|158:156|124:123,1,90,0|8
56,44,171613,1,0
56,44,171956,5,0
76,152,172127,1,8
180,116,172299,2,0,B|252:116|304:156|328:216,1,180
356,312,172813,1,8
252,288,172984,1,0
324,208,173156,5,0
412,240,173327,1,0
280,372,173499,1,8
236,200,173670,1,0
340,124,173841,5,0
424,360,174013,1,0
172,316,174184,1,8
236,200,174356,1,0
412,240,174527,5,0
280,372,174699,1,0
324,208,174870,1,8
356,312,175041,1,0
256,292,175213,5,0
222,277,175299,1,0
195,252,175384,1,8
173,222,175470,1,0
163,187,175556,1,8
161,151,175641,1,0
172,116,175727,1,0
197,90,175813,1,0
229,72,175899,6,0,B|257:21|323:3|391:22,1,180,4|2
470,117,176413,2,0,B|442:168|376:186|308:167,1,180,0|2
268,68,176927,1,2
160,92,177099,2,0,B|108:92|80:60,1,90
140,172,177441,2,0,B|192:172|220:204,1,90,0|2
284,292,177784,1,0
284,292,178127,5,0
324,192,178299,1,2
432,208,178470,2,0,B|476:184|496:140,1,90
385,128,178813,2,0,B|341:152|321:196,1,90,2|0
244,260,179156,1,0
244,260,179327,2,0,B|140:264|84:184,1,180,2|2
204,140,179841,2,0,B|308:136|364:216,2,180,2|0|0
88,188,180699,5,2
88,188,180784,1,0
88,188,180870,1,2
172,256,181041,1,2
236,168,181213,1,0
324,232,181384,2,0,B|396:236|444:216|472:148,1,180,0|2
480,44,181899,2,0,B|408:40|360:60|332:128,1,180
236,168,182413,2,0,B|176:168|108:144|76:96,1,180,2|0
88,220,182927,1,0
88,220,183099,1,2
240,68,183441,5,2
152,268,183784,2,0,B|60:268,2,90,2|0|4
304,128,184984,5,0
304,128,185156,1,4
304,128,185670,2,0,B|304:224,1,90,0|2
220,336,186013,2,0,B|184:248|216:160,1,180,2|0
299,43,186527,2,0,B|335:131|303:223,1,180,2|4
256,192,186956,12,4,192527
246,83,198013,6,0,B|173:72|105:139|116:205,2,202.500007724762
256,192,199727,5,4
266,301,200756,2,0,B|339:312|407:245|396:179,2,202.500007724762
340,216,203499,6,0,B|294:122|206:200|178:109,1,202.500007724762,2|0
233,241,204527,1,0
340,40,205213,1,4
190,125,206241,6,0,B|236:219|324:141|352:232,1,202.500007724762,2|0
256,308,207270,1,0
212,288,222013,5,0
240,292,222099,1,0
268,292,222184,1,0
296,284,222270,1,0
320,272,222356,1,0
340,256,222441,1,0
356,236,222527,6,0,B|404:144|348:60,1,180,4|8
240,8,223041,2,0,B|192:100|248:184,1,180
355,237,223556,1,8
449,154,223727,1,0
349,75,223899,2,0,B|337:23|285:23,2,90
268,172,224413,2,0,B|216:256|108:224,1,180
160,108,224927,5,8
160,108,225099,1,0
268,173,225270,2,0,B|307:181|307:181|343:217,1,90
376,336,225613,2,0,B|337:328|337:328|301:292,1,90,8|0
240,204,225956,5,0
116,60,226127,1,0
284,96,226299,1,8
124,172,226470,1,0
216,28,226641,5,0
328,176,226813,1,0
204,104,226984,1,8
136,232,227156,1,0
264,300,227327,5,0
404,268,227499,1,0
424,248,227584,1,0
440,228,227670,1,8
452,204,227756,1,0
464,180,227841,6,0,B|496:128|496:64|456:12,1,180
340,64,228356,2,0,B|308:112|340:148,1,90,8|0
444,261,228870,5,0
308,173,229041,1,8
308,337,229213,1,0
308,337,229556,5,0
308,173,229727,1,8
172,249,229899,1,0
88,296,230241,5,0
176,160,230413,1,0
252,296,230584,1,8
280,184,230756,2,0,B|312:140|356:144,1,90
452,196,231099,2,0,B|420:240|376:236,1,90,8|0
252,208,231441,6,0,B|208:180|164:192,1,90
64,268,231784,2,0,B|108:296|152:284,1,90,8|0
252,256,232127,1,0
304,160,232299,1,0
404,200,232470,1,8
348,292,232641,6,0,B|296:296|264:264,1,90
236,244,232899,1,0
212,220,232984,1,0
188,192,233070,1,0
172,160,233156,1,0
164,124,233241,1,0
164,88,233327,2,0,B|160:36|220:12,1,90,0|4
276,108,233670,6,0,B|280:160|220:184,1,90,0|8
124,164,234013,1,0
56,248,234184,1,0
116,340,234356,1,0
220,316,234527,1,8
224,208,234699,2,0,B|212:140|248:88|320:80,1,180
332,188,235213,1,8
436,160,235384,2,0,B|448:228|412:280|340:288,1,180
240,212,235899,2,0,B|212:168|156:184,1,90,8|0
64,224,236241,5,0
132,308,236413,1,0
212,236,236584,1,8
144,152,236756,1,0
64,224,236927,2,0,B|40:268|52:312,1,90
164,252,237270,2,0,B|188:208|176:164,1,90,8|0
68,56,237613,2,0,B|28:100|28:172|64:224,1,180,0|8
145,301,238127,2,0,B|180:244|184:184|148:132,1,180
68,56,238641,5,8
44,160,238813,1,0
148,132,238984,2,0,B|180:96|228:100,1,90,4|0
336,104,239327,1,8
424,168,239499,1,0
488,256,239670,2,0,B|513:315|445:383|386:357,1,180,0|8
380,252,240184,1,0
272,242,240356,2,0,B|247:183|315:115|374:141,1,180,0|8
488,256,240870,1,0
372,308,241041,6,0,B|324:304|284:264,1,90
208,176,241384,1,8
252,76,241556,1,0
153,31,241727,2,0,B|93:4|25:72|50:131,1,180,4|0
384,264,242584,6,0,B|296:264,1,90,0|4
260,112,243270,1,0
164,156,243441,1,8
136,260,243613,2,0,B|152:324|224:352|284:332,1,180
396,280,244127,2,0,B|380:216|308:188|248:208,1,180,0|4
256,192,244556,12,4,248584
200,156,249956,5,0
200,156,250127,1,0
268,240,250299,2,0,B|300:276|348:284,1,90,8|0
444,208,250641,2,0,B|412:172|364:164,1,90
248,208,250984,2,0,B|220:260|176:260,2,90,8|0|0
300,112,251499,1,0
380,40,251670,2,0,B|412:0|464:16,1,90,8|0
468,124,252013,5,0
344,148,252184,1,0
248,68,252356,1,8
164,160,252527,1,0
84,64,252699,6,0,B|48:32|-4:32,1,90
10,157,253041,2,0,B|46:189|98:189,1,90,8|0
172,91,253384,2,0,B|228:75|264:123,1,90
388,212,253727,2,0,B|336:232|292:204,1,90,8|0
208,156,254070,1,0
184,140,254156,1,0
160,132,254241,1,0
132,128,254327,1,0
104,128,254413,2,0,B|52:116|24:156,1,90,8|0
28,264,254756,5,0
56,284,254841,1,0
92,296,254927,1,8
128,292,255013,1,8
160,276,255099,1,8
188,256,255184,1,0
208,228,255270,2,0,B|220:176|272:168,1,90,0|4
380,108,255613,6,0,B|412:68|408:24,2,90,0|8|0
268,168,256127,1,0
142,178,256299,2,0,B|86:186|58:230,1,90,0|8
195,280,256641,2,0,B|251:272|279:228,1,90
348,140,256984,2,0,B|376:100|364:52,2,90,0|8|0
208,244,257499,1,0
256,76,257670,1,0
304,244,257841,1,8
168,140,258013,1,0
348,140,258184,1,4
208,244,258356,6,0,B|176:280|176:280|136:284,1,90,0|8
72,176,258699,2,0,B|104:140|104:140|144:136,1,90
232,72,259041,1,0
308,152,259213,1,8
392,84,259384,1,0
392,84,259470,1,0
392,84,259556,1,0
448,176,259727,1,0
344,204,259899,1,8
416,284,260070,1,0
316,328,260241,5,4
288,332,260327,1,0
260,336,260413,1,0
232,332,260499,1,0
208,320,260584,1,8
188,304,260670,1,0
172,284,260756,1,0
156,260,260841,1,0
144,236,260927,2,0,B|116:196|128:148,1,90,0|0
232,188,261270,6,0,B|260:228|248:276,1,90,8|0
148,308,261613,2,0,B|124:356|64:348,2,90,0|0|8
180,204,262127,2,0,B|184:160|184:160|216:128,1,90
324,120,262470,2,0,B|356:88|356:88|372:20,2,90,0|8|0
220,148,262984,1,0
116,117,263156,1,0
48,200,263327,1,8
112,284,263499,1,0
216,252,263670,2,0,B|256:280|304:268,1,90,4|0
380,192,264013,6,0,B|340:164|292:176,1,90,8|0
216,252,264356,2,0,B|170:263|130:235,1,90
48,168,264699,1,8
148,128,264870,1,0
148,236,265041,5,4
156,260,265127,1,0
172,280,265213,1,0
192,296,265299,1,0
220,304,265384,1,0
248,308,265470,1,0
276,304,265556,1,8
300,296,265641,1,0
324,284,265727,1,8
344,268,265813,1,0
360,248,265899,1,8
368,224,265984,1,0
372,196,266070,1,0
372,168,266156,1,0
364,140,266241,6,0,B|336:84,2,45,0|0|4
