osu file format v14

[General]
AudioFilename: Dream Walker.mp3
AudioLeadIn: 0
PreviewTime: 87667
Countdown: 0
SampleSet: Soft
StackLeniency: 0.7
Mode: 0
LetterboxInBreaks: 0
WidescreenStoryboard: 0

[Editor]
Bookmarks: 20981,30581,266467
DistanceSpacing: 1
BeatDivisor: 4
GridSize: 4
TimelineZoom: 2.5

[Metadata]
Title:Dream Walker
TitleUnicode:Dream Walker
Artist:Rita
ArtistUnicode:Rita
Creator:Amamiya Yuko
Version:Normal
Source:
Tags:Raose HootOwlStar Quilt skystar drum and bass dnb
BeatmapID:732523
BeatmapSetID:315299

[Difficulty]
HPDrainRate:4
CircleSize:3.5
OverallDifficulty:4
ApproachRate:5
SliderMultiplier:1.12
SliderTickRate:1

[Events]
//Background and Video events
0,0,"bg.jpg",0,0
//Break Periods
2,77410,81495
2,113067,119895
2,132267,141838
2,192610,209038
//Storyboard Layer 0 (Background)
//Storyboard Layer 1 (Fail)
//Storyboard Layer 2 (Pass)
//Storyboard Layer 3 (Foreground)
//Storyboard Sound Samples

[TimingPoints]
410,342.857142857143,4,2,1,60,1,0
41467,-100,4,2,1,45,0,0
43781,-100,4,2,1,45,0,0
44210,-100,4,2,4,65,0,0
54838,-100,4,2,1,45,0,0
55524,-100,4,2,1,5,0,0
55610,-100,4,2,1,60,0,0
65552,-100,4,2,2,40,0,0
65895,-100,4,2,2,50,0,0
66238,-100,4,2,3,70,0,0
66324,-100,4,2,1,70,0,0
82695,-100,4,2,3,45,0,0
82781,-100,4,2,2,45,0,0
86810,-100,4,2,2,55,0,0
88181,-100,4,2,4,70,0,1
110124,-100,4,2,3,50,0,0
110210,-100,4,2,3,35,0,0
121095,-100,4,2,1,50,0,0
132067,-100,4,2,3,50,0,0
142524,-100,4,2,1,30,0,0
151267,-100,4,2,3,50,0,0
151352,-100,4,2,2,50,0,0
152467,-100,4,2,2,60,0,0
152895,-100,4,2,1,60,0,0
153324,-100,4,2,2,45,0,0
154010,-100,4,2,1,70,0,0
164810,-100,4,2,1,70,0,0
165324,-100,4,2,4,70,0,1
175952,-100,4,2,2,50,0,0
176038,-100,4,2,1,50,0,0
186324,-100,4,2,4,50,0,0
186924,-100,4,2,3,50,0,0
187010,-100,4,2,1,20,0,0
210238,-100,4,2,3,35,0,0
215724,-100,4,2,3,45,0,0
218467,-100,4,2,3,55,0,0
221210,-100,4,2,3,60,0,0
222067,-100,4,2,1,40,0,0
222581,-100,4,2,4,70,0,1
244524,-100,4,2,2,70,0,0
250010,-100,4,2,4,70,0,0

[Colours]
Combo1 : 220,242,248
Combo2 : 255,164,255
Combo3 : 191,191,255

[HitObjects]
15,53,22352,5,0,1:0:0:0:
88,137,22695,2,0,P|165:157|261:116,1,168,8|0,0:0|1:0,0:0:0:0:
293,97,23381,1,8,0:0:0:0:
403,121,23724,1,0,1:0:0:0:
330,205,24067,2,0,P|253:225|157:184,1,168,8|0,0:0|1:0,0:0:0:0:
125,165,24752,1,8,0:0:0:0:
15,189,25095,5,0,1:0:0:0:
88,273,25438,2,0,P|165:293|261:252,1,168,8|0,0:0|1:0,0:0:0:0:
293,233,26124,1,8,0:0:0:0:
403,257,26467,1,0,1:0:0:0:
330,341,26810,2,0,P|253:361|157:320,1,168,8|0,0:0|1:0,0:0:0:0:
125,301,27495,1,8,0:0:0:0:
33,237,27838,5,0,1:0:0:0:
133,187,28181,2,0,B|222:156|222:156|302:184,1,168,8|0,0:0|1:0,0:0:0:0:
342,203,28867,1,8,0:0:0:0:
326,313,29210,1,0,1:0:0:0:
232,251,29552,2,0,B|160:189|160:189|144:106,1,168,8|0,0:0|1:0,0:0:0:0:
142,62,30238,1,8,0:0:0:0:
245,20,30581,5,0,1:0:0:0:
238,133,30924,2,0,B|220:225|220:225|156:280,1,168,8|0,0:0|1:0,0:0:0:0:
119,305,31610,1,8,0:0:0:0:
33,237,31952,2,0,L|27:115,1,112,0|8,1:0|0:0,0:0:0:0:
25,68,32467,2,0,P|77:78|158:71,1,112,2|10,1:2|0:0,0:0:0:0:
190,61,32981,1,0,1:0:0:0:
301,50,33324,6,0,B|355:39|355:39|421:51,1,112,0|8,1:0|0:0,0:0:0:0:
463,69,33838,2,0,L|456:189,1,112,2|0,0:0|1:0,0:0:0:0:
450,236,34352,1,8,0:0:0:0:
342,266,34695,2,0,L|348:154,1,112,0|8,1:0|0:0,0:0:0:0:
302,121,35210,2,0,P|250:126|210:184,1,112,2|2,0:0|1:2,0:0:0:0:
199,223,35724,1,8,0:0:0:0:
211,334,36067,6,0,B|157:345|157:345|91:333,1,112,0|8,1:0|0:0,0:0:0:0:
49,315,36581,2,0,L|56:195,1,112,2|0,0:0|1:0,0:0:0:0:
62,148,37095,1,8,0:0:0:0:
95,41,37438,2,0,P|142:15|214:34,1,112,0|8,1:0|0:0,0:0:0:0:
230,68,37952,2,0,L|245:196,1,112,2|2,0:0|1:2,0:0:0:0:
251,235,38467,1,10,0:0:0:0:
301,334,38810,6,0,B|355:345|355:345|421:333,1,112,0|8,1:0|0:0,0:0:0:0:
463,315,39324,2,0,L|456:195,1,112,2|0,0:0|1:0,0:0:0:0:
450,148,39838,1,8,0:0:0:0:
342,118,40181,2,0,L|348:230,1,112,0|8,1:0|0:0,0:0:0:0:
302,263,40695,2,0,P|250:258|210:200,1,112,0|2,0:0|1:2,0:0:0:0:
199,161,41210,1,8,0:0:0:0:
211,50,41552,6,0,B|157:39|157:39|91:51,1,112,2|8,2:0|0:0,0:0:0:0:
49,69,42067,2,0,L|56:189,1,112,2|0,0:0|2:0,0:0:0:0:
62,236,42581,1,8,0:0:0:0:
126,327,42924,2,0,L|251:336,1,112,2|8,0:0|0:0,0:0:0:0:
272,228,43610,1,2,0:0:0:0:
272,228,43781,2,0,L|160:219,1,112,8|2,0:0|0:0,0:0:0:0:
104,212,44295,6,0,B|90:159|90:159|104:86,1,112,4|8,1:0|0:0,0:0:0:0:
125,50,44810,1,0,0:0:0:0:
125,50,44981,2,0,L|194:54,1,56,0|0,0:0|1:0,0:0:0:0:
236,58,45324,2,0,B|250:111|250:111|236:184,1,112,8|0,0:0|1:0,0:0:0:0:
166,252,46010,1,8,0:0:0:0:
166,252,46181,2,0,B|109:241|109:241|56:255,1,112,0|0,0:0|1:0,0:0:0:0:
59,311,46695,1,8,0:0:0:0:
166,347,47038,6,0,B|223:358|223:358|276:344,1,112,0|8,1:0|0:0,0:0:0:0:
324,314,47552,1,0,0:0:0:0:
324,314,47724,2,0,L|320:245,1,56,0|0,0:0|0:0,0:0:0:0:
316,203,48067,2,0,B|263:189|263:189|190:203,1,112,8|0,0:0|1:0,0:0:0:0:
209,87,48752,1,8,0:0:0:0:
209,87,48924,2,0,B|265:97|265:97|318:83,1,112,0|0,0:0|1:0,0:0:0:0:
372,68,49438,1,8,0:0:0:0:
408,172,49781,6,0,B|422:225|422:225|408:298,1,112,0|8,1:0|0:0,0:0:0:0:
387,334,50295,1,0,0:0:0:0:
387,334,50467,2,0,L|318:330,1,56,0|0,0:0|1:0,0:0:0:0:
276,326,50810,2,0,B|262:273|262:273|276:200,1,112,8|0,0:0|1:0,0:0:0:0:
346,132,51495,1,8,0:0:0:0:
346,132,51667,2,0,B|402:142|402:142|455:128,1,112,0|0,0:0|1:0,0:0:0:0:
453,73,52181,1,8,0:0:0:0:
345,36,52524,6,0,B|289:26|289:26|236:40,1,112,0|8,1:0|0:0,0:0:0:0:
188,70,53038,1,0,0:0:0:0:
188,70,53210,2,0,L|192:139,1,56,0|0,0:0|1:0,0:0:0:0:
196,181,53552,2,0,B|249:195|249:195|322:181,1,112,8|4,0:0|1:0,0:0:0:0:
405,133,54238,1,8,0:0:0:0:
405,133,54410,2,0,L|396:256,1,112,4|4,1:0|1:0,0:0:0:0:
390,300,54924,2,0,L|384:378,2,56,0|0|0,0:0|0:0|0:0,0:0:0:0:
300,232,55610,6,0,P|236:213|119:242,1,168,4|0,1:0|1:0,0:0:0:0:
88,257,56295,2,0,L|94:145,1,112,8|0,0:0|1:0,0:0:0:0:
196,99,56981,1,8,0:0:0:0:
196,99,57152,2,0,L|190:211,1,112,0|0,0:0|1:0,0:0:0:0:
186,267,57667,2,0,P|194:295|193:344,1,56,8|0,0:0|0:0,0:0:0:0:
193,377,58010,6,0,P|231:354|305:355,1,112,0|8,1:0|0:0,0:0:0:0:
351,365,58524,2,0,P|406:366|455:340,1,112,0|0,0:0|1:0,0:0:0:0:
495,301,59038,1,8,0:0:0:0:
426,212,59381,6,0,P|388:189|314:190,1,112,0|8,1:0|0:0,0:0:0:0:
268,200,59895,2,0,P|212:201|163:175,1,112,0|0,0:0|1:0,0:0:0:0:
124,136,60410,1,8,0:0:0:0:
193,47,60752,6,0,P|231:70|305:69,1,112,0|8,1:0|0:0,0:0:0:0:
351,59,61267,2,0,P|406:57|455:83,1,112,0|0,0:0|1:0,0:0:0:0:
495,123,61781,1,8,0:0:0:0:
466,172,61952,1,0,0:0:0:0:
426,212,62124,6,0,P|388:235|314:234,1,112,0|8,1:0|0:0,0:0:0:0:
268,224,62638,2,0,P|212:222|163:248,1,112,0|0,0:0|1:0,0:0:0:0:
124,288,63152,1,8,0:0:0:0:
154,336,63323,1,0,0:0:0:0:
193,377,63495,6,0,L|326:361,1,112,0|8,1:0|0:0,0:0:0:0:
360,354,64010,2,0,B|349:299|349:299|360:238,1,112,0|0,0:0|1:0,0:0:0:0:
377,191,64524,1,8,0:0:0:0:
488,198,64867,6,0,B|497:142|497:142|486:87,1,112,0|8,1:0|0:0,0:0:0:0:
471,33,65381,2,0,L|343:43,1,112,0|0,1:0|1:0,0:0:0:0:
303,47,65895,2,0,P|299:78|301:121,1,56,0|0,1:0|1:0,0:0:0:0:
319,155,66238,6,0,P|266:224|100:181,1,280,4|0,1:0|1:0,0:0:0:0:
88,127,67267,2,0,L|94:239,1,112,8|0,0:0|1:0,0:0:0:0:
196,285,67952,1,8,0:0:0:0:
196,285,68124,2,0,L|190:173,1,112,0|0,0:0|1:0,0:0:0:0:
186,117,68638,2,0,P|194:89|193:40,1,56,8|0,0:0|0:0,0:0:0:0:
193,7,68981,6,0,P|231:30|305:29,1,112,0|8,1:0|0:0,0:0:0:0:
351,19,69495,2,0,P|406:17|455:43,1,112,0|0,0:0|1:0,0:0:0:0:
495,83,70010,1,8,0:0:0:0:
426,172,70352,6,0,P|388:195|314:194,1,112,0|8,1:0|0:0,0:0:0:0:
268,184,70867,2,0,P|212:182|163:208,1,112,0|0,0:0|1:0,0:0:0:0:
124,248,71381,1,8,0:0:0:0:
193,337,71724,6,0,P|231:314|305:315,1,112,0|8,1:0|0:0,0:0:0:0:
351,325,72238,2,0,P|406:326|455:300,1,112,0|0,0:0|1:0,0:0:0:0:
495,261,72752,1,8,0:0:0:0:
466,212,72924,1,0,0:0:0:0:
426,172,73095,6,0,P|388:149|314:150,1,112,0|8,1:0|0:0,0:0:0:0:
268,160,73610,2,0,P|212:161|163:135,1,112,0|0,0:0|1:0,0:0:0:0:
124,96,74124,1,8,0:0:0:0:
154,48,74295,1,0,0:0:0:0:
193,7,74467,6,0,L|326:23,1,112,0|8,1:0|0:0,0:0:0:0:
360,30,74981,2,0,B|349:85|349:85|360:146,1,112,0|0,0:0|1:0,0:0:0:0:
377,193,75495,2,0,L|440:188,1,56,8|0,0:0|0:0,0:0:0:0:
488,186,75838,6,0,B|497:241|497:241|486:296,1,112,0|8,1:0|0:0,0:0:0:0:
471,351,76352,1,0,0:0:0:0:
415,356,76524,2,0,P|386:356|338:343,1,56,0|0,1:0|1:0,0:0:0:0:
306,333,76867,2,0,P|277:333|229:346,1,56,0|0,1:0|1:0,0:0:0:0:
198,360,77210,1,4,0:0:0:0:
256,192,82695,12,0,86810,1:0:0:0:
469,30,88181,6,0,L|352:41,1,112,4|8,1:0|0:0,0:0:0:0:
302,50,88695,2,0,B|290:105|290:105|305:164,1,112,0|0,0:0|1:0,0:0:0:0:
350,190,89210,2,0,L|423:202,1,56,8|0,0:0|0:0,0:0:0:0:
460,210,89552,2,0,L|449:93,1,112,4|8,1:0|0:0,0:0:0:0:
440,43,90067,2,0,B|385:31|385:31|326:46,1,112,0|0,0:0|1:0,0:0:0:0:
281,71,90581,2,0,L|278:138,1,56,8|0,0:0|0:0,0:0:0:0:
272,182,90924,6,0,P|284:224|276:298,1,112,4|8,1:0|0:0,0:0:0:0:
239,332,91438,1,0,0:0:0:0:
183,341,91610,2,0,P|151:350|122:371,2,56,0|0|8,0:0|1:0|0:0,0:0:0:0:
167,230,92295,1,4,1:0:0:0:
272,182,92638,2,0,P|348:171|446:204,1,168,8|0,0:0|1:0,0:0:0:0:
467,241,93324,1,8,0:0:0:0:
469,354,93667,6,0,L|352:343,1,112,4|8,1:0|0:0,0:0:0:0:
302,334,94181,2,0,B|290:279|290:279|305:220,1,112,0|0,0:0|1:0,0:0:0:0:
350,194,94695,2,0,L|423:182,1,56,8|0,0:0|0:0,0:0:0:0:
460,174,95038,2,0,L|449:291,1,112,4|8,1:0|0:0,0:0:0:0:
440,341,95552,2,0,B|385:353|385:353|326:338,1,112,0|0,0:0|1:0,0:0:0:0:
281,313,96067,2,0,L|278:246,1,56,8|0,0:0|0:0,0:0:0:0:
272,202,96410,6,0,P|284:160|276:86,1,112,4|8,1:0|0:0,0:0:0:0:
273,36,96924,2,0,L|152:61,1,112,0|0,0:0|1:0,0:0:0:0:
115,87,97438,2,0,P|75:57|55:-5,2,112,8|4|8,0:0|1:0|0:0,0:0:0:0:
159,120,98295,2,0,P|170:167|144:228,1,112,4|0,1:0|1:3,0:3:0:0:
102,257,98810,1,0,1:0:0:0:
43,354,99152,6,0,L|160:343,1,112,4|8,1:0|0:0,0:0:0:0:
210,334,99667,2,0,B|222:279|222:279|207:220,1,112,0|0,0:0|1:0,0:0:0:0:
162,194,100181,2,0,L|89:182,1,56,8|0,0:0|0:0,0:0:0:0:
52,174,100524,2,0,L|63:291,1,112,4|8,1:0|0:0,0:0:0:0:
72,341,101038,2,0,B|127:353|127:353|186:338,1,112,0|0,0:0|1:0,0:0:0:0:
231,313,101552,2,0,L|234:246,1,56,8|0,0:0|0:0,0:0:0:0:
240,202,101895,6,0,P|228:160|236:86,1,112,4|8,1:0|0:0,0:0:0:0:
273,52,102410,1,0,0:0:0:0:
329,43,102581,2,0,P|361:34|390:13,2,56,0|0|8,0:0|1:0|0:0,0:0:0:0:
345,154,103267,1,4,1:0:0:0:
240,202,103610,2,0,P|164:213|66:180,1,168,8|0,0:0|1:0,0:0:0:0:
45,143,104296,1,8,0:0:0:0:
43,30,104638,6,0,L|160:41,1,112,4|0,1:0|0:0,0:0:0:0:
210,50,105152,2,0,B|222:105|222:105|207:164,1,112,0|0,0:0|1:0,0:0:0:0:
162,190,105667,2,0,L|89:202,1,56,8|0,0:0|0:0,0:0:0:0:
52,210,106010,2,0,L|63:93,1,112,0|8,1:0|0:0,0:0:0:0:
72,43,106524,2,0,B|127:31|127:31|186:46,1,112,0|0,0:0|1:0,0:0:0:0:
231,71,107038,2,0,L|234:138,1,56,8|0,0:0|0:0,0:0:0:0:
240,182,107381,6,0,P|228:224|236:298,1,112,0|8,1:0|0:0,0:0:0:0:
239,348,107895,2,0,L|360:323,1,112,0|0,0:0|1:0,0:0:0:0:
397,297,108409,2,0,P|436:326|456:389,2,112,8|4|8,0:0|1:0|0:0,0:0:0:0:
374,245,109267,1,4,1:0:0:0:
374,245,109438,2,0,L|388:179,1,56,0|0,1:0|1:2,0:0:0:0:
400,136,109781,1,2,0:0:0:0:
256,192,110124,12,0,112867,0:0:0:0:
256,192,121095,6,0,P|253:143|270:79,1,112,0|0,1:0|0:0,0:0:0:0:
303,38,121610,2,0,L|367:42,1,56,0|8,1:0|0:0,0:0:0:0:
412,58,121952,2,0,P|414:113|399:167,2,112,0|8|8,1:0|0:0|0:0,0:0:0:0:
388,6,122810,2,0,L|266:23,1,112,0|8,1:0|0:0,0:0:0:0:
221,30,123324,2,0,P|227:59|223:105,1,56,2|0,0:0|1:0,0:0:0:0:
256,192,123838,6,0,P|253:241|270:305,1,112,0|0,1:0|0:0,0:0:0:0:
303,346,124352,2,0,L|367:342,1,56,0|8,1:0|0:0,0:0:0:0:
412,326,124695,2,0,P|414:270|399:216,2,112,0|8|8,1:0|0:0|0:0,0:0:0:0:
388,378,125552,2,0,L|266:361,1,112,0|0,1:0|0:0,0:0:0:0:
221,354,126067,2,0,P|227:325|223:279,1,56,0|8,1:0|0:0,0:0:0:0:
256,192,126581,6,0,P|259:143|242:79,1,112,0|0,1:0|0:0,0:0:0:0:
209,38,127095,2,0,L|145:42,1,56,0|8,1:0|0:0,0:0:0:0:
100,58,127438,2,0,P|97:113|112:167,2,112,0|8|8,1:0|0:0|0:0,0:0:0:0:
124,6,128295,2,0,L|246:23,1,112,0|8,1:0|0:0,0:0:0:0:
291,30,128810,2,0,P|285:59|289:105,1,56,2|0,0:0|1:0,0:0:0:0:
256,192,129324,6,0,P|259:241|242:305,1,112,0|0,1:0|0:0,0:0:0:0:
209,346,129838,2,0,L|145:342,1,56,0|8,1:0|0:0,0:0:0:0:
100,326,130181,2,0,P|97:270|112:216,2,112,0|8|8,1:0|0:0|0:0,0:0:0:0:
124,378,131038,2,0,L|246:361,1,112,0|0,1:0|1:0,0:0:0:0:
290,357,131552,1,0,1:0:0:0:
290,357,131724,2,0,L|290:287,1,56,8|0,0:0|1:0,0:0:0:0:
291,244,132067,1,0,2:0:0:0:
462,118,143038,6,0,P|440:42|306:154,1,336,0|0,0:0|0:0,0:0:0:0:
204,204,144410,2,0,P|142:333|41:230,1,336,0|0,0:0|0:0,0:0:0:0:
50,118,145781,6,0,P|72:42|206:154,1,336,0|0,0:0|0:0,0:0:0:0:
308,204,147152,2,0,P|369:333|470:230,1,336,0|0,0:0|0:0,0:0:0:0:
400,142,148524,6,0,L|217:158,1,168,0|0,0:0|0:0,0:0:0:0:
122,177,149381,2,0,L|112:115,2,56,0|0|0,0:0|0:0|0:0,0:0:0:0:
197,259,150067,2,0,L|205:314,2,56,0|0|0,0:0|0:0|0:0,0:0:0:0:
234,153,150752,2,0,L|224:91,2,56,0|0|0,0:0|0:0|0:0,0:0:0:0:
281,184,151267,6,0,L|402:192,1,112,4|0,1:0|0:0,0:0:0:0:
448,192,151781,2,0,P|442:244|449:310,2,112,4|4|4,0:2|0:2|0:2,0:0:0:0:
472,141,152638,2,0,P|478:89|471:23,1,112,0|8,0:0|0:0,0:0:0:0:
417,19,153152,1,8,0:0:0:0:
417,19,153324,2,0,L|285:26,1,112,4|8,1:0|0:0,0:0:0:0:
192,30,154010,6,0,L|184:156,1,112,4|8,1:0|0:0,0:0:0:0:
74,124,154695,2,0,L|78:56,2,56,0|0|8,0:0|1:0|0:0,0:0:0:0:
144,211,155381,2,0,L|136:337,1,112,0|8,1:0|0:0,0:0:0:0:
132,378,155895,2,0,P|188:362|253:367,1,112,0|0,0:0|1:0,0:0:0:0:
296,374,156410,1,8,0:0:0:0:
387,310,156752,6,0,L|395:184,1,112,0|8,1:0|0:0,0:0:0:0:
399,143,157267,2,0,P|343:159|278:154,1,112,0|0,0:0|1:0,0:0:0:0:
235,147,157781,1,8,0:0:0:0:
142,210,158124,2,0,P|99:193|64:133,1,112,4|8,1:0|0:0,0:0:0:0:
48,85,158638,2,0,L|163:77,1,112,4|0,1:0|1:0,0:0:0:0:
215,70,159152,1,8,0:0:0:0:
320,30,159495,6,0,L|328:156,1,112,4|8,1:0|0:0,0:0:0:0:
438,124,160181,2,0,L|433:56,2,56,0|0|8,0:0|1:0|0:0,0:0:0:0:
368,211,160867,2,0,L|376:337,1,112,0|8,1:0|0:0,0:0:0:0:
380,378,161381,2,0,P|324:362|259:367,1,112,0|0,0:0|0:0,0:0:0:0:
216,374,161895,1,8,0:0:0:0:
125,310,162238,6,0,L|117:184,1,112,0|8,1:0|0:0,0:0:0:0:
113,143,162752,2,0,P|169:159|234:154,1,112,0|0,0:0|1:0,0:0:0:0:
277,147,163267,2,0,L|268:219,1,56,8|0,0:0|0:0,0:0:0:0:
261,258,163610,6,0,P|317:242|382:247,1,112,4|8,1:0|0:0,0:0:0:0:
423,262,164124,1,4,1:0:0:0:
401,152,164467,2,0,L|386:35,2,112,4|4|4,1:2|1:2|1:2,0:0:0:0:
353,182,165324,6,0,P|292:186|177:146,1,168,4|0,1:0|1:0,0:0:0:0:
139,131,166010,2,0,L|145:60,1,56,8|0,0:0|0:0,0:0:0:0:
154,20,166352,2,0,L|269:29,1,112,4|8,1:0|0:0,0:0:0:0:
305,68,166867,2,0,P|314:118|304:198,1,112,0|0,0:0|1:0,0:0:0:0:
277,225,167381,2,0,L|206:219,1,56,8|0,0:0|0:0,0:0:0:0:
165,213,167724,6,0,P|156:163|166:83,1,112,4|8,1:0|0:0,0:0:0:0:
201,64,168238,1,0,0:0:0:0:
201,64,168410,2,0,L|208:3,2,56,0|0|8,0:0|1:0|0:0,0:0:0:0:
89,56,169095,2,0,B|48:93|48:93|50:158,1,112,4|8,1:0|0:0,0:0:0:0:
61,205,169610,2,0,L|178:213,1,112,4|0,1:0|1:0,0:0:0:0:
228,218,170124,1,8,0:0:0:0:
233,106,170467,6,0,P|281:76|346:78,1,112,4|8,1:0|0:0,0:0:0:0:
387,95,170981,2,0,L|404:216,1,112,0|0,0:0|1:0,0:0:0:0:
373,253,171495,2,0,L|367:324,1,56,8|0,0:0|0:0,0:0:0:0:
358,364,171838,2,0,L|243:355,1,112,4|8,1:0|0:0,0:0:0:0:
207,316,172352,2,0,P|198:266|208:186,1,112,0|0,0:0|1:0,0:0:0:0:
235,159,172867,2,0,L|306:165,1,56,8|0,0:0|0:0,0:0:0:0:
347,171,173210,6,0,P|356:221|346:301,1,112,4|8,1:0|0:0,0:0:0:0:
311,320,173724,2,0,L|192:333,1,112,0|0,0:0|1:0,0:0:0:0:
143,338,174238,1,8,0:0:0:0:
65,257,174581,2,0,B|24:220|24:220|26:155,1,112,4|8,1:0|0:0,0:0:0:0:
37,108,175095,2,0,L|154:100,1,112,4|0,1:0|1:0,0:0:0:0:
204,95,175610,1,0,1:0:0:0:
303,42,175952,6,0,P|378:33|461:83,1,168,4|0,1:0|1:0,0:0:0:0:
464,132,176638,2,0,L|451:248,1,112,8|0,0:0|0:0,0:0:0:0:
441,298,177152,1,8,0:0:0:0:
334,262,177495,1,8,0:0:0:0:
334,262,177667,2,0,L|346:150,1,112,0|8,1:0|0:0,0:0:0:0:
321,41,178352,1,0,1:0:0:0:
209,42,178695,6,0,P|134:33|51:83,1,168,0|0,1:0|1:0,0:0:0:0:
48,132,179381,2,0,L|61:248,1,112,8|0,0:0|0:0,0:0:0:0:
71,298,179895,1,8,0:0:0:0:
178,262,180238,1,8,0:0:0:0:
178,262,180410,2,0,L|165:150,2,112,0|8|0,1:0|0:0|0:0,0:0:0:0:
291,320,181438,6,0,B|374:330|374:330|456:307,1,168,0|0,1:0|1:0,0:0:0:0:
464,252,182124,2,0,L|451:136,1,112,8|0,0:0|0:0,0:0:0:0:
441,86,182638,1,8,0:0:0:0:
334,122,182981,1,8,0:0:0:0:
334,122,183152,2,0,L|346:233,1,112,0|8,1:0|0:0,0:0:0:0:
321,343,183838,1,0,1:0:0:0:
220,320,184181,6,0,B|138:330|138:330|55:307,1,168,4|8,1:0|0:0,0:0:0:0:
48,252,184867,2,0,L|61:136,1,112,0|0,1:0|0:0,0:0:0:0:
71,86,185381,1,8,0:0:0:0:
178,122,185724,1,8,0:0:0:0:
178,122,185895,2,0,L|165:233,2,112,0|8|0,1:0|0:0|0:0,0:0:0:0:
256,192,186924,12,0,192410,0:0:0:0:
217,128,210238,6,0,B|99:155|134:48|7:75,2,224,6|2|2,0:0|0:0|0:0,0:0:0:0:
317,79,211952,1,0,0:0:0:0:
317,79,212124,2,0,L|433:89,1,112,2|0,0:0|0:0,0:0:0:0:
484,95,212638,2,0,P|480:127|485:168,1,56,2|0,0:0|0:0,0:0:0:0:
487,206,212981,6,0,P|449:194|363:193,1,112,2|0,0:0|0:0,0:0:0:0:
323,205,213495,2,0,P|267:204|213:189,2,112,2|2|2,0:0|0:0|0:0,0:0:0:0:
377,106,214524,1,0,0:0:0:0:
377,106,214695,2,0,L|255:103,1,112,0|0,0:0|0:0,0:0:0:0:
213,126,215210,2,0,P|210:159|215:191,1,56,0|0,0:0|0:0,0:0:0:0:
295,256,215724,6,0,B|413:229|378:336|505:309,2,224,6|2|2,0:0|0:0|0:0,0:0:0:0:
195,305,217438,1,0,0:0:0:0:
195,305,217610,2,0,L|79:295,1,112,2|0,0:0|0:0,0:0:0:0:
28,289,218124,2,0,P|32:257|27:216,1,56,2|0,0:0|0:0,0:0:0:0:
25,178,218467,6,0,P|63:190|149:191,1,112,2|0,0:0|0:0,0:0:0:0:
189,179,218981,2,0,P|244:179|298:194,2,112,2|2|2,0:0|0:0|0:0,0:0:0:0:
135,278,220010,1,0,0:0:0:0:
135,278,220181,2,0,L|257:281,1,112,2|0,0:0|0:0,0:0:0:0:
299,258,220695,1,2,0:0:0:0:
299,258,220867,2,0,P|302:225|297:193,2,56,0|2|0,0:0|0:0|0:0,0:0:0:0:
43,30,222581,6,0,L|160:41,1,112,0|8,1:0|0:0,0:0:0:0:
210,50,223095,2,0,B|231:106|207:164,1,112,0|0,0:0|1:0,0:0:0:0:
162,190,223610,2,0,L|89:202,1,56,8|0,0:0|0:0,0:0:0:0:
52,210,223952,2,0,L|63:93,1,112,4|8,1:0|0:0,0:0:0:0:
72,43,224467,2,0,B|123:20|186:46,1,112,0|0,0:0|1:0,0:0:0:0:
231,71,224981,2,0,L|234:138,1,56,8|0,0:0|0:0,0:0:0:0:
240,182,225324,6,0,B|225:236|225:236|236:298,1,112,4|8,1:0|0:0,0:0:0:0:
273,332,225838,1,0,0:0:0:0:
329,341,226010,2,0,B|358:347|358:347|390:371,2,56,0|0|8,0:0|1:0|0:0,0:0:0:0:
345,230,226695,1,4,1:0:0:0:
240,182,227038,2,0,B|163:164|163:164|83:206,1,168,8|4,0:0|1:0,0:0:0:0:
43,243,227724,1,8,0:0:0:0:
43,354,228067,6,0,L|160:343,1,112,4|8,1:0|0:0,0:0:0:0:
210,334,228581,2,0,B|231:278|207:220,1,112,0|0,0:0|1:0,0:0:0:0:
162,194,229095,2,0,L|89:182,1,56,8|0,0:0|0:0,0:0:0:0:
52,174,229438,2,0,L|63:291,1,112,0|8,1:0|0:0,0:0:0:0:
72,341,229952,2,0,B|123:364|186:338,1,112,0|0,0:0|1:0,0:0:0:0:
231,313,230467,2,0,L|234:246,1,56,8|0,0:0|0:0,0:0:0:0:
240,202,230810,6,0,B|225:148|225:148|236:86,1,112,4|8,1:0|0:0,0:0:0:0:
239,36,231324,2,0,L|360:61,1,112,0|0,0:0|1:0,0:0:0:0:
397,87,231838,2,0,B|439:55|439:55|457:-5,2,112,8|4|8,0:0|1:0|0:0,0:0:0:0:
353,120,232695,2,0,B|339:177|339:177|368:228,1,112,4|0,1:0|1:3,0:3:0:0:
410,257,233210,1,0,1:0:0:0:
469,354,233552,6,0,L|352:343,1,112,4|8,1:0|0:0,0:0:0:0:
302,334,234067,2,0,B|281:278|305:220,1,112,0|0,0:0|1:0,0:0:0:0:
350,194,234581,2,0,L|423:182,1,56,8|0,0:0|0:0,0:0:0:0:
460,174,234924,2,0,L|449:291,1,112,4|8,1:0|0:0,0:0:0:0:
440,341,235438,2,0,B|389:364|326:338,1,112,0|0,0:0|1:0,0:0:0:0:
281,313,235952,2,0,L|278:246,1,56,8|0,0:0|0:0,0:0:0:0:
272,202,236295,6,0,B|287:148|287:148|276:86,1,112,4|8,1:0|0:0,0:0:0:0:
239,52,236810,1,0,0:0:0:0:
183,43,236981,2,0,B|154:37|154:37|122:13,2,56,0|0|8,0:0|1:0|0:0,0:0:0:0:
167,154,237667,1,4,1:0:0:0:
272,202,238010,2,0,B|349:220|349:220|429:178,1,168,8|4,0:0|1:0,0:0:0:0:
469,141,238696,1,8,0:0:0:0:
469,30,239038,6,0,L|352:41,1,112,4|8,1:0|0:0,0:0:0:0:
302,50,239552,2,0,B|281:106|305:164,1,112,0|0,0:0|1:0,0:0:0:0:
350,190,240067,2,0,L|423:202,1,56,8|0,0:0|0:0,0:0:0:0:
460,210,240410,2,0,L|449:93,1,112,4|8,1:0|0:0,0:0:0:0:
440,43,240924,2,0,B|389:20|326:46,1,112,0|0,0:0|1:0,0:0:0:0:
281,71,241438,2,0,L|278:138,1,56,8|0,0:0|0:0,0:0:0:0:
272,182,241781,6,0,B|287:236|287:236|276:298,1,112,0|8,1:0|0:0,0:0:0:0:
273,348,242295,2,0,L|152:323,1,112,0|0,0:0|1:0,0:0:0:0:
115,297,242809,2,0,P|75:326|55:389,2,112,8|4|8,0:0|1:0|0:0,0:0:0:0:
138,245,243667,1,4,1:0:0:0:
138,245,243838,2,0,L|124:179,1,56,8|8,0:0|0:2,0:0:0:0:
112,136,244181,1,4,1:0:0:0:
256,192,244524,12,4,250010,1:0:0:0:
