osu file format v14

[General]
AudioFilename: 01. Blue Liner.mp3
AudioLeadIn: 0
PreviewTime: 164364
Countdown: 0
SampleSet: Soft
StackLeniency: 0.7
Mode: 0
LetterboxInBreaks: 0
WidescreenStoryboard: 0

[Editor]
DistanceSpacing: 0.7
BeatDivisor: 4
GridSize: 4
TimelineZoom: 3.199999

[Metadata]
Title:Blue Liner
TitleUnicode:Blue Liner
Artist:Rita
ArtistUnicode:Rita
Creator:Fycho
Version:Liner
Source:あおぞらストライプ
Tags:taishi dubstep TRakker Electro.muster GWAVE 2013 2nd Progress Astronauts SPICA アストロノーツ AOZORA STRIPE app
BeatmapID:587105
BeatmapSetID:256049

[Difficulty]
HPDrainRate:5
CircleSize:4
OverallDifficulty:8
ApproachRate:9
SliderMultiplier:1.7
SliderTickRate:1

[Events]
//Background and Video events
0,0,"blbg.jpg",0,0
//Break Periods
2,119648,128181
2,290448,300181
//Storyboard Layer 0 (Background)
//Storyboard Layer 1 (Fail)
//Storyboard Layer 2 (Pass)
//Storyboard Layer 3 (Foreground)
//Storyboard Sound Samples

[TimingPoints]
2115,333.333333333333,4,2,3,30,1,0
2115,-166.666666666667,4,2,3,40,0,0
12781,-90.9090909090909,4,2,1,50,0,0
14114,-111.111111111111,4,2,1,60,0,0
19448,-100,4,2,2,70,0,0
26114,-111.111111111111,4,2,1,60,0,0
35448,-90.9090909090909,4,2,1,60,0,0
36781,-100,4,2,1,80,0,0
47448,-100,4,2,2,60,0,0
63448,-100,4,2,2,70,0,0
71448,-100,4,2,1,90,0,1
87448,-100,4,2,2,70,0,1
95448,-100,4,2,2,80,0,1
96781,-100,4,2,2,90,0,1
98114,-133.333333333333,4,2,2,50,0,0
108781,-125,4,2,2,60,0,0
114114,-111.111111111111,4,2,2,70,0,0
119448,-100,4,2,2,80,0,0
128781,-90.9090909090909,4,2,1,60,0,0
130114,-90.9090909090909,4,2,1,80,0,0
140781,-100,4,2,2,80,0,0
141614,-100,4,2,1,80,0,0
156781,-100,4,2,2,80,0,0
164781,-90.9090909090909,4,2,1,90,0,1
180781,-90.9090909090909,4,2,2,70,0,1
188781,-90.9090909090909,4,2,2,80,0,1
190114,-90.9090909090909,4,2,2,90,0,1
191448,-100,4,2,1,80,0,0
193448,-100,4,2,1,60,0,0
194114,-133.333333333333,4,2,1,70,0,0
202114,-133.333333333333,4,2,3,60,0,0
218114,-142.857142857143,4,2,1,50,0,0
219448,-125,4,2,1,60,0,0
220781,-111.111111111111,4,2,1,70,0,0
221448,-111.111111111111,4,2,1,80,0,0
222114,-111.111111111111,4,2,1,90,0,0
223448,-133.333333333333,4,2,1,70,0,0
260614,-133.333333333333,4,2,1,50,0,0
260781,-133.333333333333,4,2,1,70,0,0
268781,-100,4,2,1,90,0,1
290114,-100,4,2,1,70,0,0
300781,-142.857142857143,4,2,2,50,0,0
308781,-142.857142857143,4,2,2,60,0,0
311448,-142.857142857143,4,2,2,50,0,0
312114,-142.857142857143,4,2,2,70,0,0
312781,-90.9090909090909,4,2,1,80,0,0
315448,-83.3333333333333,4,2,1,90,0,1
331448,-83.3333333333333,4,2,2,70,0,1
339448,-83.3333333333333,4,2,2,80,0,1
340781,-83.3333333333333,4,2,2,90,0,1
342114,-100,4,2,1,70,0,0

[Colours]
Combo1 : 26,255,0
Combo2 : 80,252,218
Combo3 : 255,66,132
Combo4 : 33,21,249

[HitObjects]
337,96,2115,6,0,P|319:130|305:192,1,101.999996887207,2|0,0:0|0:0,0:0:0:0:
285,303,2614,2,0,P|264:270|217:227,1,101.999996887207,2|0,0:0|0:0,0:0:0:0:
129,156,3281,5,0,0:0:0:0:
129,156,3448,2,0,P|167:154|228:135,1,101.999996887207,2|0,0:0|0:0,0:0:0:0:
298,188,3948,1,0,0:0:0:0:
390,126,4114,2,0,P|392:94|381:69,1,50.9999984436036,2|0,0:0|0:0,0:0:0:0:
354,256,4448,2,0,P|352:288|363:313,1,50.9999984436036,2|0,0:0|0:0,0:0:0:0:
502,190,4781,6,0,L|385:197,1,101.999996887207,2|0,0:0|0:0,0:0:0:0:
298,188,5281,1,2,0:0:0:0:
224,318,5448,2,0,P|245:303|262:284,1,50.9999984436036,2|0,0:0|0:0,0:0:0:0:
187,109,5781,2,0,P|189:134|199:158,1,50.9999984436036,2|0,0:0|0:0,0:0:0:0:
372,44,6114,6,0,P|321:46|271:53,1,101.999996887207,2|0,0:0|0:0,0:0:0:0:
411,228,6614,2,0,P|417:170|413:119,1,101.999996887207,2|0,0:0|0:0,0:0:0:0:
324,282,7114,1,2,0:0:0:0:
258,210,7281,1,0,0:0:0:0:
149,250,7448,5,0,0:0:0:0:
149,250,7531,2,0,P|145:182|143:158,1,76.4999976654053,2|0,0:0|0:0,0:0:0:0:
68,90,7948,5,2,0:0:0:0:
0,204,8281,1,0,0:0:0:0:
87,306,8614,1,0,0:0:0:0:
119,232,8781,6,0,P|182:218|233:217,1,101.999996887207,2|0,0:0|0:0,0:0:0:0:
285,275,9281,1,0,0:0:0:0:
211,369,9448,2,0,P|212:323|211:303,1,50.9999984436036,2|0,0:0|0:0,0:0:0:0:
369,228,9781,2,0,P|366:274|367:294,1,50.9999984436036,2|0,0:0|0:0,0:0:0:0:
199,181,10114,6,0,L|300:174,1,101.999996887207,2|0,0:0|0:0,0:0:0:0:
356,92,10614,2,0,L|243:100,1,101.999996887207,2|0,0:0|0:0,0:0:0:0:
99,219,11281,2,0,L|105:155,1,50.9999984436036,0|2,0:0|0:0,0:0:0:0:
338,46,12781,6,0,L|216:40,1,93.5000028533936,4|0,0:0|0:0,0:0:0:0:
424,167,13114,2,0,L|330:159,1,93.5000028533936,4|8,0:0|0:1,0:0:0:0:
295,160,13364,1,8,0:1:0:0:
295,160,13448,1,8,0:0:0:0:
226,281,13614,1,8,1:1:0:0:
85,310,13781,6,0,L|86:264,1,46.7500014266968,8|2,0:0|0:0,0:0:0:0:
28,130,13948,2,0,L|26:190,1,46.7500014266968,0|2,0:0|0:0,0:0:0:0:
0,258,14114,6,0,B|44:272|44:272|102:258|102:258|147:271,1,152.999995330811,4|2,0:0|0:0,0:0:0:0:
263,302,14614,2,0,P|302:227|288:141,1,152.999995330811,0|0,0:0|0:0,0:0:0:0:
198,83,15114,2,0,L|280:69,1,76.4999976654053,2|0,0:0|0:0,0:0:0:0:
368,104,15448,6,0,P|375:67|372:29,1,76.4999976654053
419,219,15781,1,2,0:0:0:0:
316,178,15948,2,0,P|278:170|240:173,1,76.4999976654053,0|0,0:0|0:0,0:0:0:0:
279,313,16281,2,0,P|317:321|355:318,1,76.4999976654053,2|0,0:0|0:0,0:0:0:0:
186,359,16614,1,0,0:0:0:0:
47,358,16781,5,0,0:0:0:0:
142,268,16948,1,0,0:0:0:0:
144,257,17031,1,0,0:0:0:0:
146,246,17114,1,2,0:0:0:0:
56,138,17281,2,0,L|131:148,1,76.4999976654053,0|0,0:0|0:0,0:0:0:0:
252,48,17614,5,0,0:0:0:0:
222,146,17781,1,2,0:0:0:0:
377,129,17947,1,0,0:0:0:0:
298,275,18114,6,0,L|305:184,1,76.4999976654053
303,198,18364,1,0,0:0:0:0:
303,198,18448,1,2,0:0:0:0:
458,149,18614,1,0,0:0:0:0:
345,95,18781,5,0,0:0:0:0:
462,54,18948,1,2,0:0:0:0:
511,260,19114,1,0,0:0:0:0:
457,150,19281,1,2,0:0:0:0:
399,365,19448,6,0,L|411:273,1,85,4|0,0:0|0:0,0:0:0:0:
458,150,19781,2,0,L|379:182,1,85,8|0,0:1|0:0,0:0:0:0:
228,100,20114,1,0,0:0:0:0:
372,36,20281,1,0,0:0:0:0:
372,36,20364,1,0,0:0:0:0:
372,36,20448,1,8,0:1:0:0:
284,27,20614,1,0,0:0:0:0:
264,189,20781,5,0,0:0:0:0:
401,131,20948,1,0,0:0:0:0:
350,210,21114,1,8,0:1:0:0:
280,353,21281,2,0,L|289:261,1,85
394,282,21614,1,0,0:0:0:0:
397,294,21698,1,0,0:0:0:0:
399,306,21781,1,8,0:1:0:0:
430,187,21948,1,0,0:0:0:0:
489,359,22114,6,0,P|502:275|501:214,1,127.5
502,232,22448,1,8,0:1:0:0:
313,197,22614,2,0,L|319:292,1,85
353,102,22948,1,0,0:0:0:0:
263,51,23114,2,0,L|206:60,1,42.5,8|0,1:0|0:0,0:0:0:0:
166,131,23281,2,0,L|119:128,1,42.5,0|0,0:0|0:0,0:0:0:0:
51,79,23448,5,4,0:0:0:0:
112,218,23614,2,0,P|112:247|104:322,1,85
268,163,23948,2,0,P|253:231|243:364,1,170,0|0,1:0|0:0,0:0:0:0:
242,360,24364,1,0,0:0:0:0:
242,360,24448,1,0,1:0:0:0:
376,17,24781,6,0,L|361:117,1,85,4|0,0:0|0:0,0:0:0:0:
397,358,25114,2,0,L|409:273,1,85,4|0,0:0|0:0,0:0:0:0:
445,79,25448,5,0,1:0:0:0:
504,213,25614,1,0,0:0:0:0:
248,228,25781,1,0,1:0:0:0:
248,228,26114,6,0,L|133:235,1,114.749996498108,4|0,0:0|0:0,0:0:0:0:
99,249,26448,2,0,P|102:183|95:157,1,76.4999976654053
208,153,26781,2,0,P|177:94|158:75,1,76.4999976654053
284,40,27114,2,0,P|228:4|202:-2,1,76.4999976654053
305,136,27448,5,0,0:0:0:0:
447,108,27614,1,0,0:0:0:0:
344,241,27781,2,0,L|330:331,1,76.4999976654053
207,154,28114,2,0,L|212:241,1,76.4999976654053
82,235,28448,2,0,L|101:313,1,76.4999976654053
211,355,28781,6,0,B|264:372|312:331|366:348,1,152.999995330811
464,356,29281,2,0,P|499:290|469:198,1,152.999995330811
345,252,29781,2,0,L|358:166,1,76.4999976654053
363,141,30031,1,0,0:0:0:0:
363,141,30114,6,0,L|187:158,1,152.999995330811
36,174,30614,1,0,0:0:0:0:
111,112,30781,2,0,P|122:57|111:23,1,76.4999976654053
100,251,31114,2,0,P|89:306|100:340,1,76.4999976654053
311,190,31448,6,0,P|223:156|166:182,1,152.999995330811
317,344,31948,2,0,L|310:163,1,152.999995330811
175,259,32448,2,0,L|168:343,1,76.4999976654053
84,143,32781,6,0,P|192:157|245:163,1,152.999995330811
409,133,33281,1,0,0:0:0:0:
373,225,33448,2,0,P|378:271|369:308,1,76.4999976654053,0|0,0:0|0:0,0:0:0:0:
330,74,33781,1,0,0:0:0:0:
278,225,33948,1,0,0:0:0:0:
249,135,34114,6,0,P|200:115|96:127,1,152.999995330811
126,205,34614,2,0,P|94:262|94:291,1,76.4999976654053
139,356,34948,1,0,0:0:0:0:
225,308,35114,2,0,P|261:319|299:317,1,76.4999976654053
447,272,35448,6,0,L|425:369,1,93.5000028533936,4|0,0:0|0:0,0:0:0:0:
312,193,35781,2,4,L|336:99,1,93.5000028533936,4|0,0:0|0:0,0:0:0:0:
480,172,36114,1,8,0:0:0:0:
480,172,36198,1,8,0:0:0:0:
480,172,36281,1,8,0:0:0:0:
324,277,36448,2,0,L|207:265,1,93.5000028533936,8|0,0:0|0:0,0:0:0:0:
79,298,36781,6,0,P|84:226|84:188,1,85,4|0,0:0|0:0,0:0:0:0:
122,128,37114,1,8,0:0:0:0:
38,72,37281,2,0,P|116:93|205:60,1,170,8|8,0:1|0:1,0:0:0:0:
319,33,37781,2,0,P|335:71|332:114,1,85,8|0,0:0|0:0,0:0:0:0:
266,218,38114,5,8,0:1:0:0:
309,316,38281,1,8,0:1:0:0:
434,237,38448,2,0,P|444:198|439:152,1,85,8|0,0:0|0:0,0:0:0:0:
440,154,38698,1,0,0:0:0:0:
440,154,38781,1,0,0:0:0:0:
333,202,38948,1,8,0:1:0:0:
234,142,39114,1,8,0:0:0:0:
229,290,39281,1,0,0:0:0:0:
89,363,39448,6,0,P|103:202|103:187,1,170,8|8,0:1|0:0,0:0:0:0:
253,56,39948,2,0,P|242:141|238:226,1,170,8|8,0:1|0:1,0:0:0:0:
377,139,40448,1,8,0:0:0:0:
336,253,40614,1,0,0:0:0:0:
431,358,40781,6,0,P|444:289|445:252,1,85,8|0,0:1|0:0,0:0:0:0:
444,274,41031,1,0,0:0:0:0:
444,274,41114,1,8,0:0:0:0:
377,139,41281,1,0,0:0:0:0:
299,233,41448,1,0,0:0:0:0:
265,209,41531,1,0,0:0:0:0:
244,172,41615,1,8,0:1:0:0:
248,130,41698,1,0,0:0:0:0:
265,92,41781,1,8,0:0:0:0:
377,139,41948,2,0,L|388:66,1,42.5
471,82,42114,6,0,L|472:226,1,127.5,8|0,0:1|0:0,0:0:0:0:
471,209,42448,1,8,0:0:0:0:
326,108,42614,2,0,P|275:99|184:180,1,170,8|8,0:1|0:1,0:0:0:0:
238,275,43114,1,8,0:0:0:0:
73,201,43281,1,0,0:0:0:0:
153,349,43448,6,0,L|151:253,1,85,8|0,0:1|0:0,0:0:0:0:
151,264,43698,1,0,0:0:0:0:
151,264,43781,1,8,0:0:0:0:
18,347,43948,1,0,0:0:0:0:
118,143,44114,5,0,0:0:0:0:
56,270,44281,1,8,0:1:0:0:
235,202,44448,1,8,0:0:0:0:
235,202,44781,6,0,L|357:207,1,85,8|0,0:1|0:0,0:0:0:0:
319,205,45031,1,0,0:0:0:0:
319,205,45114,1,8,0:0:0:0:
160,304,45281,2,0,L|335:313,1,170,8|8,0:1|0:1,0:0:0:0:
329,312,45698,1,0,0:0:0:0:
329,312,45781,1,8,0:0:0:0:
447,214,45948,1,0,0:0:0:0:
496,359,46114,5,8,0:1:0:0:
374,250,46281,1,0,0:0:0:0:
453,107,46448,1,8,0:0:0:0:
295,151,46614,5,0,0:0:0:0:
295,151,46698,1,0,0:0:0:0:
295,151,46781,2,0,L|306:62,1,85,8|8,0:0|0:1,0:0:0:0:
166,218,47114,2,0,L|150:130,1,85,8|0,0:0|0:0,0:0:0:0:
219,334,47448,6,0,B|168:318|111:343|111:343|87:317|78:281,1,170,4|0,0:0|0:0,0:0:0:0:
121,124,47948,1,0,0:0:0:0:
8,185,48114,2,0,L|200:145,1,170,4|0,0:3|0:0,0:0:0:0:
331,124,48614,1,0,0:0:0:0:
207,246,48781,5,2,0:0:0:0:
331,124,48948,2,0,L|330:63,2,42.5,0|0|0,0:0|0:0|0:0,0:0:0:0:
336,322,49281,1,0,0:0:0:0:
336,322,49364,1,0,0:0:0:0:
336,322,49448,2,0,L|337:221,1,85,8|0,0:1|0:0,0:0:0:0:
331,124,49781,2,0,L|428:93,1,85
411,98,50031,1,0,0:0:0:0:
411,98,50114,5,2,0:0:0:0:
228,162,50448,2,0,P|209:118|213:72,1,85,0|0,0:0|0:0,0:0:0:0:
302,238,50781,2,0,B|248:274|181:228|123:269,1,170,8|0,0:1|0:0,0:0:0:0:
80,356,51281,1,0,0:0:0:0:
30,167,51448,6,0,P|14:216|15:257,1,85,2|0,0:0|0:0,0:0:0:0:
13,249,51698,1,0,0:0:0:0:
13,249,51781,1,0,0:0:0:0:
81,355,51948,2,0,L|138:344,2,42.5,0|0|8,0:0|0:0|0:1,0:0:0:0:
392,269,52281,5,0,0:0:0:0:
392,269,52364,1,0,0:0:0:0:
392,269,52448,2,0,L|392:318,1,42.5
235,274,52614,2,0,L|236:231,1,42.5
321,169,52781,6,0,L|319:338,1,170,2|0,0:0|0:0,0:0:0:0:
242,120,53281,1,0,0:0:0:0:
217,208,53448,2,0,B|165:233|99:196|46:222,1,170,8|0,0:1|0:0,0:0:0:0:
8,304,53948,1,0,0:0:0:0:
30,134,54114,5,2,0:0:0:0:
140,211,54281,1,0,0:0:0:0:
140,211,54364,1,0,0:0:0:0:
140,211,54448,2,0,L|143:117,1,85
289,199,54781,2,0,L|286:283,1,85,8|0,0:1|0:0,0:0:0:0:
395,95,55114,2,0,P|349:107|301:102,1,85
291,100,55364,1,0,0:0:0:0:
271,90,55448,5,2,0:0:0:0:
168,215,55948,1,0,0:0:0:0:
254,232,56114,2,0,P|271:290|263:336,1,85,8|0,0:1|0:0,0:0:0:0:
118,370,56448,2,0,P|101:312|109:266,1,85
102,158,56781,6,0,L|198:188,1,85,2|0,0:0|0:0,0:0:0:0:
183,183,57031,1,0,0:0:0:0:
183,183,57114,1,0,0:0:0:0:
295,295,57281,2,0,L|363:287,1,42.5
420,287,57448,5,2,1:2:0:0:
230,350,57614,1,0,0:0:0:0:
362,207,57781,1,0,1:0:0:0:
194,136,57948,1,0,1:0:0:0:
461,56,58114,6,0,P|453:126|446:229,1,170,4|0,0:0|0:0,0:0:0:0:
362,134,58614,1,0,0:0:0:0:
304,211,58781,2,0,B|293:233|297:268|297:268|237:255|174:270,1,170,8|0,0:1|0:0,0:0:0:0:
25,292,59281,1,0,0:0:0:0:
138,346,59448,6,0,L|160:222,1,85,0|0,1:0|0:0,0:0:0:0:
152,262,59698,1,0,0:0:0:0:
152,262,59781,1,0,0:0:0:0:
169,165,59948,2,0,L|206:185,2,42.5,0|0|8,0:0|0:0|0:1,0:0:0:0:
64,120,60281,1,0,0:0:0:0:
220,9,60448,2,0,L|214:93,1,85
214,93,60698,1,0,0:0:0:0:
214,93,60781,5,0,0:0:0:0:
417,296,61114,2,0,L|422:211,1,85
387,126,61448,2,0,B|337:108|276:146|210:123,1,170,8|0,0:1|0:0,0:0:0:0:
59,167,61948,1,0,0:0:0:0:
135,331,62114,6,0,P|151:282|150:241,1,85,0|0,1:0|0:0,0:0:0:0:
152,249,62364,1,0,0:0:0:0:
152,249,62447,1,0,0:0:0:0:
26,300,62614,2,0,L|22:350,2,42.5,0|0|8,0:0|0:0|0:1,0:0:0:0:
49,138,62947,5,0,0:0:0:0:
49,138,63030,1,0,0:0:0:0:
49,138,63114,2,0,L|97:148,1,42.5
186,167,63280,2,0,L|228:158,1,42.5
317,213,63447,6,0,P|355:138|336:42,1,170,4|8,0:0|1:2,0:0:0:0:
484,183,63947,1,0,0:0:0:0:
409,246,64114,2,0,P|393:316|391:349,1,85,0|0,0:0|1:0,0:0:0:0:
512,90,64448,2,0,L|416:99,1,85,8|0,1:2|0:0,0:0:0:0:
257,90,64780,5,0,1:0:0:0:
339,161,64947,1,0,0:0:0:0:
339,161,65030,1,0,0:0:0:0:
339,161,65114,1,8,1:2:0:0:
232,226,65281,2,0,P|163:218|124:110,1,170,0|0,0:0|1:0,0:0:0:0:
30,231,65781,2,0,P|35:286|31:326,1,85,8|0,1:2|0:0,0:0:0:0:
23,346,66031,1,0,0:0:0:0:
23,346,66114,6,0,L|215:340,1,170,0|8,1:0|1:2,0:0:0:0:
216,145,66614,2,0,P|216:187|231:226,1,85,0|0,0:0|0:0,0:0:0:0:
318,284,66948,1,0,1:0:0:0:
412,123,67114,2,0,P|412:81|397:42,1,85,8|0,1:2|0:0,0:0:0:0:
374,222,67448,6,0,L|457:206,1,85,0|0,1:0|0:0,0:0:0:0:
250,346,67781,1,8,1:2:0:0:
302,176,67948,1,0,0:0:0:0:
433,311,68114,5,8,1:2:0:0:
235,251,68280,1,0,0:0:0:0:
320,86,68448,2,0,L|382:79,1,42.5,0|0,1:0|1:0,0:0:0:0:
484,226,68614,2,0,L|432:234,1,42.5,0|0,1:0|1:0,0:0:0:0:
220,266,68781,6,0,B|289:189|289:189|324:197|371:186,1,170,4|0,1:2|0:0,0:0:0:0:
419,49,69281,2,0,B|408:151|408:151|375:165|343:202,1,170,0|0,1:0|0:0,0:0:0:0:
386,343,69781,2,0,B|334:253|334:253|352:222|356:174,1,170,0|0,1:0|0:0,0:0:0:0:
239,85,70281,2,0,B|333:126|333:126|336:162|361:203,1,170,4|0,1:2|0:0,0:0:0:0:
510,208,70781,2,0,B|408:229|408:229|385:202|340:183,1,170,4|0,1:2|0:0,0:0:0:0:
387,344,71281,1,0,0:0:0:0:
225,364,71448,6,0,P|217:308|230:274,1,85,4|2,0:0|0:0,0:0:0:0:
285,67,71781,2,0,P|293:123|280:157,1,85,8|2,0:0|0:0,0:0:0:0:
154,206,72114,2,0,P|112:200|71:192,1,85,8|2,0:1|0:0,0:0:0:0:
357,219,72448,2,0,P|399:224|440:232,1,85,8|2,0:0|0:0,0:0:0:0:
189,127,72781,5,8,0:1:0:0:
301,299,72948,1,2,0:0:0:0:
111,310,73114,1,8,0:0:0:0:
290,183,73281,5,2,0:0:0:0:
290,183,73364,1,0,0:0:0:0:
290,183,73448,1,8,0:1:0:0:
198,365,73614,1,2,0:0:0:0:
198,365,73697,1,0,0:0:0:0:
198,365,73781,1,8,0:0:0:0:
103,198,73948,1,2,0:0:0:0:
301,299,74114,6,0,P|350:312|390:307,1,85,8|2,0:1|0:0,0:0:0:0:
190,248,74448,2,0,L|195:348,1,85,8|2,0:0|0:0,0:0:0:0:
323,154,74781,2,0,P|274:141|234:146,1,85,8|2,0:1|0:0,0:0:0:0:
204,158,75031,1,0,0:0:0:0:
204,158,75115,2,0,L|199:58,1,85,8|2,0:0|0:0,0:0:0:0:
415,34,75448,5,8,0:1:0:0:
475,143,75614,1,2,0:0:0:0:
475,143,75698,1,0,0:0:0:0:
475,143,75781,1,8,0:0:0:0:
324,154,75948,2,0,L|311:258,1,85,2|8,0:0|0:1,0:0:0:0:
166,343,76281,2,0,L|161:238,1,85,2|8,0:0|0:0,0:0:0:0:
27,182,76614,1,2,0:0:0:0:
27,182,76698,1,0,0:0:0:0:
27,182,76781,6,0,P|19:235|27:271,1,85,8|2,0:1|0:0,0:0:0:0:
314,209,77114,2,0,P|322:156|314:120,1,85,8|2,0:0|0:0,0:0:0:0:
134,273,77448,2,0,L|218:262,1,85,8|2,0:1|0:0,0:0:0:0:
208,92,77781,2,0,L|124:103,1,85,8|2,0:0|0:0,0:0:0:0:
218,262,78114,5,8,0:1:0:0:
295,126,78281,1,2,0:0:0:0:
324,131,78364,1,0,0:0:0:0:
353,138,78448,1,8,0:0:0:0:
454,313,78614,1,2,0:0:0:0:
445,196,78781,1,8,0:1:0:0:
227,159,78948,5,2,0:0:0:0:
365,254,79115,1,8,0:0:0:0:
210,337,79281,1,2,0:0:0:0:
356,373,79448,6,0,L|360:274,1,85,8|2,0:1|0:0,0:0:0:0:
359,288,79698,1,0,0:0:0:0:
359,288,79781,1,8,0:0:0:0:
173,103,79948,1,2,0:1:0:0:
274,126,80114,1,8,0:1:0:0:
155,299,80281,1,2,0:0:0:0:
155,299,80364,1,0,0:0:0:0:
155,299,80448,1,8,0:0:0:0:
132,189,80614,1,2,0:0:0:0:
24,217,80781,6,0,P|18:150|20:111,1,85,8|2,0:1|0:0,0:0:0:0:
18,132,81031,1,0,0:0:0:0:
18,132,81114,1,8,0:0:0:0:
132,189,81281,1,2,0:0:0:0:
232,83,81448,1,8,0:1:0:0:
379,109,81614,5,2,0:0:0:0:
400,129,81698,1,0,0:0:0:0:
410,156,81781,1,8,0:0:0:0:
416,184,81864,1,8,0:0:0:0:
411,213,81948,1,8,0:0:0:0:
401,240,82031,1,8,0:0:0:0:
380,261,82114,6,0,L|265:270,1,85,4|2,0:0|0:0,0:0:0:0:
407,371,82448,2,0,L|491:364,1,85,8|2,0:0|0:0,0:0:0:0:
205,306,82781,2,0,P|199:264|211:224,1,85,8|2,0:1|0:0,0:0:0:0:
489,151,83114,2,0,P|495:193|484:234,1,85,8|2,0:0|0:0,0:0:0:0:
360,140,83448,5,8,0:1:0:0:
305,327,83614,1,2,0:0:0:0:
305,327,83698,1,0,0:0:0:0:
305,327,83781,1,8,0:0:0:0:
293,224,83948,1,2,0:0:0:0:
429,341,84114,5,8,0:1:0:0:
464,142,84281,1,2,0:0:0:0:
464,142,84364,1,0,0:0:0:0:
464,142,84448,1,8,0:0:0:0:
478,253,84614,1,2,0:0:0:0:
293,224,84781,6,0,P|216:218|139:286,1,170,8|8,0:1|0:0,0:0:0:0:
52,342,85281,1,2,0:0:0:0:
52,342,85364,1,0,0:0:0:0:
52,342,85448,2,0,P|36:292|40:254,1,85,8|2,0:1|0:0,0:0:0:0:
176,120,85781,1,8,0:0:0:0:
36,107,85948,1,2,0:0:0:0:
36,107,86031,1,0,0:0:0:0:
36,107,86114,6,0,P|56:198|133:178,1,170,8|8,0:1|0:0,0:0:0:0:
257,128,86614,1,2,0:0:0:0:
208,294,86781,1,8,0:1:0:0:
368,333,86948,1,10,0:0:0:0:
397,328,87031,1,8,0:0:0:0:
424,317,87114,1,8,0:0:0:0:
443,294,87198,1,8,0:0:0:0:
452,265,87281,1,10,0:0:0:0:
375,93,87448,6,0,L|365:217,1,85,4|0,0:0|0:0,0:0:0:0:
208,293,87781,2,0,L|214:208,1,85,8|0,0:1|0:0,0:0:0:0:
304,256,88114,2,0,L|294:380,1,85
119,244,88447,2,0,L|124:162,1,42.5,8|0,0:1|0:0,0:0:0:0:
50,103,88614,2,0,L|95:113,1,42.5,0|0,0:0|0:0,0:0:0:0:
144,32,88781,6,0,L|241:49,1,85
352,48,89114,2,0,L|450:38,1,85,8|0,0:1|0:0,0:0:0:0:
436,212,89448,2,0,L|351:220,1,85
338,140,89781,2,0,L|402:132,1,42.5,8|0,0:1|0:0,0:0:0:0:
261,287,89948,2,0,L|258:245,1,42.5
183,173,90114,6,0,P|159:131|169:82,1,85,4|0,0:0|0:0,0:0:0:0:
121,280,90448,2,0,P|130:342|120:365,1,85,8|0,0:1|0:0,0:0:0:0:
55,184,90781,1,0,0:0:0:0:
254,265,90948,1,0,0:0:0:0:
121,280,91114,1,8,0:1:0:0:
0,297,91281,1,0,0:0:0:0:
0,297,91364,1,0,0:0:0:0:
0,297,91448,6,0,L|8:240,3,42.5,0|0|0|0,0:0|0:0|0:0|0:0,0:0:0:0:
121,282,91781,2,0,L|128:324,3,42.5,8|0|0|0,0:1|0:0|0:0|0:0,0:0:0:0:
216,204,92114,2,0,L|213:145,3,42.5,0|0|0|0,0:0|0:0|0:0|0:0,0:0:0:0:
299,326,92448,2,0,L|287:378,3,42.5,8|0|0|0,0:1|0:0|0:0|0:0,0:0:0:0:
215,204,92781,6,0,L|130:207,1,85,4|0,0:1|1:1,0:0:0:0:
61,41,93114,1,8,1:1:0:0:
1,137,93281,2,0,P|125:122|185:118,1,170,0|0,1:0|1:0,0:0:0:0:
264,217,93781,1,8,1:1:0:0:
323,137,93948,1,0,1:0:0:0:
390,338,94114,6,0,P|405:260|407:236,1,85,4|0,0:0|1:0,0:0:0:0:
106,254,94448,2,0,P|112:296|122:338,1,85,8|0,1:1|1:0,0:0:0:0:
312,180,94781,1,0,1:0:0:0:
198,180,94948,1,0,1:0:0:0:
198,346,95114,1,8,1:1:0:0:
312,346,95281,1,0,1:0:0:0:
106,255,95448,6,0,L|10:276,1,85,4|0,0:0|1:1,0:0:0:0:
406,255,95781,2,0,L|502:276,1,85,8|0,1:0|1:0,0:0:0:0:
69,49,96114,2,0,P|64:91|65:134,1,85,0|0,1:0|1:0,0:0:0:0:
443,49,96448,2,0,P|448:91|447:134,1,85,8|4,1:0|1:2,0:0:0:0:
211,25,96781,5,4,0:0:0:0:
232,295,96948,1,0,1:0:0:0:
234,328,97031,1,0,1:0:0:0:
235,362,97114,1,8,0:0:0:0:
184,152,98114,5,4,0:0:0:0:
184,152,98448,2,0,L|284:140,1,95.6250036478044,8|0,0:0|0:0,0:0:0:0:
278,140,98781,1,0,0:0:0:0:
176,240,98948,1,0,1:0:0:0:
176,240,99114,2,0,L|244:232,1,63.7500024318696,8|0,0:0|0:0,0:0:0:0:
104,200,99448,6,0,L|80:304,1,95.6250036478044,0|0,1:0|0:0,0:0:0:0:
82,293,99781,1,8,0:0:0:0:
196,375,99948,2,0,L|196:312,1,63.7500024318696,0|0,0:0|0:0,0:0:0:0:
289,262,100281,2,0,L|289:325,1,63.7500024318696,0|8,1:1|0:0,0:0:0:0:
398,271,100614,1,0,0:0:0:0:
440,168,100781,6,0,L|312:184,1,127.500004863739,0|8,1:0|0:0,0:0:0:0:
224,220,101281,2,0,P|180:136|192:84,1,127.500004863739,0|0,0:0|1:0,0:0:0:0:
96,172,101781,2,0,P|92:208|88:252,1,63.7500024318696,8|0,0:0|0:0,0:0:0:0:
20,264,102114,6,0,P|92:280|128:336,1,127.500004863739,0|8,1:0|0:0,0:0:0:0:
196,276,102614,2,0,L|352:264,1,127.500004863739,0|0,0:0|1:0,0:0:0:0:
432,264,103114,1,8,0:0:0:0:
291,365,103281,1,0,0:0:0:0:
291,365,103364,1,0,0:0:0:0:
291,365,103448,6,0,L|280:302,1,63.7500024318696,4|0,0:0|0:0,0:0:0:0:
207,262,103781,1,8,0:0:0:0:
135,304,103948,1,0,0:0:0:0:
87,236,104114,1,0,0:0:0:0:
161,199,104281,1,0,1:0:0:0:
87,149,104448,2,0,L|47:147,2,31.8750012159348,8|0|0,0:0|0:0|0:0,0:0:0:0:
127,49,104781,6,0,L|35:61,1,63.7500024318696,0|0,1:0|0:0,0:0:0:0:
233,50,105114,1,8,0:0:0:0:
197,124,105281,1,0,0:0:0:0:
279,118,105448,1,0,0:0:0:0:
268,199,105614,1,0,1:0:0:0:
347,175,105781,1,8,0:0:0:0:
364,212,105864,1,0,0:0:0:0:
382,249,105948,1,0,0:0:0:0:
444,176,106114,6,0,L|445:92,1,63.7500024318696,0|0,1:0|0:0,0:0:0:0:
468,24,106448,1,8,0:0:0:0:
468,24,106614,2,0,L|339:45,1,127.500004863739,0|0,0:0|1:0,0:0:0:0:
248,108,107114,2,0,L|252:38,1,63.7500024318696,8|0,0:0|0:0,0:0:0:0:
277,194,107448,6,0,L|148:215,1,127.500004863739,0|8,1:0|0:0,0:0:0:0:
54,101,107948,1,0,0:0:0:0:
22,208,108114,1,8,0:0:0:0:
171,104,108281,1,0,1:0:0:0:
113,280,108448,1,8,0:0:0:0:
193,209,108614,1,0,0:0:0:0:
216,324,108781,6,0,P|304:324|342:312,1,102,4|0,0:0|0:0,0:0:0:0:
341,301,109114,2,0,L|337:381,1,68,8|0,0:0|0:0,0:0:0:0:
337,367,109614,1,0,1:0:0:0:
440,299,109781,2,0,L|443:228,1,68,8|0,0:0|0:0,0:0:0:0:
444,91,110114,6,0,P|380:59|310:85,1,136,0|8,1:0|0:0,0:0:0:0:
288,192,110614,1,0,0:0:0:0:
288,192,110948,1,0,1:0:0:0:
196,212,111114,2,0,L|120:220,1,68,8|0,0:0|0:0,0:0:0:0:
29,138,111448,6,0,L|178:120,1,136,0|8,1:0|0:0,0:0:0:0:
276,88,111948,1,0,0:0:0:0:
358,152,112114,1,0,0:0:0:0:
276,88,112281,2,0,L|281:16,1,68,0|8,1:0|0:0,0:0:0:0:
441,110,112614,1,0,0:0:0:0:
417,251,112781,6,0,P|341:265|288:240,1,136,0|8,1:0|0:0,0:0:0:0:
219,162,113281,1,0,0:0:0:0:
184,296,113448,2,0,L|188:259,2,34,0|0|0,0:0|0:0|1:0,0:0:0:0:
88,348,113781,2,0,L|84:267,1,68,8|0,0:0|0:0,0:0:0:0:
134,67,114114,6,0,L|138:150,1,76.4999976654053,4|0,0:0|0:0,0:0:0:0:
40,176,114448,1,8,0:0:0:0:
40,176,114531,1,0,0:0:0:0:
40,176,114614,1,0,0:0:0:0:
324,108,114948,1,0,1:0:0:0:
324,107,115114,2,0,L|311:224,1,114.749996498108,8|0,0:0|0:0,0:0:0:0:
298,246,115448,6,0,L|454:213,1,152.999995330811,0|8,1:0|0:0,0:0:0:0:
382,334,115948,1,0,0:0:0:0:
365,134,116281,2,0,L|442:119,1,76.4999976654053,0|8,1:0|0:0,0:0:0:0:
304,212,116614,1,0,0:0:0:0:
304,212,116698,1,0,0:0:0:0:
304,212,116781,6,0,P|321:153|276:63,1,152.999995330811,0|8,1:0|0:0,0:0:0:0:
184,84,117281,1,0,0:0:0:0:
96,136,117448,1,0,0:0:0:0:
92,154,117531,1,0,0:0:0:0:
88,172,117614,1,0,1:0:0:0:
84,190,117698,1,0,0:0:0:0:
79,208,117781,1,8,0:0:0:0:
52,328,117948,1,0,0:0:0:0:
152,296,118114,6,0,L|176:208,1,76.4999976654053,0|0,1:0|0:0,0:0:0:0:
238,72,118448,2,0,L|244:129,2,38.2499988327027,8|0|0,0:0|0:0|0:0,0:0:0:0:
397,110,118781,5,8,1:2:0:0:
302,264,118948,1,0,0:0:0:0:
163,168,119114,2,0,L|166:125,1,38.2499988327027,8|0,1:2|0:0,0:0:0:0:
222,324,119281,2,0,L|219:363,1,38.2499988327027
355,177,119448,5,4,0:3:0:0:
348,136,128781,6,0,L|440:121,1,93.5000028533936,4|0,0:0|0:0,0:0:0:0:
164,136,129114,2,0,L|71:121,1,93.5000028533936,4|0,0:0|0:0,0:0:0:0:
214,275,129448,5,8,0:0:0:0:
288,74,129614,1,8,0:1:0:0:
466,170,129781,1,8,0:0:0:0:
404,84,129948,1,0,0:0:0:0:
383,246,130114,6,0,P|381:288|376:346,1,93.5000028533936,4|0,0:0|0:0,0:0:0:0:
302,174,130447,1,8,0:0:0:0:
222,223,130614,2,0,P|140:202|42:248,1,187.000005706787,8|8,0:1|0:1,0:0:0:0:
23,89,131114,2,0,P|120:88|135:85,1,93.5000028533936,8|0,0:0|0:0,0:0:0:0:
305,64,131447,5,8,0:1:0:0:
217,137,131614,1,8,0:1:0:0:
298,268,131781,2,0,P|305:312|295:358,1,93.5000028533936,8|0,0:0|0:0,0:0:0:0:
295,358,132031,1,0,0:0:0:0:
295,358,132114,5,0,0:0:0:0:
427,272,132281,1,8,0:1:0:0:
204,317,132447,1,8,0:0:0:0:
308,160,132614,1,0,0:0:0:0:
120,178,132781,6,0,P|91:258|105:363,1,187.000005706787,8|8,0:1|0:0,0:0:0:0:
239,230,133281,2,0,P|187:284|271:302,1,187.000005706787,8|8,0:1|0:1,0:0:0:0:
470,358,133781,1,8,0:0:0:0:
392,280,133947,1,0,0:0:0:0:
383,116,134114,6,0,P|452:129|490:132,1,93.5000028533936,8|0,0:1|0:0,0:0:0:0:
475,131,134364,1,0,0:0:0:0:
475,131,134447,1,8,0:0:0:0:
305,181,134614,1,0,0:0:0:0:
244,84,134781,5,0,0:0:0:0:
206,67,134864,1,0,0:0:0:0:
164,63,134947,1,8,0:1:0:0:
127,84,135031,1,0,0:0:0:0:
103,118,135114,1,8,0:0:0:0:
66,270,135281,2,0,L|112:258,1,46.7500014266968,0|0,0:0|0:0,0:0:0:0:
194,234,135448,6,0,B|250:220|294:236|294:236|325:267,1,140.25000428009,8|0,0:1|0:0,0:0:0:0:
321,263,135781,1,8,0:0:0:0:
443,299,135947,2,0,P|392:290|283:390,1,187.000005706787,8|8,0:1|0:1,0:0:0:0:
429,187,136447,1,8,0:0:0:0:
388,377,136614,1,0,0:0:0:0:
187,365,136781,6,0,L|192:257,1,93.5000028533936,8|0,0:1|0:0,0:0:0:0:
194,235,137031,1,0,0:0:0:0:
194,235,137114,1,8,0:0:0:0:
55,166,137281,1,0,0:1:0:0:
241,124,137447,1,0,0:0:0:0:
155,49,137614,1,8,0:1:0:0:
364,48,137781,2,0,B|385:88|385:88|369:143,1,93.5000028533936,8|0,0:0|0:0,0:0:0:0:
377,263,138114,6,0,L|268:261,1,93.5000028533936,8|0,0:1|0:0,0:0:0:0:
245,264,138364,1,0,0:0:0:0:
245,264,138447,1,8,0:0:0:0:
126,324,138614,2,0,P|81:237|88:150,1,187.000005706787,8|8,0:1|0:1,0:0:0:0:
87,150,139031,1,0,0:0:0:0:
87,150,139114,1,8,0:0:0:0:
188,87,139281,1,0,0:0:0:0:
7,57,139447,5,8,0:1:0:0:
204,182,139614,1,0,0:0:0:0:
0,298,139781,1,8,0:0:0:0:
116,361,139947,5,0,0:0:0:0:
116,361,140031,1,0,0:0:0:0:
116,361,140114,2,0,L|130:264,1,93.5000028533936,8|8,0:0|0:1,0:0:0:0:
45,194,140447,2,0,L|139:178,1,93.5000028533936,8|0,0:0|0:0,0:0:0:0:
350,151,140781,6,0,P|390:204|366:327,1,170,4|0,0:0|1:0,0:0:0:0:
486,199,141281,2,0,L|305:245,1,170,4|8,0:3|0:1,0:0:0:0:
186,193,141781,2,0,P|174:275|219:345,1,170,8|8,0:0|0:1,0:0:0:0:
282,253,142281,5,0,0:0:0:0:
282,253,142364,1,0,0:0:0:0:
282,253,142448,1,8,0:0:0:0:
72,371,142614,1,0,0:0:0:0:
72,371,142698,1,0,0:0:0:0:
72,371,142781,2,0,L|95:277,1,85,0|8,0:0|0:1,0:0:0:0:
145,121,143114,1,8,0:0:0:0:
233,80,143281,1,0,0:0:0:0:
233,80,143364,1,0,0:0:0:0:
233,80,143448,6,0,P|181:102|122:20,1,170,8|8,0:1|0:0,0:0:0:0:
0,137,143948,1,0,0:0:0:0:
121,24,144114,2,0,L|31:42,1,85,0|8,0:0|0:1,0:0:0:0:
30,232,144448,1,8,0:0:0:0:
98,151,144614,1,0,0:0:0:0:
98,151,144698,1,0,0:0:0:0:
98,151,144781,6,0,P|181:167|242:248,1,170,8|8,0:1|0:0,0:0:0:0:
215,354,145281,1,0,0:0:0:0:
252,346,145364,1,0,0:0:0:0:
290,343,145448,1,0,0:0:0:0:
327,337,145531,1,0,0:0:0:0:
364,333,145614,1,8,0:1:0:0:
477,311,145781,2,0,L|470:266,1,42.5,8|0,0:0|0:0,0:0:0:0:
419,162,145948,2,0,L|400:200,1,42.5
321,264,146114,6,0,P|270:260|213:255,1,85,8|0,0:1|0:0,0:0:0:0:
280,120,146448,1,8,0:0:0:0:
144,212,146614,2,0,P|137:296|209:337,1,170,8|8,0:1|0:1,0:0:0:0:
203,109,147114,1,8,0:0:0:0:
38,194,147281,1,0,0:0:0:0:
119,22,147448,6,0,L|103:123,1,85,8|0,0:1|0:0,0:0:0:0:
105,105,147698,1,0,0:0:0:0:
105,105,147781,1,8,0:0:0:0:
279,63,147948,1,0,0:0:0:0:
152,203,148114,1,8,0:0:0:0:
196,19,148281,1,8,0:1:0:0:
356,130,148448,2,0,L|366:45,1,85,8|0,0:0|0:0,0:0:0:0:
472,147,148781,6,0,P|454:226|377:255,1,170,8|8,0:1|0:0,0:0:0:0:
252,186,149281,2,0,L|260:362,1,170,8|8,0:1|0:1,0:0:0:0:
40,147,149781,2,0,P|57:226|134:255,1,170,8|8,0:0|0:1,0:0:0:0:
201,123,150281,5,0,0:0:0:0:
201,123,150364,1,0,0:0:0:0:
201,123,150448,2,0,L|211:46,1,42.5,8|0,0:0|0:0,0:0:0:0:
306,58,150614,2,0,L|305:-2,1,42.5
332,169,150781,5,8,0:0:0:0:
332,169,150864,1,0,0:0:0:0:
332,169,150948,2,0,L|285:191,1,42.5,8|0,0:1|0:0,0:0:0:0:
202,270,151114,1,8,0:0:0:0:
202,270,151198,1,0,0:0:0:0:
202,270,151281,2,0,L|261:278,1,42.5
322,337,151448,6,0,L|414:300,1,85,4|0,0:0|0:0,0:0:0:0:
476,151,151781,1,8,0:0:0:0:
359,207,151948,2,0,L|194:274,1,170,8|8,0:1|0:1,0:0:0:0:
43,331,152448,2,0,P|34:266|36:237,1,85,8|0,0:0|0:0,0:0:0:0:
124,357,152781,5,8,0:1:0:0:
182,79,152948,1,0,0:0:0:0:
182,79,153031,1,0,0:0:0:0:
182,79,153114,1,8,0:0:0:0:
165,172,153281,1,0,0:0:0:0:
18,106,153448,1,0,0:0:0:0:
70,280,153614,2,0,L|65:191,1,85,8|8,0:1|0:0,0:0:0:0:
96,29,153948,1,0,0:0:0:0:
96,29,154031,1,0,0:0:0:0:
96,29,154114,6,0,P|180:30|265:31,1,170,8|8,0:1|0:0,0:0:0:0:
424,83,154614,1,0,0:0:0:0:
304,207,154781,2,0,P|289:167|291:125,1,85,0|8,0:0|0:1,0:0:0:0:
486,222,155114,2,0,P|451:246|410:255,1,85,8|0,0:0|0:0,0:0:0:0:
391,265,155364,1,0,0:0:0:0:
370,271,155448,6,0,L|186:277,1,170,8|8,0:1|0:0,0:0:0:0:
74,197,155948,1,0,0:0:0:0:
74,197,156031,1,0,0:0:0:0:
74,197,156114,2,0,L|84:154,1,42.5,8|0,0:0|0:0,0:0:0:0:
235,223,156281,2,0,L|242:287,1,42.5,8|0,0:1|0:0,0:0:0:0:
373,168,156448,2,0,L|363:108,1,42.5,8|0,0:0|0:0,0:0:0:0:
337,41,156614,1,0,0:0:0:0:
337,41,156698,1,0,0:0:0:0:
337,41,156781,6,0,B|390:19|432:38|432:38|454:122,1,170,4|8,0:0|1:2,0:0:0:0:
366,338,157281,2,0,L|375:154,1,170,0|0,1:0|1:0,0:0:0:0:
253,155,157781,1,8,1:2:0:0:
141,253,157948,1,0,0:0:0:0:
50,115,158114,6,0,P|46:175|51:209,1,85,0|0,1:0|0:0,0:0:0:0:
49,199,158364,1,0,0:0:0:0:
49,199,158448,1,8,1:2:0:0:
253,155,158614,1,0,0:0:0:0:
237,254,158781,1,0,0:0:0:0:
165,67,158948,1,0,1:0:0:0:
49,199,159114,2,0,L|43:283,1,85,8|0,1:2|0:0,0:0:0:0:
15,71,159448,6,0,P|98:84|183:83,1,170,0|8,1:0|1:2,0:0:0:0:
395,85,159948,2,0,P|413:43|322:30,1,170,0|0,1:0|1:0,0:0:0:0:
305,254,160448,2,0,L|305:157,1,85,8|0,1:2|0:0,0:0:0:0:
310,355,160781,5,0,1:0:0:0:
425,235,160948,1,0,0:0:0:0:
425,235,161031,1,0,0:0:0:0:
425,235,161114,1,8,1:2:0:0:
218,279,161281,1,0,0:0:0:0:
425,235,161448,2,0,L|532:210,1,85,8|0,0:0|0:0,0:0:0:0:
242,171,161781,1,8,1:2:0:0:
278,161,161864,1,0,1:0:0:0:
315,151,161948,1,8,1:2:0:0:
351,141,162031,1,0,1:0:0:0:
388,132,162114,6,0,B|416:156|439:206|439:206|412:216|393:273,1,170,4|0,1:2|0:0,0:0:0:0:
124,132,162614,2,0,B|96:156|73:206|73:206|100:216|119:273,1,170,4|0,1:2|0:0,0:0:0:0:
337,58,163114,2,0,B|295:59|295:59|258:70|211:59|211:59|157:60,1,170,0|0,1:0|0:0,0:0:0:0:
256,331,163614,2,0,L|256:141,1,170,4|0,1:2|0:0,0:0:0:0:
95,76,164114,5,4,1:2:0:0:
84,103,164198,1,0,3:3:0:0:
86,132,164281,1,0,3:3:0:0:
90,161,164364,1,0,3:3:0:0:
99,189,164448,1,0,1:0:0:0:
103,218,164531,1,0,1:0:0:0:
101,247,164614,1,0,1:0:0:0:
90,275,164698,1,0,1:0:0:0:
71,302,164781,6,0,L|186:279,1,93.5000028533936,4|2,0:0|0:0,0:0:0:0:
298,120,165114,1,8,0:0:0:0:
305,260,165281,1,2,0:0:0:0:
188,181,165448,2,0,L|188:134|188:87,1,93.5000028533936,8|2,0:1|0:0,0:0:0:0:
188,87,165698,1,0,0:0:0:0:
188,87,165781,1,8,0:0:0:0:
66,174,165948,1,2,0:0:0:0:
361,189,166114,6,0,P|391:273|319:360,1,187.000005706787,8|8,0:1|0:0,0:0:0:0:
101,360,166614,2,0,P|103:313|107:267,1,93.5000028533936,2|8,0:0|0:1,0:0:0:0:
42,144,166948,1,2,0:0:0:0:
78,153,167031,1,0,0:0:0:0:
114,159,167114,1,8,0:0:0:0:
220,54,167281,1,2,0:0:0:0:
360,190,167448,6,0,P|367:123|366:96,1,93.5000028533936,8|2,0:1|0:0,0:0:0:0:
366,96,167698,1,0,0:0:0:0:
366,96,167781,1,8,0:0:0:0:
296,295,167948,1,2,0:0:0:0:
428,292,168114,2,0,P|468:238|481:214,1,93.5000028533936,8|2,0:1|0:0,0:0:0:0:
481,215,168364,1,0,0:0:0:0:
481,215,168447,1,8,0:0:0:0:
296,295,168614,2,0,L|222:311,1,46.7500014266968,2|0,0:0|0:0,0:0:0:0:
144,366,168781,6,0,L|236:377,1,93.5000028533936,8|2,0:1|0:0,0:0:0:0:
370,195,169114,2,0,L|271:180,1,93.5000028533936,8|2,0:0|0:0,0:0:0:0:
155,109,169448,1,8,0:1:0:0:
20,266,169614,1,2,0:0:0:0:
190,203,169781,1,8,0:0:0:0:
70,80,169948,1,2,0:0:0:0:
305,13,170114,6,0,P|320:44|314:108,1,93.5000028533936,8|2,0:1|0:0,0:0:0:0:
144,200,170448,2,0,L|237:196,1,93.5000028533936,8|2,0:0|0:0,0:0:0:0:
448,236,170781,1,8,0:1:0:0:
294,367,170948,1,2,0:0:0:0:
294,367,171031,1,0,0:0:0:0:
294,367,171114,2,2,P|276:324|282:278,1,93.5000028533936,8|2,0:0|0:0,0:0:0:0:
367,186,171448,5,8,0:1:0:0:
179,343,171614,1,2,0:0:0:0:
376,307,171781,1,8,0:0:0:0:
256,155,171948,1,2,0:0:0:0:
256,155,172031,1,0,0:0:0:0:
256,155,172114,1,8,0:1:0:0:
284,278,172281,1,2,0:0:0:0:
94,264,172448,2,0,L|107:169,1,93.5000028533936,8|2,0:0|0:0,0:0:0:0:
57,73,172781,5,8,0:1:0:0:
201,224,172948,1,2,0:0:0:0:
201,224,173031,1,0,0:0:0:0:
201,224,173114,1,8,0:0:0:0:
314,115,173281,1,2,0:0:0:0:
403,246,173448,2,0,L|408:149,1,93.5000028533936,8|2,0:1|0:0,0:0:0:0:
408,154,173698,1,0,0:0:0:0:
408,154,173781,1,8,0:0:0:0:
280,342,173948,1,2,0:0:0:0:
280,342,174031,1,0,0:0:0:0:
280,342,174114,6,0,L|105:331,1,140.25000428009,8|0,0:1|0:0,0:0:0:0:
111,337,174448,2,0,L|10:364,1,93.5000028533936,8|2,0:0|0:0,0:0:0:0:
73,118,174781,2,0,L|128:198,1,93.5000028533936,8|2,0:1|0:0,0:0:0:0:
157,221,175031,1,0,0:0:0:0:
157,221,175114,2,0,L|143:273,1,46.7500014266968,8|8,0:0|0:0,0:0:0:0:
224,376,175281,2,0,L|237:322,1,46.7500014266968,8|12,0:0|0:0,0:0:0:0:
270,231,175448,6,0,P|315:226|370:221,1,93.5000028533936,0|2,0:0|0:0,0:0:0:0:
161,304,175781,1,8,0:0:0:0:
150,121,175948,1,2,0:0:0:0:
33,202,176114,2,0,P|20:260|30:294,1,93.5000028533936,8|2,0:1|0:0,0:0:0:0:
32,64,176448,1,8,0:0:0:0:
106,246,176614,1,2,0:0:0:0:
124,128,176781,6,0,P|147:56|133:11,1,93.5000028533936,8|2,0:1|0:0,0:0:0:0:
116,20,177031,1,0,0:0:0:0:
116,20,177114,2,0,L|213:14,1,93.5000028533936,8|2,0:0|0:0,0:0:0:0:
224,236,177448,1,8,0:1:0:0:
296,88,177614,1,2,0:0:0:0:
296,88,177698,1,0,0:0:0:0:
296,88,177781,1,8,0:0:0:0:
309,304,177948,1,2,0:0:0:0:
347,160,178114,6,0,L|440:195,1,93.5000028533936,8|2,0:1|0:0,0:0:0:0:
421,45,178448,1,8,0:0:0:0:
502,141,178614,1,2,0:0:0:0:
502,141,178697,1,0,0:0:0:0:
502,141,178781,2,0,P|518:191|508:242,1,93.5000028533936,8|2,0:1|0:0,0:0:0:0:
399,217,179114,1,8,0:0:0:0:
338,346,179281,1,2,0:0:0:0:
338,346,179364,1,0,0:0:0:0:
338,346,179447,6,0,B|284:337|225:350|225:350|235:271,1,187.000005706787,8|8,0:1|0:0,0:0:0:0:
100,372,179947,1,2,0:0:0:0:
168,224,180114,1,8,0:1:0:0:
79,117,180281,1,10,0:0:0:0:
88,88,180364,1,8,0:0:0:0:
107,65,180448,1,8,0:0:0:0:
134,54,180531,1,8,0:0:0:0:
163,49,180614,1,10,0:0:0:0:
316,63,180781,6,0,L|408:53,1,93.5000028533936,4|0,0:0|0:0,0:0:0:0:
278,166,181114,2,0,L|371:211,1,93.5000028533936,8|0,0:1|0:0,0:1:0:0:
184,222,181448,2,0,L|216:359,1,140.25000428009
224,376,181781,2,0,P|161:377|126:379,1,93.5000028533936,8|0,0:1|0:0,0:0:0:0:
330,293,182114,6,0,P|393:292|428:290,1,93.5000028533936
285,218,182364,1,0,0:0:0:0:
285,218,182448,2,0,P|246:269|227:298,1,93.5000028533936,8|0,0:1|0:0,0:0:0:0:
369,215,182698,1,0,0:0:0:0:
369,215,182782,2,0,P|344:155|329:124,1,93.5000028533936
250,116,183031,1,0,0:0:0:0:
250,116,183114,2,0,L|194:127,1,46.7500014266968,8|0,0:1|0:0,0:0:0:0:
128,165,183281,2,0,L|79:154,1,46.7500014266968,0|0,0:1|0:0,0:0:0:0:
26,95,183448,6,0,L|10:205,1,93.5000028533936,4|0,0:0|0:0,0:0:0:0:
119,335,183781,2,0,L|130:173,1,140.25000428009,8|0,0:1|0:0,0:0:0:0:
129,165,184114,2,0,L|228:172,1,93.5000028533936
344,134,184448,2,0,L|461:140,1,93.5000028533936,8|0,0:1|0:0,0:0:0:0:
437,138,184698,1,0,0:0:0:0:
437,138,184781,5,0,0:0:0:0:
511,252,184948,1,0,0:0:0:0:
511,252,185031,1,0,0:0:0:0:
511,252,185114,2,0,L|423:262,1,46.7500014266968,8|0,0:1|0:0,0:0:0:0:
402,318,185281,2,0,L|337:306,1,46.7500014266968
299,238,185448,6,0,L|235:248,1,46.7500014266968
216,317,185614,2,0,L|166:305,1,46.7500014266968,0|0,0:0|0:0,0:0:0:0:
36,368,185781,6,0,L|80:354,1,46.7500014266968,8|0,0:1|0:0,0:0:0:0:
73,226,185947,2,0,L|100:288,1,46.7500014266968,0|0,0:0|0:0,0:0:0:0:
21,153,186114,6,0,L|119:140,1,93.5000028533936,4|0,1:0|1:0,0:0:0:0:
184,61,186448,1,8,1:0:0:0:
290,99,186614,2,0,P|272:189|261:315,1,187.000005706787,0|0,1:0|1:0,0:0:0:0:
446,333,187114,1,8,1:0:0:0:
377,217,187281,1,0,1:0:0:0:
476,106,187448,6,0,P|426:105|358:113,1,93.5000028533936,0|0,1:0|1:0,0:0:0:0:
119,308,187781,2,0,P|169:309|237:301,1,93.5000028533936,8|0,1:0|1:0,0:0:0:0:
110,109,188114,6,0,P|157:105|204:108,1,93.5000028533936,0|0,1:0|1:0,0:0:0:0:
477,304,188447,2,0,P|430:308|384:307,1,93.5000028533936,8|0,1:0|1:0,0:0:0:0:
203,107,188781,5,4,0:0:0:0:
145,201,188948,1,0,1:0:0:0:
297,284,189114,1,8,1:0:0:0:
306,105,189281,1,0,1:0:0:0:
188,292,189448,5,0,1:0:0:0:
306,106,189614,1,0,1:0:0:0:
99,27,189781,1,8,1:0:0:0:
71,194,189948,1,0,1:0:0:0:
261,6,190114,5,4,1:2:0:0:
480,162,190281,1,0,1:1:0:0:
486,115,190364,1,0,1:1:0:0:
492,68,190448,1,12,0:0:0:0:
218,203,191448,5,4,0:0:0:0:
256,192,191531,12,8,193448,0:0:0:0:
322,182,194114,6,0,L|175:204,1,127.500004863739,8|0,0:1|0:0,0:0:0:0:
115,278,194614,2,0,L|171:283,2,31.8750012159348,0|0|8,0:0|0:0|0:0,0:0:0:0:
57,128,194948,1,0,0:0:0:0:
57,128,195114,2,0,L|138:136,1,63.7500024318696
155,138,195364,1,0,0:0:0:0:
155,138,195448,5,0,0:0:0:0:
212,61,195614,2,0,L|349:72,1,127.500004863739,0|0,0:1|0:0,0:0:0:0:
368,77,196031,1,0,0:0:0:0:
368,77,196114,2,0,L|365:125,3,31.8750012159348,8|0|0|0,0:0|0:0|0:0|0:0,0:0:0:0:
453,109,196448,2,0,L|450:157,2,31.8750012159348,0|0|0,0:0|0:0|0:0,0:0:0:0:
318,208,196781,6,0,L|327:351,1,127.500004863739,8|0,0:1|0:0,0:0:0:0:
408,258,197281,1,0,0:0:0:0:
228,353,197448,1,8,0:0:0:0:
228,353,197781,1,0,0:0:0:0:
241,252,197948,1,0,0:0:0:0:
241,252,198031,1,0,0:0:0:0:
241,252,198114,5,0,0:0:0:0:
264,85,198281,2,0,L|254:161,1,63.7500024318696,0|8,0:0|0:1,0:0:0:0:
161,53,198614,1,0,0:0:0:0:
154,169,198781,2,0,L|36:173,1,95.6250036478044,8|0,0:0|0:0,0:0:0:0:
30,165,199114,2,0,L|37:134,2,31.8750012159348,0|0|0,0:0|0:0|0:0,0:0:0:0:
5,271,199448,6,0,L|70:267,1,63.7500024318696,8|0,0:1|0:0,0:0:0:0:
282,160,199781,2,0,L|152:169,1,127.500004863739,0|8,0:0|0:0,0:0:0:0:
136,352,200448,2,0,L|144:312,3,31.8750012159348,0|0|0|0,0:0|0:0|0:0|0:0,0:0:0:0:
186,250,200781,5,0,0:0:0:0:
299,284,200948,2,0,L|436:286,1,127.500004863739
470,156,201448,1,8,0:0:0:0:
407,84,201614,2,0,L|407:25,2,31.8750012159348,0|0|0,0:0|0:0|0:0,0:0:0:0:
436,270,201948,2,0,L|437:238,1,31.8750012159348
471,156,202114,6,0,L|341:167,1,127.500004863739,4|8,0:0|0:0,0:0:0:0:
124,172,203114,1,8,0:0:0:0:
296,239,203781,5,8,0:0:0:0:
60,307,204448,1,8,0:0:0:0:
262,119,205114,5,8,0:0:0:0:
156,365,205781,1,8,0:0:0:0:
58,85,206448,5,8,0:0:0:0:
211,180,207114,2,0,L|286:170,1,63.7500024318696,8|0,0:0|0:0,0:0:0:0:
281,261,207448,6,0,L|407:245,1,127.500004863739,0|8,0:0|0:0,0:0:0:0:
200,354,208448,1,8,0:0:0:0:
408,334,209114,5,8,0:0:0:0:
431,126,209781,2,0,L|357:117,1,63.7500024318696,8|0,0:0|0:0,0:0:0:0:
292,70,210114,6,0,L|166:87,1,127.500004863739,0|8,0:0|0:0,0:0:0:0:
64,263,211114,1,8,0:0:0:0:
381,138,211781,5,8,0:0:0:0:
178,324,212448,2,0,L|246:312,1,63.7500024318696,8|0,0:0|0:0,0:0:0:0:
161,234,212781,6,0,P|102:263|92:341,1,127.500004863739,0|8,0:0|0:0,0:0:0:0:
276,194,213448,2,0,L|281:131,1,63.7500024318696
171,76,213781,2,0,L|175:139,1,63.7500024318696,8|0,0:0|0:0,0:0:0:0:
268,37,214114,6,0,P|344:35|394:73,1,127.500004863739,0|8,0:0|0:0,0:0:0:0:
412,240,214781,2,0,L|426:166,2,63.7500024318696,0|0|8,0:0|0:0|0:0,0:0:0:0:
504,168,215281,1,0,0:0:0:0:
329,198,215448,6,0,L|252:217,1,63.7500024318696
209,139,215781,2,0,L|270:123,1,63.7500024318696,8|0,0:0|0:0,0:0:0:0:
411,233,216114,2,0,L|406:310,1,63.7500024318696,8|0,0:0|0:0,0:0:0:0:
300,352,216447,2,0,L|288:280,1,63.7500024318696,0|0,0:0|0:0,0:0:0:0:
396,128,216781,2,0,L|457:112,1,63.7500024318696,0|0,0:0|0:0,0:0:0:0:
284,76,217114,2,0,L|196:56,1,63.7500024318696,8|0,0:0|0:0,0:0:0:0:
96,29,217448,5,0,0:0:0:0:
96,29,217614,1,0,0:0:0:0:
22,184,217781,1,8,0:0:0:0:
22,184,217948,2,0,L|67:209,1,31.8750012159348,0|0,0:0|0:0,0:0:0:0:
130,245,218114,6,0,L|216:228,1,59.4999981842042,4|8,0:0|0:0,0:0:0:0:
310,277,218448,2,0,L|376:292,1,59.4999981842042,8|8,0:0|0:0,0:0:0:0:
124,337,218781,2,0,L|208:320,1,59.4999981842042,8|8,0:0|0:0,0:0:0:0:
360,200,219115,2,0,L|429:215,1,59.4999981842042,8|8,0:0|0:0,0:0:0:0:
141,148,219448,6,0,L|228:132,1,68,8|8,0:0|0:0,0:0:0:0:
309,277,219782,2,0,L|345:285,2,34,8|0|8,0:0|0:0|0:0,0:0:0:0:
151,46,220114,5,0,1:1:0:0:
141,148,220281,1,0,1:0:0:0:
341,87,220448,1,0,1:0:0:0:
278,0,220614,1,0,1:0:0:0:
141,148,220781,5,0,1:0:0:0:
225,223,220948,1,0,1:0:0:0:
278,0,221114,1,0,1:0:0:0:
248,108,221281,1,0,1:0:0:0:
488,208,221448,5,0,1:0:0:0:
460,100,221614,1,0,1:0:0:0:
328,304,221781,2,0,L|408:288,1,76.4999976654053,0|0,1:0|1:0,0:0:0:0:
440,280,222031,1,0,1:0:0:0:
440,280,222114,5,0,1:0:0:0:
164,336,222281,1,8,0:1:0:0:
164,336,222364,1,8,0:1:0:0:
164,336,222448,1,0,1:0:0:0:
0,209,222614,1,0,1:0:0:0:
295,163,222781,1,8,0:1:0:0:
295,163,222864,1,8,0:1:0:0:
295,163,222948,1,0,1:0:0:0:
130,36,223114,1,0,1:0:0:0:
130,36,223448,6,0,L|117:171,1,127.500004863739,4|0,0:1|0:0,0:0:0:0:
211,40,223948,1,0,0:0:0:0:
221,124,224114,2,0,B|261:129|261:129|316:122,1,95.6250036478044,8|0,0:0|0:0,0:0:0:0:
324,148,224448,2,0,L|395:133,1,63.7500024318696
481,163,224781,6,0,L|487:131,3,31.8750012159348,0|0|0|0,0:0|0:0|0:0|0:0,0:0:0:0:
490,99,225114,2,0,L|482:35,1,63.7500024318696,8|0,0:1|0:0,0:0:0:0:
462,259,225448,1,8,0:0:0:0:
462,259,225781,1,0,0:0:0:0:
373,165,225948,1,0,0:0:0:0:
224,208,226114,6,0,P|212:264|204:316,1,95.6250036478044,8|0,0:1|0:0,0:0:0:0:
218,319,226448,2,0,L|282:315,1,63.7500024318696
133,239,226781,2,0,L|102:239,3,31.8750012159348,8|0|0|0,0:0|0:0|0:0|0:0,0:0:0:0:
123,324,227114,2,0,L|28:333,1,95.6250036478044
7,314,227448,6,0,L|17:239,1,63.7500024318696
207,89,227781,1,8,0:1:0:0:
203,121,227864,1,0,0:0:0:0:
198,153,227948,1,0,0:0:0:0:
196,185,228031,1,0,0:0:0:0:
193,215,228114,2,0,L|129:219,1,63.7500024318696,8|0,0:0|0:0,0:0:0:0:
275,289,228448,2,0,L|270:352,1,63.7500024318696
270,353,228698,1,0,0:0:0:0:
270,353,228781,5,12,0:1:0:0:
275,58,229114,2,0,L|270:121,1,63.7500024318696
232,211,229448,2,0,B|261:197|326:225|359:209,1,127.500004863739,8|0,0:0|0:0,0:0:0:0:
433,152,229948,1,0,0:0:0:0:
493,323,230114,6,0,L|490:280,3,31.8750012159348,0|0|0|0,0:0|0:0|0:0|0:0,0:0:0:0:
488,256,230448,2,0,P|454:262|410:276,1,63.7500024318696,8|0,0:1|0:0,0:0:0:0:
258,289,230781,2,0,P|287:301|319:307,1,63.7500024318696,8|0,0:0|0:0,0:0:0:0:
86,302,231114,2,0,P|114:289|146:284,1,63.7500024318696
42,205,231448,6,0,P|35:146|38:95,2,95.6250036478044,8|0|0,0:1|0:0|0:0,0:0:0:0:
188,62,232114,2,0,L|153:57,3,31.8750012159348,8|0|0|0,0:0|0:0|0:0|0:0,0:0:0:0:
118,52,232448,2,0,L|118:130,1,63.7500024318696
129,220,232781,6,0,L|66:223,1,63.7500024318696,0|0,0:0|0:0,0:0:0:0:
230,255,233114,1,8,0:1:0:0:
260,264,233198,1,0,0:0:0:0:
290,273,233281,1,0,0:0:0:0:
320,281,233364,1,0,0:0:0:0:
350,291,233448,6,0,L|357:338,1,31.8750012159348,8|0,0:0|0:0,0:0:0:0:
447,239,233614,2,0,L|443:203,1,31.8750012159348,8|0,0:0|0:0,0:0:0:0:
339,99,233781,2,0,L|372:113,1,31.8750012159348,8|0,0:0|0:0,0:0:0:0:
512,68,233948,2,0,L|482:89,1,31.8750012159348,8|0,0:0|0:0,0:0:0:0:
338,100,234114,6,0,P|255:89|194:91,1,127.500004863739,4|0,0:0|0:0,0:0:0:0:
76,210,234781,2,0,B|68:167|68:167|69:137,1,63.7500024318696,8|0,0:0|0:0,0:0:0:0:
116,67,235114,1,0,0:0:0:0:
189,125,235281,1,0,0:0:0:0:
166,216,235448,6,0,L|164:247,3,31.8750012159348,0|0|0|0,0:0|0:0|0:0|0:0,0:0:0:0:
154,277,235781,2,0,L|52:291,1,95.6250036478044,8|0,0:1|0:0,0:0:0:0:
29,298,236114,2,0,L|41:366,1,63.7500024318696,8|0,0:0|0:0,0:0:0:0:
155,188,236448,2,0,L|152:119,1,63.7500024318696,0|0,0:0|0:0,0:0:0:0:
301,152,236781,6,0,L|315:45,2,95.6250036478044,8|0|0,0:1|0:0|0:0,0:0:0:0:
437,163,237448,2,0,L|453:135,3,31.8750012159348,8|0|0|0,0:0|0:0|0:0|0:0,0:0:0:0:
457,107,237781,6,0,L|442:12,2,95.6250036478044,0|0|0,0:0|0:0|0:0,0:0:0:0:
371,234,238448,2,0,L|339:238,1,31.8750012159348,8|0,0:1|0:0,0:0:0:0:
226,195,238614,2,0,L|180:193,1,31.8750012159348
69,224,238781,5,8,0:0:0:0:
219,85,238948,1,0,0:0:0:0:
116,52,239114,1,0,0:0:0:0:
214,169,239281,1,0,0:0:0:0:
49,132,239448,6,0,L|37:260,2,127.500004863739,12|0|8,0:1|0:0|0:0,0:0:0:0:
308,92,240448,2,0,P|330:132|308:220,1,127.500004863739
294,290,240864,6,0,L|283:334,2,31.8750012159348,0|0|0,0:0|0:0|0:0,0:0:0:0:
371,277,241114,2,0,L|467:278,1,95.6250036478044,8|0,0:1|0:0,0:0:0:0:
466,277,241448,2,0,P|477:248|477:205,1,63.7500024318696,8|0,0:0|0:0,0:0:0:0:
394,86,241781,2,0,P|383:115|383:158,1,63.7500024318696
168,131,242114,6,0,L|262:113,1,95.6250036478044,8|0,0:1|0:0,0:0:0:0:
279,108,242448,2,0,L|279:43,1,63.7500024318696
57,119,242781,1,8,0:0:0:0:
59,137,242864,1,0,0:0:0:0:
62,156,242948,1,0,0:0:0:0:
65,174,243031,1,0,0:0:0:0:
68,192,243114,2,0,L|56:259,1,63.7500024318696
158,174,243448,6,0,L|154:290,1,95.6250036478044
154,269,243781,2,0,P|176:304|211:321,1,63.7500024318696,8|0,0:1|0:0,0:0:0:0:
203,133,244114,2,0,P|169:155|153:184,1,63.7500024318696,8|8,0:0|0:0,0:0:0:0:
339,170,244448,2,0,L|308:146,1,31.8750012159348,8|0,0:0|0:0,0:0:0:0:
324,304,244614,2,0,L|350:279,1,31.8750012159348,8|0,0:0|0:0,0:0:0:0:
207,240,244781,6,0,L|291:231,1,63.7500024318696,4|0,0:0|0:0,0:0:0:0:
112,264,245114,1,0,0:0:0:0:
276,136,245448,2,0,B|134:146|134:146|87:120,1,191.250007295609,8|0,0:0|0:0,0:0:0:0:
181,40,246114,6,0,L|234:53,3,31.8750012159348,0|0|0|0,0:0|0:0|0:0|0:0,0:0:0:0:
304,27,246448,1,8,0:1:0:0:
352,119,246614,2,0,L|432:114,1,63.7500024318696,0|8,0:0|0:0,0:0:0:0:
266,291,246948,2,0,L|276:211,1,63.7500024318696,0|0,0:0|0:0,0:0:0:0:
158,204,247281,1,0,0:0:0:0:
153,335,247448,6,0,L|55:351,1,95.6250036478044,8|0,0:1|0:0,0:0:0:0:
39,355,247781,1,0,0:0:0:0:
266,355,247948,2,0,L|264:274,1,63.7500024318696,0|8,0:0|0:0,0:0:0:0:
351,285,248198,1,0,0:0:0:0:
351,285,248281,2,0,L|359:230,1,31.8750012159348
441,250,248448,2,0,L|442:170,1,63.7500024318696
317,111,248781,6,0,L|316:188,1,63.7500024318696
425,32,249114,2,0,L|392:47,3,31.8750012159348,8|0|0|0,0:1|0:0|0:0|0:0,0:0:0:0:
315,27,249448,1,8,0:0:0:0:
399,124,249614,1,0,0:0:0:0:
219,79,249781,1,0,0:0:0:0:
147,161,249948,1,0,0:0:0:0:
239,220,250114,6,0,P|240:283|234:347,1,127.500004863739,12|0,0:1|0:0,0:0:0:0:
146,161,250614,1,0,0:0:0:0:
74,347,250781,2,0,P|68:217|65:149,1,191.250007295609,8|0,0:0|0:0,0:0:0:0:
175,69,251448,6,0,L|206:73,3,31.8750012159348,0|0|0|0,0:0|0:0|0:0|0:0,0:0:0:0:
268,131,251781,1,8,0:1:0:0:
409,272,251948,2,0,L|401:196,1,63.7500024318696,0|8,0:0|0:0,0:0:0:0:
243,292,252281,2,0,L|253:376,1,63.7500024318696,0|0,0:0|0:0,0:0:0:0:
305,211,252614,1,0,0:0:0:0:
108,187,252781,6,0,L|218:169,1,95.6250036478044,8|0,0:1|0:0,0:0:0:0:
224,167,253114,1,0,0:0:0:0:
100,78,253281,1,0,0:0:0:0:
207,26,253448,2,0,L|251:33,1,31.8750012159348,8|0,0:0|0:0,0:0:0:0:
293,93,253614,2,0,L|294:140,1,31.8750012159348
369,51,253781,2,0,L|445:43,1,63.7500024318696
512,196,254114,5,0,0:0:0:0:
488,103,254281,1,0,0:0:0:0:
421,199,254448,2,0,L|430:154,3,31.8750012159348,8|0|0|0,0:1|0:0|0:0|0:0,0:0:0:0:
452,293,254781,1,8,0:0:0:0:
300,311,254948,1,8,0:3:0:0:
377,368,255114,1,8,0:1:0:0:
313,207,255281,1,4,0:3:0:0:
313,207,255364,1,4,0:3:0:0:
313,207,255448,6,0,L|183:244,1,127.500004863739,4|0,0:0|0:0,0:0:0:0:
46,291,255948,1,0,0:0:0:0:
61,157,256114,2,0,B|110:144|110:144|206:154|206:154|251:144,1,191.250007295609,8|0,0:0|0:0,0:0:0:0:
269,45,256781,5,0,0:0:0:0:
288,44,256864,1,0,0:0:0:0:
307,44,256948,1,0,0:0:0:0:
326,44,257031,1,0,0:0:0:0:
345,44,257114,1,8,0:1:0:0:
327,160,257281,2,0,L|309:221,1,63.7500024318696,0|8,0:0|0:0,0:0:0:0:
427,147,257614,2,0,L|418:64,1,63.7500024318696,0|0,0:0|0:0,0:0:0:0:
396,243,257948,1,0,0:0:0:0:
481,292,258114,6,0,P|505:253|507:175,2,95.6250036478044,8|0|0,0:1|0:0|0:0,0:0:0:0:
335,313,258781,2,0,L|304:322,1,31.8750012159348,8|0,0:0|0:0,0:0:0:0:
219,344,258948,2,0,L|174:344,1,31.8750012159348
105,311,259114,2,0,L|22:327,1,63.7500024318696
26,334,259364,1,0,0:0:0:0:
12,348,259448,6,0,L|21:261,1,63.7500024318696
94,107,259781,2,0,L|106:136,1,31.8750012159348,8|0,0:1|0:1,0:0:0:0:
156,220,259948,2,0,L|185:184,1,31.8750012159348
192,117,260114,2,0,L|276:104,1,63.7500024318696,8|0,0:0|0:0,0:0:0:0:
144,39,260448,1,0,0:0:0:0:
245,4,260614,1,4,0:0:0:0:
396,175,260781,6,0,P|404:108|396:45,1,127.500004863739,12|0,0:1|0:0,0:0:0:0:
305,59,261281,1,0,0:0:0:0:
500,102,261448,2,0,P|490:137|477:303,1,191.250007295609,8|0,0:0|0:0,0:0:0:0:
375,281,262114,6,0,L|383:312,3,31.8750012159348,0|0|0|0,0:0|0:0|0:0|0:0,0:0:0:0:
396,345,262448,2,0,L|311:338,1,63.7500024318696,8|0,0:1|0:0,0:0:0:0:
328,195,262781,1,8,0:0:0:0:
261,278,262948,2,0,L|237:341,1,63.7500024318696,0|0,0:0|0:0,0:0:0:0:
416,208,263281,1,0,0:0:0:0:
249,199,263448,6,0,P|190:174|135:182,1,95.6250036478044,8|0,0:1|0:0,0:0:0:0:
132,182,263781,1,0,0:0:0:0:
74,276,263948,1,0,0:0:0:0:
13,150,264114,2,0,L|7:199,2,31.8750012159348,8|0|0,0:0|0:0|0:0,0:0:0:0:
21,118,264364,1,0,0:0:0:0:
27,85,264448,1,0,0:0:0:0:
121,51,264614,1,0,0:0:0:0:
140,177,264781,5,0,0:0:0:0:
242,99,264948,1,0,0:0:0:0:
368,108,265114,1,8,0:1:0:0:
371,136,265198,1,0,0:0:0:0:
368,164,265281,1,0,0:0:0:0:
369,192,265364,1,0,0:0:0:0:
378,219,265448,6,0,L|372:268,1,31.8750012159348,8|0,0:0|0:0,0:0:0:0:
294,343,265614,2,0,L|284:304,1,31.8750012159348,8|0,0:3|0:0,0:0:0:0:
187,271,265781,2,0,L|178:331,1,31.8750012159348,8|0,0:3|0:0,0:0:0:0:
87,354,265948,1,4,0:3:0:0:
87,354,266031,1,0,0:0:0:0:
87,354,266114,6,0,P|80:287|74:255,2,95.6250036478044,8|0|0,0:3|0:0|0:0,0:0:0:0:
45,162,266781,1,0,0:0:0:0:
45,162,266864,2,0,P|90:178|159:191,1,95.6250036478044,0|0,0:0|0:0,0:0:0:0:
247,166,267281,2,0,L|306:157,2,31.8750012159348,0|0|0,0:0|0:0|0:0,0:0:0:0:
442,136,267614,5,2,0:0:0:0:
343,89,267781,1,0,0:0:0:0:
246,38,267948,1,2,0:0:0:0:
158,100,268114,5,0,0:0:0:0:
123,197,268281,1,2,0:0:0:0:
135,232,268364,1,2,0:0:0:0:
144,269,268448,2,0,L|137:315,1,31.8750012159348,2|0,0:0|0:0,0:0:0:0:
263,247,268614,2,0,L|255:213,1,31.8750012159348,2|0,0:0|0:0,0:0:0:0:
226,345,268781,6,0,B|270:365|308:347|308:347|357:352|357:352|383:325,1,170,4|8,0:0|0:0,0:0:0:0:
466,185,269281,1,2,0:0:0:0:
466,185,269364,1,2,0:0:0:0:
466,185,269448,2,0,B|476:227|476:227|466:269,1,85,0|0,0:0|0:0,0:0:0:0:
377,138,269781,1,8,0:0:0:0:
400,107,269864,1,0,0:0:0:0:
433,88,269948,1,0,0:0:0:0:
471,85,270031,1,0,0:0:0:0:
504,102,270114,6,0,L|508:12,1,85,2|0,0:0|0:0,0:0:0:0:
379,16,270448,1,8,0:0:0:0:
151,151,270614,2,0,B|206:170|206:170|244:131|244:131|318:113,1,170,2|0,0:0|0:0,0:0:0:0:
299,117,271031,1,0,0:0:0:0:
299,117,271114,1,8,0:0:0:0:
227,311,271281,1,2,0:0:0:0:
227,311,271364,1,2,0:0:0:0:
227,311,271448,6,0,B|164:329|164:329|129:320,1,85,0|2,0:0|0:0,0:0:0:0:
111,312,271698,1,2,0:0:0:0:
111,312,271781,1,10,0:0:0:0:
307,250,271948,1,2,0:0:0:0:
206,210,272114,1,2,0:0:0:0:
217,182,272198,1,0,0:0:0:0:
212,152,272281,1,2,0:0:0:0:
206,122,272364,1,0,0:0:0:0:
214,93,272448,2,0,B|239:82|239:82|301:87,1,85,8|2,0:0|0:0,0:0:0:0:
115,50,272781,5,0,0:0:0:0:
97,184,272948,2,0,B|72:195|72:195|10:190,1,85,2|8,0:0|0:0,0:0:0:0:
214,93,273281,2,0,B|234:133|234:133|210:271,1,170,2|2,0:0|0:0,0:0:0:0:
205,293,273698,1,2,0:0:0:0:
205,293,273781,1,8,0:0:0:0:
307,351,273948,1,2,0:0:0:0:
307,351,274031,1,2,0:0:0:0:
307,351,274114,6,0,B|337:360|337:360|399:344,1,85,2|2,0:0|0:0,0:0:0:0:
421,336,274364,1,2,0:0:0:0:
421,336,274448,1,8,0:0:0:0:
507,298,274614,1,2,0:0:0:0:
340,238,274781,5,0,0:0:0:0:
446,108,274948,1,2,0:0:0:0:
509,186,275114,1,8,0:0:0:0:
343,136,275281,6,0,L|343:38,1,85,2|0,0:0|0:0,0:0:0:0:
264,209,275614,1,2,0:0:0:0:
264,209,275698,1,0,0:0:0:0:
264,209,275781,1,8,0:0:0:0:
183,134,275948,1,2,0:0:0:0:
246,45,276114,1,0,0:0:0:0:
94,194,276281,5,2,0:0:0:0:
82,162,276364,1,0,0:0:0:0:
70,130,276448,2,0,L|99:87,1,42.5,8|0,0:0|0:0,0:0:0:0:
200,208,276614,2,0,L|224:253,1,42.5,2|0,0:0|0:0,0:0:0:0:
268,331,276781,6,0,B|265:347|265:347|211:382|161:362|161:362|116:374,1,170,2|8,0:0|0:0,0:0:0:0:
94,194,277281,1,2,0:0:0:0:
34,295,277448,2,0,L|127:272,1,85,2|2,0:0|0:0,0:0:0:0:
152,266,277698,1,2,0:0:0:0:
152,266,277781,1,8,0:0:0:0:
314,169,277948,1,2,0:0:0:0:
314,169,278031,1,2,0:0:0:0:
314,169,278114,6,0,P|379:206|460:187,1,127.5
441,195,278448,2,0,L|454:291,1,85,8|2,0:0|0:0,0:0:0:0:
315,362,278781,2,0,L|315:273,1,85,8|2,0:0|0:0,0:0:0:0:
328,59,279114,1,8,0:0:0:0:
276,69,279198,1,8,0:0:0:0:
225,82,279281,1,8,0:0:0:0:
173,93,279364,1,8,0:0:0:0:
123,106,279448,6,0,B|91:122|91:122|63:170|72:259,1,170,4|8,0:0|0:0,0:0:0:0:
268,153,279948,2,0,L|311:165,1,42.5,2|0,0:0|0:0,0:0:0:0:
276,69,280114,2,0,L|176:42,1,85,2|0,0:0|0:0,0:0:0:0:
164,39,280364,1,0,0:0:0:0:
164,39,280448,1,8,0:0:0:0:
411,11,280614,1,2,0:0:0:0:
392,49,280698,1,0,0:0:0:0:
359,76,280781,5,2,0:0:0:0:
363,105,280864,1,0,0:0:0:0:
368,134,280948,1,2,0:0:0:0:
374,162,281031,1,0,0:0:0:0:
382,190,281114,2,0,L|386:282,1,85,8|2,0:0|0:0,0:0:0:0:
461,107,281448,5,0,0:0:0:0:
268,173,281614,1,2,0:0:0:0:
237,184,281698,1,0,0:0:0:0:
205,194,281781,2,0,L|106:194,1,85,8|2,0:0|0:0,0:0:0:0:
29,117,282114,6,0,P|9:175|10:261,1,127.5
21,273,282448,2,0,L|127:264,1,85,8|2,0:0|0:0,0:0:0:0:
322,176,282781,2,0,L|237:183,1,85,0|2,0:0|0:0,0:0:0:0:
154,111,283114,1,8,0:0:0:0:
360,25,283281,1,2,0:0:0:0:
356,52,283364,1,8,0:0:0:0:
355,79,283448,6,0,L|363:173,1,85,0|2,0:0|0:0,0:0:0:0:
234,92,283781,1,8,0:0:0:0:
272,304,283948,2,0,L|279:263,2,42.5,2|2|2,0:0|0:0|0:0,0:0:0:0:
482,206,284281,5,2,0:0:0:0:
447,221,284364,1,2,0:0:0:0:
409,229,284448,2,0,L|339:212,1,42.5,10|0,0:0|0:0,0:0:0:0:
249,189,284614,1,0,0:0:0:0:
212,200,284698,1,0,0:0:0:0:
176,213,284781,6,0,L|170:315,1,85,4|2,0:0|0:0,0:0:0:0:
167,336,285031,1,0,0:0:0:0:
167,336,285114,1,8,0:0:0:0:
184,124,285281,1,2,0:0:0:0:
258,279,285448,6,0,L|321:277,2,42.5,0|0|2,0:0|0:0|0:0,0:0:0:0:
66,270,285781,1,8,0:0:0:0:
93,175,285948,1,2,0:0:0:0:
258,279,286114,5,0,0:0:0:0:
248,68,286281,1,2,0:0:0:0:
198,193,286448,1,8,0:0:0:0:
360,98,286614,1,2,0:0:0:0:
163,45,286781,6,0,L|98:30,2,42.5,0|0|2,0:0|0:0|0:0,0:0:0:0:
360,98,287114,2,0,L|354:42,1,42.5,8|0,0:0|0:0,0:0:0:0:
253,181,287281,2,0,L|262:246,1,42.5
266,63,287448,5,4,0:0:0:0:
417,305,287614,1,2,0:0:0:0:
417,305,287698,1,0,0:0:0:0:
417,305,287781,2,0,P|418:253|420:220,1,85,8|0,0:0|0:0,0:0:0:0:
440,103,288114,2,0,B|360:111|360:111|288:95,1,127.5,2|2,0:0|0:0,0:0:0:0:
268,64,288448,2,0,L|260:160,1,85,8|2,0:0|0:0,0:0:0:0:
184,344,288781,6,0,L|176:260,1,85,2|0,0:0|0:0,0:0:0:0:
168,228,289031,1,0,0:0:0:0:
140,208,289114,1,8,0:0:0:0:
132,176,289198,1,0,0:0:0:0:
140,144,289281,1,0,0:0:0:0:
160,116,289364,1,0,0:0:0:0:
192,106,289448,2,0,L|283:137,1,85,2|0,0:0|0:0,0:0:0:0:
433,169,289781,5,8,0:0:0:0:
455,204,289864,1,8,0:0:0:0:
459,246,289948,1,8,0:0:0:0:
444,285,290031,1,8,0:0:0:0:
407,306,290114,5,4,0:0:0:0:
310,205,300781,5,0,1:0:0:0:
310,205,301114,2,0,L|321:86,1,118.999996368408,8|0,0:0|0:0,0:0:0:0:
396,233,301614,1,0,1:0:0:0:
396,233,301781,2,0,L|403:146,1,59.4999981842042,8|0,0:0|0:0,0:0:0:0:
485,118,302114,5,0,1:0:0:0:
220,142,302448,2,0,L|139:131,1,59.4999981842042,8|0,0:0|0:0,0:0:0:0:
304,297,302948,2,0,L|311:229,1,59.4999981842042,0|8,1:0|0:0,0:0:0:0:
214,254,303281,1,0,0:0:0:0:
214,254,303448,6,0,L|203:375,1,118.999996368408,0|8,1:0|0:0,0:0:0:0:
130,213,303948,1,0,0:0:0:0:
85,285,304114,1,0,0:0:0:0:
130,213,304281,1,0,1:0:0:0:
46,115,304448,2,0,L|112:130,1,59.4999981842042,8|0,0:0|0:0,0:0:0:0:
196,148,304781,6,0,L|320:126,1,118.999996368408,0|8,1:0|0:0,0:0:0:0:
368,212,305281,1,0,0:0:0:0:
316,296,305448,1,8,0:0:0:0:
316,296,305531,1,0,0:0:0:0:
316,296,305614,1,0,1:0:0:0:
308,128,305781,1,8,0:0:0:0:
308,128,306114,6,0,P|324:56|296:20,1,118.999996368408,0|8,1:0|0:0,0:0:0:0:
368,212,306614,2,0,P|352:284|380:320,1,118.999996368408,0|0,0:0|1:0,0:0:0:0:
416,124,307114,1,8,0:0:0:0:
416,124,307448,6,0,L|272:120,1,118.999996368408,0|8,1:0|0:0,0:0:0:0:
192,248,307948,2,0,P|212:168|192:144,1,118.999996368408,0|0,0:0|1:0,0:0:0:0:
76,316,308448,2,0,L|80:252,1,59.4999981842042,8|0,0:0|0:0,0:0:0:0:
79,256,308698,1,0,0:0:0:0:
79,256,308781,5,0,1:0:0:0:
16,152,308948,1,0,0:0:0:0:
16,152,309031,1,0,0:0:0:0:
16,152,309114,1,8,0:0:0:0:
80,52,309281,2,0,P|148:44|204:40,1,118.999996368408,0|0,0:0|1:0,0:0:0:0:
344,104,309781,2,0,P|305:109|280:112,1,59.4999981842042,8|0,0:0|0:0,0:0:0:0:
200,56,310114,5,0,1:0:0:0:
168,232,310281,2,0,L|172:192,2,29.7499990921021,0|0|8,0:0|0:0|0:0,0:0:0:0:
241,138,310614,1,0,0:0:0:0:
290,255,310781,1,8,0:0:0:0:
69,268,310948,5,0,1:0:0:0:
69,268,311031,1,0,0:0:0:0:
69,268,311114,2,0,L|89:312,1,29.7499990921021,8|0,0:0|0:0,0:0:0:0:
160,380,311281,2,0,L|180:340,1,29.7499990921021,8|0,0:0|0:0,0:0:0:0:
292,176,311448,5,0,1:0:0:0:
256,288,311614,1,0,1:0:0:0:
464,176,311781,1,0,1:0:0:0:
380,92,311948,1,0,1:0:0:0:
374,249,312114,5,0,1:0:0:0:
489,65,312281,1,0,1:0:0:0:
512,264,312448,1,0,1:0:0:0:
380,92,312614,1,0,1:0:0:0:
166,153,312781,6,0,L|50:173,1,93.5000028533936,4|0,1:0|1:0,0:0:0:0:
73,168,313031,1,0,1:2:0:0:
73,168,313114,1,0,1:2:0:0:
343,229,313281,6,0,L|459:249,1,93.5000028533936,4|0,1:0|1:0,0:0:0:0:
435,244,313531,1,0,1:0:0:0:
435,244,313614,1,0,1:0:0:0:
166,289,313781,6,0,L|73:273,1,93.5000028533936,4|0,1:0|1:0,0:0:0:0:
73,273,314031,1,0,1:1:0:0:
73,273,314114,1,0,1:1:0:0:
343,229,314281,6,0,L|435:213,1,93.5000028533936,4|0,1:0|1:0,0:0:0:0:
435,212,314531,1,0,1:0:0:0:
435,212,314614,1,0,1:0:0:0:
188,128,314781,6,0,L|95:112,1,93.5000028533936,4|0,0:0|0:0,0:0:0:0:
256,325,315114,1,0,0:0:0:0:
380,204,315448,6,0,L|496:176,1,101.999996887207,4|2,0:0|0:0,0:0:0:0:
312,336,315781,1,8,0:0:0:0:
264,142,315948,1,2,0:0:0:0:
180,200,316114,2,0,L|72:192,1,101.999996887207,8|2,0:1|0:0,0:0:0:0:
78,192,316364,1,0,0:0:0:0:
78,192,316448,1,8,0:0:0:0:
223,82,316614,1,2,0:0:0:0:
313,335,316781,6,0,P|333:227|336:206,1,101.999996887207,8|2,0:1|0:0,0:0:0:0:
183,367,317114,1,8,0:0:0:0:
98,93,317281,2,0,P|87:142|79:193,1,101.999996887207,2|8,0:0|0:1,0:0:0:0:
336,157,317615,1,2,0:0:0:0:
295,151,317698,1,0,0:0:0:0:
254,147,317781,1,8,0:0:0:0:
170,239,317948,1,2,0:0:0:0:
313,334,318115,6,0,P|258:340|208:347,1,101.999996887207,8|2,0:1|0:0,0:0:0:0:
170,352,318365,1,0,0:0:0:0:
170,352,318448,1,8,0:0:0:0:
24,267,318615,1,2,0:0:0:0:
135,204,318781,2,0,P|131:136|131:84,1,101.999996887207,8|2,0:1|0:0,0:0:0:0:
133,61,319031,1,0,0:0:0:0:
133,61,319114,1,8,0:0:0:0:
336,44,319281,2,0,L|340:100,1,50.9999984436036,2|0,0:0|0:0,0:0:0:0:
352,184,319448,6,0,L|240:171,1,101.999996887207,8|2,0:1|0:0,0:0:0:0:
144,316,319781,2,0,L|251:332,1,101.999996887207,8|2,0:0|0:0,0:0:0:0:
148,176,320115,1,8,0:1:0:0:
4,320,320281,1,2,0:0:0:0:
232,232,320448,1,8,0:0:0:0:
20,232,320615,1,2,0:0:0:0:
88,88,320781,6,0,P|136:69|186:72,1,101.999996887207,8|2,0:1|0:0,0:0:0:0:
250,136,321031,1,0,0:0:0:0:
250,136,321115,2,0,L|351:132,1,101.999996887207,8|2,0:0|0:0,0:0:0:0:
284,36,321448,1,8,0:1:0:0:
259,343,321614,1,2,0:0:0:0:
259,343,321698,1,0,0:0:0:0:
259,343,321781,2,0,P|273:294|256:240,1,101.999996887207,8|0,0:0|0:0,0:0:0:0:
220,153,322115,5,8,0:1:0:0:
135,306,322281,1,2,0:0:0:0:
152,64,322448,1,8,0:0:0:0:
120,184,322615,1,2,0:0:0:0:
120,184,322698,1,0,0:0:0:0:
120,184,322781,1,8,0:1:0:0:
256,104,322948,1,2,0:0:0:0:
417,255,323115,2,0,L|414:152,1,101.999996887207,8|2,0:0|0:0,0:0:0:0:
472,19,323448,5,8,0:1:0:0:
303,107,323614,1,2,0:0:0:0:
303,107,323698,1,0,0:0:0:0:
303,107,323781,2,0,L|305:223,1,101.999996887207,8|2,0:0|0:0,0:0:0:0:
96,188,324115,2,0,L|92:296,1,101.999996887207,8|2,0:1|0:0,0:0:0:0:
92,289,324364,1,0,0:0:0:0:
92,289,324448,1,8,0:0:0:0:
184,28,324614,1,2,0:0:0:0:
184,28,324698,1,0,0:0:0:0:
184,28,324781,6,0,L|364:48,1,152.999995330811,8|0,0:1|0:0,0:0:0:0:
360,52,325115,2,0,L|479:26,1,101.999996887207,8|2,0:0|0:0,0:0:0:0:
439,266,325448,2,0,L|448:148,1,101.999996887207,8|2,0:1|0:0,0:0:0:0:
448,124,325698,1,0,0:0:0:0:
448,124,325781,2,0,L|392:124,1,50.9999984436036,8|8,0:0|0:0,0:0:0:0:
308,196,325948,2,0,L|258:185,1,50.9999984436036,8|8,0:0|0:0,0:0:0:0:
156,224,326115,6,0,P|156:152|160:120,1,101.999996887207,4|2,0:0|0:0,0:0:0:0:
272,68,326448,1,8,0:0:0:0:
362,263,326615,1,2,0:0:0:0:
479,182,326781,2,0,P|492:124|484:76,1,101.999996887207,8|2,0:1|0:0,0:0:0:0:
484,304,327115,1,8,0:0:0:0:
402,126,327281,1,2,0:0:0:0:
282,227,327448,6,0,P|262:274|260:325,1,101.999996887207,8|2,0:1|0:0,0:0:0:0:
316,380,327698,1,0,0:0:0:0:
316,380,327781,2,0,L|193:354,1,101.999996887207,8|2,0:0|0:0,0:0:0:0:
9,231,328115,1,8,0:1:0:0:
192,114,328281,1,2,0:0:0:0:
192,114,328364,1,0,0:0:0:0:
192,114,328448,1,8,0:0:0:0:
180,363,328615,1,2,0:0:0:0:
92,196,328781,6,0,P|84:133|92:80,1,101.999996887207,8|2,0:1|0:0,0:0:0:0:
88,351,329115,1,8,0:0:0:0:
180,256,329281,1,2,0:0:0:0:
180,256,329364,1,0,0:0:0:0:
180,256,329448,2,0,P|230:240|295:236,1,101.999996887207,8|2,0:1|0:0,0:0:0:0:
368,328,329781,1,8,0:0:0:0:
444,108,329948,1,2,0:0:0:0:
444,108,330031,1,0,0:0:0:0:
444,108,330114,6,0,B|385:104|326:138|326:138|328:88|321:54,1,203.999993774414,8|8,0:1|0:0,0:0:0:0:
120,342,330614,1,2,0:0:0:0:
204,144,330781,1,8,0:0:0:0:
329,322,330948,1,10,0:0:0:0:
364,319,331031,1,8,0:0:0:0:
395,302,331114,1,8,0:0:0:0:
415,272,331198,1,8,0:0:0:0:
413,236,331281,1,10,0:0:0:0:
444,108,331448,6,0,L|324:120,1,101.999996887207,4|0,0:0|0:0,0:0:0:0:
160,297,331781,2,0,L|216:212,1,101.999996887207,8|0,0:1|0:0,0:0:0:0:
214,87,332115,2,0,L|308:208,1,152.999995330811,0|0,0:1|0:0,0:0:0:0:
328,240,332448,2,0,P|391:239|444:236,1,101.999996887207,8|0,0:1|0:0,0:0:0:0:
256,336,332781,6,0,P|193:337|148:340,1,101.999996887207
228,246,333031,1,0,0:0:0:0:
228,246,333115,2,0,P|267:195|290:162,1,101.999996887207,8|0,0:1|0:0,0:0:0:0:
330,269,333365,1,0,0:0:0:0:
330,269,333449,2,0,P|355:329|374:366,1,101.999996887207
448,310,333698,1,0,0:0:0:0:
448,310,333781,2,0,L|454:254,1,50.9999984436036,8|0,0:1|0:0,0:0:0:0:
403,188,333948,2,0,L|417:135,1,50.9999984436036
469,60,334115,6,0,L|356:66,1,101.999996887207,4|0,0:0|0:0,0:0:0:0:
229,246,334448,2,0,L|250:88,1,152.999995330811,8|0,0:1|0:0,0:0:0:0:
248,50,334781,2,0,L|136:45,1,101.999996887207,0|0,0:0|0:0,0:0:0:0:
115,173,335115,2,0,L|-7:168,1,101.999996887207,8|0,0:1|0:0,0:0:0:0:
14,169,335365,1,0,0:0:0:0:
14,169,335448,5,0,0:0:0:0:
61,277,335615,1,0,0:0:0:0:
61,277,335698,1,0,0:0:0:0:
61,277,335781,2,0,L|132:264,1,50.9999984436036,8|0,0:1|0:0,0:0:0:0:
145,349,335948,2,0,L|216:336,1,50.9999984436036
259,260,336114,6,0,L|304:286,1,50.9999984436036
240,150,336281,2,0,L|285:176,1,50.9999984436036
329,81,336448,6,0,L|400:88,1,50.9999984436036,8|0,0:1|0:0,0:0:0:0:
391,167,336615,2,0,L|462:174,1,50.9999984436036
490,259,336781,6,0,L|388:251,1,101.999996887207,4|0,1:0|1:0,0:0:0:0:
145,301,337115,1,8,1:0:0:0:
281,361,337281,2,0,P|299:271|209:238,1,203.999993774414,0|0,1:0|1:0,0:0:0:0:
127,353,337781,1,8,1:0:0:0:
163,203,337948,1,0,1:0:0:0:
19,79,338115,6,0,P|69:80|146:72,1,101.999996887207,4|0,1:2|1:0,0:0:0:0:
390,109,338448,2,0,P|340:108|268:117,1,101.999996887207,8|0,1:0|1:0,0:0:0:0:
163,203,338781,1,0,1:0:0:0:
314,181,338948,1,0,1:0:0:0:
266,38,339114,1,8,1:0:0:0:
169,105,339281,1,0,1:0:0:0:
314,181,339448,5,4,1:2:0:0:
169,105,339615,1,0,1:0:0:0:
120,297,339781,1,8,1:0:0:0:
268,295,339948,1,0,1:0:0:0:
84,179,340115,5,0,1:0:0:0:
268,294,340281,1,0,1:0:0:0:
277,78,340448,1,8,1:0:0:0:
166,258,340615,1,0,1:0:0:0:
430,120,340781,5,4,1:2:0:0:
132,111,340948,1,0,1:0:0:0:
143,61,341031,1,0,1:0:0:0:
154,11,341114,1,12,0:0:0:0:
346,29,342114,5,4,0:0:0:0:
256,192,342198,12,8,344781,0:1:0:0:
