osu file format v6

[General]
AudioFilename: 03 - Rita - .mp3
AudioLeadIn: 3000
PreviewTime: 240194
Countdown: 0
SampleSet: Soft
StackLeniency: 0.7
Mode: 0
LetterboxInBreaks: 1

[Editor]
Bookmarks: 215,11922,58751,81434,93873,140702,164117,190458,216800,240214,310458,314849,322166
DistanceSpacing: 2
BeatDivisor: 2
GridSize: 8

[Metadata]
Title:Ame Nochi Hare
Artist:Rita
Creator:LurkingDeath
Version:Insane
Source:Little Busters!
Tags:Rita Little Busters Key

[Difficulty]
HPDrainRate:8
CircleSize:6
OverallDifficulty:6
SliderMultiplier:0.8
SliderTickRate:0.5

[Events]
//Background and Video events
0,0,"pandora00011277.jpg"
//Break Periods
2,81614,93169
2,187712,189754
2,216980,239510
//Storyboard Layer 0 (Background)
//Storyboard Layer 1 (Fail)
//Storyboard Layer 2 (Pass)
//Storyboard Layer 3 (Foreground)
//Storyboard Sound Samples
//Background Colour Transformations
3,100,163,162,255

[TimingPoints]
195,365.853658536585,4,2,0,60,1,0
164097,-100,4,1,0,20,0,1
164143,-100,4,1,0,20,0,0
164460,-100,4,2,0,60,0,0
164826,-100,4,1,0,20,0,0
165192,-100,4,2,0,60,0,0
165557,-100,4,1,0,20,0,0
165923,-100,4,2,0,60,0,0
166289,-100,4,1,0,20,0,0
166655,-100,4,2,0,60,0,0
167021,-100,4,1,0,20,0,0
167387,-100,4,2,0,60,0,0
167752,-100,4,1,0,20,0,0
168118,-100,4,2,0,60,0,0
168484,-100,4,1,0,20,0,0
168850,-100,4,2,0,60,0,0
169948,-100,4,1,0,20,0,0
170313,-100,4,2,0,60,0,0
170679,-100,4,1,0,20,0,0
170862,-100,4,2,0,60,0,0
171411,-100,4,1,0,20,0,0
171777,-100,4,2,0,60,0,0
172143,-100,4,1,0,20,0,0
172509,-100,4,2,0,60,0,0
172874,-100,4,1,0,20,0,0
173240,-100,4,2,0,60,0,0
173606,-100,4,1,0,20,0,0
173789,-100,4,2,0,60,0,0
174338,-100,4,1,0,20,0,0
174704,-100,4,2,0,60,0,0
175070,-100,4,1,0,20,0,0
175252,-100,4,2,0,60,0,0
175801,-100,4,1,0,20,0,0
175984,-100,4,2,0,60,0,0
176533,-100,4,1,0,20,0,0
176898,-100,4,2,0,60,0,0
177264,-100,4,1,0,20,0,0
177630,-100,4,2,0,60,0,0
177996,-100,4,1,0,20,0,0
178118,-100,4,2,0,60,0,0
178728,-100,4,1,0,20,0,0
179093,-100,4,2,0,60,0,0
179460,-100,4,1,0,20,0,0
179826,-100,4,2,0,60,0,0
216780,-100,4,2,0,60,0,1
216826,-100,4,2,0,60,0,0

[Colours]
Combo1 : 255,223,239
Combo2 : 192,192,192
Combo3 : 128,255,255
Combo4 : 75,75,75

[HitObjects]
64,80,195,1,2
64,136,377,1,0
64,192,560,1,0
64,248,743,1,2
64,360,1109,1,2
144,304,1475,5,0
144,248,1658,1,2
144,192,1841,1,0
144,136,2024,1,0
144,80,2207,1,2
256,80,2573,1,2
368,80,2938,5,0
368,136,3121,1,2
368,192,3304,1,0
368,248,3487,1,0
368,304,3670,1,2
480,304,4036,1,2
480,192,4402,5,0
424,192,4585,1,2
368,192,4768,1,0
312,192,4951,1,0
256,192,5134,1,2
144,192,5499,1,2
144,80,5865,5,0
200,80,6048,1,2
256,80,6231,1,0
312,80,6414,1,0
368,80,6597,1,2
480,80,6963,1,2
480,192,7329,5,0
424,192,7512,1,2
368,192,7695,1,0
312,192,7877,1,0
256,192,8060,1,2
256,304,8426,1,2
144,304,8792,5,0
88,304,8975,1,2
88,248,9158,1,0
144,248,9341,1,0
144,192,9524,1,2
144,80,9890,1,2
256,80,10255,5,0
256,136,10438,1,2
312,136,10621,1,0
312,80,10804,1,0
368,80,10987,1,2
368,192,11353,1,2
256,192,11719,1,2
128,80,12268,5,0
128,136,12451,1,0
128,192,12634,1,0
128,304,12999,1,0
184,304,13182,1,0
296,304,13548,1,0
408,304,13914,2,0,B|408:208,1,80
408,112,14646,5,0
296,112,15012,1,0
184,112,15377,1,0
104,192,15743,1,0
56,224,15926,1,0
104,256,16109,1,0
152,288,16292,1,0
160,176,16658,1,0
160,120,16841,1,0
272,120,17207,1,0
383,120,17573,2,0,B|338:165|315:188|293:211|247:256|225:278,1,200
336,320,18853,5,0
368,272,19036,1,0
400,320,19219,1,0
400,208,19585,1,0
400,152,19768,1,0
320,72,20134,1,0
208,72,20499,2,0,B|144:72|16:72,1,160
48,184,21597,1,0
104,184,21780,1,0
160,184,21963,2,0,B|168:184|168:184|168:192|168:192|176:192|176:192|176:200|176:200|184:200|184:200|184:208|184:208|192:208|192:208|192:216|192:216|200:216|200:216|200:224|200:224|208:224|208:224|208:232|208:232|216:232|216:232|216:240|216:240|224:240|224:240|224:248|224:248|232:248|232:248|232:256|232:256|240:256|240:256|240:264|240:264|248:264|248:264|248:272|248:272|256:272|256:272|256:280|256:280|264:280|264:280|264:288|264:288|272:288|272:288|272:296|272:296|280:296|280:296|280:304|280:304|288:304,1,240
416,56,23975,5,0
360,56,24158,1,0
304,56,24341,1,0
192,56,24707,1,0
136,56,24890,1,0
136,168,25255,1,0
136,280,25621,2,0,B|168:280|200:280|232:280|232:280,1,80
328,280,26353,5,0
408,200,26719,1,0
328,120,27085,1,0
216,120,27451,1,0
176,160,27634,1,0
136,120,27816,1,0
96,160,27999,1,0
96,272,28365,1,0
152,272,28548,1,0
264,272,28914,1,0
375,271,29280,2,0,B|352:248|330:226|307:203|284:180|239:135,1,160
264,48,30377,5,0
264,104,30560,1,0
264,160,30743,2,0,B|287:183|310:205|332:228|355:251,1,120
256,304,31658,1,0
256,248,31841,1,0
256,136,32207,2,0,B|144:136|144:280|424:320|400:24|48:304,1,480
400,280,34951,5,0
400,224,35134,1,0
400,168,35316,1,0
288,168,35682,1,0
176,168,36048,2,0,B|176:200|176:232,1,40
288,224,36597,1,0
400,224,36963,1,0
400,112,37329,1,0
288,112,37695,1,0
232,112,37877,1,0
176,112,38060,1,0
120,112,38243,2,0,B|56:88|8:96|0:152|8:168|256:320,1,400
88,88,40804,5,0
144,88,40987,1,0
200,88,41170,1,0
312,88,41536,1,0
424,88,41902,2,0,B|424:152,1,40
312,144,42451,1,0
200,144,42816,1,0
88,144,43182,1,0
88,256,43548,2,0,B|120:256|152:256|184:256,1,80
224,256,44097,1,0
224,144,44463,1,0
168,144,44646,2,0,B|120:176|48:200|40:104|216:64,1,240
400,128,46292,5,0
344,128,46475,2,0,B|344:160|344:192|344:224,1,80
288,128,47024,2,0,B|288:160|288:192|288:224|288:256|288:288|288:320|288:352,1,200
232,320,48121,2,0,B|232:288|232:256,1,40
232,224,48487,2,0,B|232:192|232:160|232:128,1,80
176,128,49036,2,0,B|176:160|176:192|176:224,1,80
120,128,49585,2,0,B|120:160|120:192,1,40
120,224,49951,6,0,B|120:288|120:320,1,80
176,304,50499,2,0,B|176:272|176:240|176:208,1,80
232,304,51048,2,0,B|232:272|232:240,1,40
288,304,51414,2,0,B|288:272|288:240|288:208,1,80
344,304,51963,2,0,B|344:272|344:240|344:208,1,80
400,304,52512,2,0,B|400:240,1,40
400,208,52877,2,0,B|400:144,1,40
400,112,53243,1,0
344,112,53426,2,0,B|280:112|216:112|88:112,1,240
104,280,55073,5,0
160,280,55255,2,0,B|160:376,1,80
216,280,55804,2,0,B|216:208|216:208|272:208|272:208|272:192,1,120
272,280,56536,1,0
328,280,56719,2,0,B|360:280|424:280,1,80
408,224,57268,1,0
256,208,57313,12,2,58731
200,312,59097,5,0
256,312,59280,1,0
312,312,59463,1,0
400,248,59829,1,0
400,192,60012,1,0
288,192,60377,1,0
176,192,60743,2,0,B|176:160|176:96,1,80
256,32,61475,5,0
256,144,61841,1,0
144,144,62207,1,0
40,192,62573,1,0
96,208,62755,1,0
56,248,62938,1,0
112,264,63121,1,0
216,312,63487,1,0
272,312,63670,1,0
384,312,64036,1,0
320,224,64402,2,0,B|297:201|184:88,1,160
424,64,65682,5,0
424,120,65865,1,0
424,176,66048,1,0
312,176,66414,1,0
312,232,66597,1,0
256,328,66963,1,0
256,216,67329,2,0,B|256:24,1,160
352,112,68426,1,0
336,168,68609,1,0
280,168,68792,2,0,B|24:168,1,240
80,312,70804,5,0
120,272,70987,1,0
160,232,71170,1,0
240,152,71536,1,0
280,112,71719,1,0
392,112,72085,1,0
392,224,72451,2,0,B|392:256|392:320,1,80
304,240,73182,5,0
224,160,73548,1,0
144,80,73914,1,0
256,80,74280,1,0
256,136,74463,1,0
256,192,74646,1,0
256,248,74829,1,0
168,312,75195,1,0
128,272,75377,1,0
48,192,75743,1,0
160,192,76109,2,0,B|352:192,1,160
240,112,77207,5,0
240,168,77390,1,0
240,224,77573,2,0,B|240:160,1,40
456,232,78487,1,0
423,184,78670,2,0,B|469:139,1,40
384,144,79036,1,0
256,208,79082,12,2,81414
384,304,94219,5,0
384,248,94402,1,0
384,192,94585,1,0
384,80,94950,1,0
328,80,95133,1,0
216,80,95499,1,0
104,80,95865,2,0,B|104:176,1,80
104,272,96597,5,0
216,272,96963,1,0
328,272,97328,1,0
408,192,97694,1,0
456,160,97877,1,0
408,128,98060,1,0
360,96,98243,1,0
352,208,98609,1,0
352,264,98792,1,0
240,264,99158,1,0
129,264,99524,2,0,B|174:219|197:196|219:173|265:128|287:106,1,200
176,64,100804,5,0
144,112,100987,1,0
112,64,101170,1,0
112,176,101536,1,0
112,232,101719,1,0
192,312,102085,1,0
304,312,102450,2,0,B|368:312|496:312,1,160
464,200,103548,1,0
408,200,103731,1,0
352,200,103914,2,0,B|344:200|344:200|344:192|344:192|336:192|336:192|336:184|336:184|328:184|328:184|328:176|328:176|320:176|320:176|320:168|320:168|312:168|312:168|312:160|312:160|304:160|304:160|304:152|304:152|296:152|296:152|296:144|296:144|288:144|288:144|288:136|288:136|280:136|280:136|280:128|280:128|272:128|272:128|272:120|272:120|264:120|264:120|264:112|264:112|256:112|256:112|256:104|256:104|248:104|248:104|248:96|248:96|240:96|240:96|240:88|240:88|232:88|232:88|232:80|232:80|224:80,1,240
96,328,105926,5,0
152,328,106109,1,0
208,328,106292,1,0
320,328,106658,1,0
376,328,106841,1,0
376,216,107206,1,0
376,104,107572,2,0,B|344:104|312:104|280:104|280:104,1,80
184,104,108304,5,0
104,184,108670,1,0
184,264,109036,1,0
296,264,109402,1,0
336,224,109585,1,0
376,264,109767,1,0
416,224,109950,1,0
416,112,110316,1,0
360,112,110499,1,0
248,112,110865,1,0
137,113,111231,2,0,B|160:136|182:158|205:181|228:204|273:249,1,160
248,336,112328,5,0
248,280,112511,1,0
248,224,112694,2,0,B|225:201|202:179|180:156|157:133,1,120
256,80,113609,1,0
256,136,113792,1,0
256,248,114158,2,0,B|368:248|368:104|88:64|112:360|464:80,1,480
112,104,116902,5,0
112,160,117085,1,0
112,216,117267,1,0
224,216,117633,1,0
336,216,117999,2,0,B|336:184|336:152,1,40
224,160,118548,1,0
112,160,118914,1,0
112,272,119280,1,0
224,272,119646,1,0
280,272,119828,1,0
336,272,120011,1,0
392,272,120194,2,0,B|456:296|504:288|512:232|504:216|256:64,1,400
424,296,122755,5,0
368,296,122938,1,0
312,296,123121,1,0
200,296,123487,1,0
88,296,123853,2,0,B|88:232,1,40
200,240,124402,1,0
312,240,124767,1,0
424,240,125133,1,0
424,128,125499,2,0,B|392:128|360:128|328:128,1,80
288,128,126048,1,0
288,240,126414,1,0
344,240,126597,2,0,B|392:208|464:184|472:280|296:320,1,240
112,256,128243,5,0
168,256,128426,2,0,B|168:224|168:192|168:160,1,80
224,256,128975,2,0,B|224:224|224:192|224:160|224:128|224:96|224:64|224:32,1,200
280,64,130072,2,0,B|280:96|280:128,1,40
280,160,130438,2,0,B|280:192|280:224|280:256,1,80
336,256,130987,2,0,B|336:224|336:192|336:160,1,80
392,256,131536,2,0,B|392:224|392:192,1,40
392,160,131902,6,0,B|392:96|392:64,1,80
336,80,132450,2,0,B|336:112|336:144|336:176,1,80
280,80,132999,2,0,B|280:112|280:144,1,40
224,80,133365,2,0,B|224:112|224:144|224:176,1,80
168,80,133914,2,0,B|168:112|168:144|168:176,1,80
112,80,134463,2,0,B|112:144,1,40
112,176,134828,2,0,B|112:240,1,40
112,272,135194,1,0
168,272,135377,2,0,B|232:272|296:272|424:272,1,240
408,104,137024,5,0
352,104,137206,2,0,B|352:8,1,80
296,104,137755,2,0,B|296:176|296:176|240:176|240:176|240:192,1,120
240,104,138487,1,0
184,104,138670,2,0,B|152:104|88:104,1,80
104,160,139219,1,0
256,208,139264,12,2,140682
312,72,141048,5,0
256,72,141231,1,0
200,72,141414,1,0
112,136,141780,1,0
112,192,141963,1,0
224,192,142328,1,0
336,192,142694,2,0,B|336:224|336:288,1,80
256,352,143426,5,0
256,240,143792,1,0
368,240,144158,1,0
472,192,144524,1,0
416,176,144706,1,0
456,136,144889,1,0
400,120,145072,1,0
296,72,145438,1,0
240,72,145621,1,0
128,72,145987,1,0
192,160,146353,2,0,B|215:183|328:296,1,160
88,320,147633,5,0
88,264,147816,1,0
88,208,147999,1,0
200,208,148365,1,0
200,152,148548,1,0
256,56,148914,1,0
256,168,149280,2,0,B|256:360,1,160
160,272,150377,1,0
176,216,150560,1,0
232,216,150743,2,0,B|488:216,1,240
432,72,152755,5,0
392,112,152938,1,0
352,152,153121,1,0
272,232,153487,1,0
232,272,153670,1,0
120,272,154036,1,0
120,160,154402,2,0,B|120:128|120:64,1,80
208,144,155133,5,0
288,224,155499,1,0
368,304,155865,1,0
256,304,156231,1,0
256,248,156414,1,0
256,192,156597,1,0
256,136,156780,1,0
344,72,157146,1,0
384,112,157328,1,0
464,192,157694,1,0
352,192,158060,2,0,B|160:192,1,160
272,272,159158,5,0
272,216,159341,1,0
272,160,159524,2,0,B|272:224,1,40
56,152,160438,1,0
89,200,160621,2,0,B|43:245,1,40
128,240,160987,1,0
256,208,161033,12,2,162999
312,304,163548,5,0
312,248,163731,1,0
312,192,163914,1,0
312,136,164097,1,8
200,136,164463,1,0
144,136,164646,1,0
200,136,164829,1,8
200,248,165195,5,0
144,248,165377,1,0
200,248,165560,1,8
312,248,165926,1,0
368,248,166109,1,0
312,248,166292,1,8
312,136,166658,5,0
368,136,166841,1,0
312,136,167024,1,8
200,136,167390,1,0
200,80,167573,1,0
200,136,167755,1,8
200,248,168121,5,0
200,304,168304,1,0
200,248,168487,1,8
312,248,168853,1,0
368,248,169036,1,0
256,248,169402,1,0
368,248,169768,1,0
312,248,169951,1,8
312,136,170316,5,0
368,136,170499,1,0
312,136,170682,1,8
352,96,170865,1,0
312,136,171048,1,0
312,80,171231,1,0
312,136,171414,1,8
200,136,171780,5,0
144,136,171963,1,0
200,136,172146,1,8
200,248,172512,1,0
200,304,172695,1,0
200,248,172877,1,8
312,248,173243,1,0
232,168,173609,5,8
176,168,173792,1,0
120,168,173975,1,0
64,168,174158,1,0
64,224,174341,1,8
176,248,174707,5,0
120,248,174890,1,0
176,248,175073,1,8
136,288,175255,1,0
176,248,175438,1,0
176,304,175621,1,0
176,248,175804,1,8
288,248,176170,5,0
344,248,176353,1,0
288,248,176536,1,8
288,136,176902,1,0
288,80,177085,1,0
288,136,177268,1,8
176,136,177634,1,0
120,136,177816,1,0
120,192,177999,1,8
176,192,178182,1,0
232,192,178365,1,0
288,192,178548,1,0
344,192,178731,1,8
456,192,179097,5,0
456,192,179280,1,0
456,192,179463,1,8
368,120,179829,1,0
320,88,180012,1,0
256,208,180057,12,4,183121
256,320,184036,5,0
208,296,184219,1,0
160,272,184402,1,0
112,248,184585,1,0
40,160,184951,1,0
80,128,185134,1,0
176,184,185499,1,0
176,72,185865,2,0,B|256:72|312:48|288:16|272:48|336:72|312:96|288:112|272:96|248:72|288:72|360:224|360:224|360:216,1,320
360,224,187420,1,0
360,224,187512,1,0
128,304,190804,5,0
128,248,190987,1,0
128,192,191170,1,0
128,80,191535,1,0
184,80,191718,1,0
296,80,192084,1,0
408,80,192450,2,0,B|408:176,1,80
408,272,193182,5,0
296,272,193548,1,0
184,272,193913,1,0
104,192,194279,1,0
56,160,194462,1,0
104,128,194645,1,0
152,96,194828,1,0
160,208,195194,1,0
160,264,195377,1,0
272,264,195743,1,0
383,264,196109,2,0,B|338:219|315:196|293:173|247:128|225:106,1,200
336,64,197389,5,0
368,112,197572,1,0
400,64,197755,1,0
400,176,198121,1,0
400,232,198304,1,0
320,312,198670,1,0
208,312,199035,2,0,B|144:312|16:312,1,160
48,200,200133,1,0
104,200,200316,1,0
160,200,200499,2,0,B|168:200|168:200|168:192|168:192|176:192|176:192|176:184|176:184|184:184|184:184|184:176|184:176|192:176|192:176|192:168|192:168|200:168|200:168|200:160|200:160|208:160|208:160|208:152|208:152|216:152|216:152|216:144|216:144|224:144|224:144|224:136|224:136|232:136|232:136|232:128|232:128|240:128|240:128|240:120|240:120|248:120|248:120|248:112|248:112|256:112|256:112|256:104|256:104|264:104|264:104|264:96|264:96|272:96|272:96|272:88|272:88|280:88|280:88|280:80|280:80|288:80,1,240
416,328,202511,5,0
360,328,202694,1,0
304,328,202877,1,0
192,328,203243,1,0
136,328,203426,1,0
136,216,203791,1,0
136,104,204157,2,0,B|168:104|200:104|232:104|232:104,1,80
328,104,204889,5,0
408,184,205255,1,0
328,264,205621,1,0
216,264,205987,1,0
176,224,206170,1,0
136,264,206352,1,0
96,224,206535,1,0
96,112,206901,1,0
152,112,207084,1,0
264,112,207450,1,0
375,113,207816,2,0,B|352:136|330:158|307:181|284:204|239:249,1,160
264,336,208913,5,0
264,280,209096,1,0
264,224,209279,2,0,B|287:201|310:179|332:156|355:133,1,120
432,64,210194,1,0
392,104,210377,1,0
312,184,210743,2,0,B|176:312,1,160
80,296,211841,5,0
80,240,212024,1,0
80,184,212207,2,0,B|80:88|80:88|168:88,1,160
200,88,213121,1,0
200,144,213304,1,0
296,88,213670,6,0,B|296:264,1,160
184,256,214768,1,0
224,216,214951,1,0
184,176,215134,1,0
320,64,216048,1,0
200,64,216231,1,0
256,192,216780,5,0
96,120,240560,5,0
96,280,240926,1,0
256,280,241292,1,0
416,280,241658,2,0,B|416:88,1,160
256,120,242755,5,0
256,280,243121,1,0
256,120,243487,1,0
256,280,243853,2,0,B|64:280,1,160
96,72,244951,5,0
256,72,245316,1,0
416,72,245682,2,0,B|416:168,1,80
416,312,246414,2,0,B|320:312,1,80
176,312,247146,6,0,B|80:312,1,80
96,152,247877,2,0,B|96:56,1,80
256,72,248609,2,0,B|448:72,1,160
416,304,249707,5,0
256,304,250073,2,0,B|64:304,1,160
96,144,251170,1,0
256,144,251536,2,0,B|256:240,1,80
416,32,252268,5,0
416,192,252634,1,0
256,192,252999,1,0
96,192,253365,2,0,B|288:192,1,160
416,192,254463,5,0
256,192,254829,1,0
256,352,255195,1,0
256,192,255560,2,0,B|256:384,1,160
256,192,256658,5,0
256,32,257024,1,0
176,192,257390,2,0,B|80:192,1,80
256,272,258121,2,0,B|256:368,1,80
336,192,258853,6,0,B|432:192,1,80
256,112,259585,2,0,B|256:16,1,80
424,32,260316,2,0,B|242:213,1,240
296,48,261780,5,0
216,48,261963,1,0
256,96,262146,2,0,B|256:152,3,40
256,288,262877,6,0,B|256:240,3,40,0|0|0|0
256,192,263609,1,0
144,80,263975,5,0
144,240,264341,1,0
304,240,264707,1,0
304,80,265073,2,0,B|112:80,1,160
304,80,266170,5,0
304,240,266536,1,0
144,240,266902,1,0
144,80,267268,2,0,B|336:80,1,160
416,192,268365,5,0
256,192,268731,1,0
144,72,269097,2,0,B|76:4,1,80
144,312,269829,2,0,B|76:379,1,80
368,312,270560,6,0,B|435:379,1,80
368,72,271292,2,0,B|435:4,1,80
256,32,272024,2,0,B|256:224,1,160
96,192,273121,5,0
256,192,273487,2,0,B|448:192,1,160
256,192,274585,1,0
96,192,274951,2,0,B|0:192,1,80
96,56,275682,5,0
256,56,276048,1,0
416,56,276414,1,0
256,56,276780,2,0,B|256:248,1,160
416,328,277877,5,0
256,328,278243,1,0
96,328,278609,1,0
256,328,278975,2,0,B|256:136,1,160
400,32,280073,5,0
400,192,280438,1,0
400,352,280804,2,0,B|496:352,1,80
112,352,281536,2,0,B|16:352,1,80
112,32,282268,6,0,B|16:32,1,80
400,32,282999,2,0,B|496:32,1,80
424,360,283731,2,0,B|243:179,1,240
256,112,285194,5,0
256,192,285377,1,0
352,192,285560,2,0,B|296:192,3,40
160,192,286292,6,0,B|208:192,3,40
256,192,287024,1,0
96,352,287390,5,0
96,192,287755,1,0
256,192,288121,1,0
416,192,288487,2,0,B|224:192,1,160
416,32,289585,5,0
256,32,289951,1,0
256,192,290316,1,0
256,352,290682,2,0,B|256:160,1,160
144,80,291780,5,0
256,192,292146,1,0
368,303,292512,2,0,B|435:371,1,80
312,247,293243,2,0,B|244:179,1,80
143,80,293975,6,0,B|210:147,1,80
312,248,294707,2,0,B|244:180,1,80
256,32,295438,2,0,B|256:224,1,160
256,192,296536,5,0
96,192,296902,2,0,B|288:192,1,160
256,192,297999,1,0
368,304,298365,2,0,B|300:236,1,80
256,352,299097,5,0
256,192,299463,1,0
256,32,299829,1,0
488,192,300194,2,0,B|296:192,1,160
256,32,301292,5,0
256,192,301658,1,0
256,352,302024,1,0
24,192,302390,2,0,B|216:192,1,160
336,120,303487,5,0
176,120,303853,1,0
368,303,304219,2,0,B|300:235,1,80
144,303,304951,2,0,B|211:235,1,80
144,80,305682,6,0,B|211:148,1,80
368,80,306414,2,0,B|300:148,1,80
224,248,307146,6,0,B|256:216|256:216|224:216|224:216|192:216|192:216|192:248|192:248|192:280|192:280|224:280|224:280|256:280|256:280|256:240|256:240|256:184,1,320
256,192,308792,1,0
256,192,308975,1,0
256,208,309021,12,6,310438
