osu file format v11

[General]
AudioFilename: Alicemagic TV Size.mp3
AudioLeadIn: 1000
PreviewTime: 14567
Countdown: 1
SampleSet: Normal
StackLeniency: 0.7
Mode: 1
LetterboxInBreaks: 1

[Editor]
DistanceSpacing: 0.8
BeatDivisor: 4
GridSize: 16

[Metadata]
Title:Alicemagic -TV animation ver.-
TitleUnicode:Alicemagic -TV animation ver.-
Artist:Rita
ArtistUnicode:Rita
Creator:Jing
Version:Taiko Oni
Source:
Tags:
BeatmapID:210434
BeatmapSetID:74006

[Difficulty]
HPDrainRate:5
CircleSize:5
OverallDifficulty:5
ApproachRate:5
SliderMultiplier:1.4
SliderTickRate:1

[Events]
//Background and Video events
0,0,"1.jpg"
//Break Periods
//Storyboard Layer 0 (Background)
//Storyboard Layer 1 (Fail)
//Storyboard Layer 2 (Pass)
//Storyboard Layer 3 (Foreground)
//Storyboard Sound Samples
//Background Colour Transformations
3,100,163,162,255

[TimingPoints]
1194,361.44578313253,4,1,0,100,1,0
62097,-100,4,1,0,100,0,1
84868,-100,4,1,0,100,0,0

[HitObjects]
256,192,1194,21,8,0:0:0
256,192,1465,5,0,0:0:0
256,192,1736,1,0,0:0:0
256,192,1916,1,0,0:0:0
256,192,2007,1,0,0:0:0
256,192,2097,5,8,0:0:0
256,192,2187,1,8,0:0:0
256,192,2278,1,8,0:0:0
256,192,2639,5,0,0:0:0
256,192,2820,1,0,0:0:0
256,192,2910,1,0,0:0:0
256,192,3001,5,8,0:0:0
256,192,3181,5,0,0:0:0
256,192,3362,1,0,0:0:0
256,192,3543,5,8,0:0:0
256,192,3724,5,0,0:0:0
256,192,3904,1,0,0:0:0
256,192,3995,1,0,0:0:0
256,192,4085,5,8,0:0:0
256,192,4266,5,0,0:0:0
256,192,4447,1,0,0:0:0
256,192,4627,5,8,0:0:0
256,192,4808,1,8,0:0:0
256,192,4898,1,8,0:0:0
256,192,4989,5,0,0:0:0
256,192,5169,5,8,0:0:0
256,192,5260,1,8,0:0:0
256,192,5350,5,0,0:0:0
256,192,5440,1,0,0:0:0
256,192,5531,1,0,0:0:0
256,192,5712,1,0,0:0:0
256,192,5892,5,8,0:0:0
256,192,6073,5,0,0:0:0
256,192,6434,1,0,0:0:0
256,192,6614,5,8,0:0:0
256,192,6795,5,0,0:0:0
256,192,6977,5,8,0:0:0
256,192,7157,5,0,0:0:0
256,192,7338,1,0,0:0:0
256,192,7519,5,8,0:0:0
256,192,7700,5,0,0:0:0
256,192,7790,5,8,0:0:0
256,192,7881,5,0,0:0:0
256,192,7971,1,0,0:0:0
256,192,8061,5,8,0:0:0
256,192,8242,5,0,0:0:0
256,192,8422,1,0,0:0:0
256,192,8784,5,8,0:0:0
256,192,8965,5,0,0:0:0
256,192,9145,1,0,0:0:0
256,192,9326,1,0,0:0:0
256,192,9416,1,0,0:0:0
256,192,9507,5,8,0:0:0
288,176,9868,5,0,0:0:0
256,192,10049,1,0,0:0:0
256,192,10139,1,0,0:0:0
256,192,10230,1,0,0:0:0
288,176,10410,5,8,0:0:0
256,192,10591,1,8,0:0:0
256,192,10681,5,0,0:0:0
256,192,10772,1,0,0:0:0
256,192,10862,5,8,0:0:0
256,192,10953,5,0,0:0:0
288,176,11133,5,8,0:0:0
256,192,11314,5,0,0:0:0
256,192,11495,1,0,0:0:0
256,192,11675,5,8,0:0:0
256,192,12037,5,0,0:0:0
256,192,12218,1,0,0:0:0
256,192,12308,1,0,0:0:0
288,176,12398,5,8,0:0:0
288,176,12579,5,4,0:0:0
288,176,12940,1,0,0:0:0
288,176,13121,5,8,0:0:0
288,176,13212,1,8,0:0:0
320,160,13302,5,0,0:0:0
256,192,13483,1,0,0:0:0
320,160,13663,5,8,0:0:0
320,160,13754,5,0,0:0:0
320,160,13844,1,0,0:0:0
320,160,14025,5,8,0:0:0
320,160,14206,5,4,0:0:0
256,192,14567,5,8,0:0:0
288,176,14748,5,0,0:0:0
256,192,14928,1,0,0:0:0
256,192,15019,1,0,0:0:0
336,128,15109,5,8,0:0:0
288,176,15290,5,0,0:0:0
192,176,15471,5,8,0:0:0
320,160,15651,5,0,0:0:0
256,192,15832,1,0,0:0:0
336,128,15922,5,8,0:0:0
336,128,16013,1,8,0:0:0
288,176,16193,5,0,0:0:0
336,128,16374,5,8,0:0:0
336,128,16465,1,8,0:0:0
320,160,16555,5,0,0:0:0
336,128,16645,5,8,0:0:0
352,160,16736,5,0,0:0:0
400,112,16916,1,0,0:0:0
400,112,17097,1,0,0:0:0
320,160,17278,1,0,0:0:0
288,112,17368,1,0,0:0:0
352,160,17459,5,8,0:0:0
368,128,17639,5,0,0:0:0
368,128,17820,1,0,0:0:0
368,128,17910,5,8,0:0:0
368,128,18001,5,0,0:0:0
368,128,18091,1,0,0:0:0
384,160,18181,5,8,0:0:0
320,128,18362,5,0,0:0:0
288,176,18724,1,0,0:0:0
368,128,18904,5,8,0:0:0
320,128,19085,5,0,0:0:0
320,192,19266,1,0,0:0:0
368,128,19356,5,8,0:0:0
368,128,19447,1,8,0:0:0
368,128,19537,5,0,0:0:0
368,128,19627,1,0,0:0:0
384,176,19808,5,8,0:0:0
384,176,19989,5,0,0:0:0
288,176,20169,1,0,0:0:0
368,128,20350,5,8,0:0:0
320,128,20531,5,0,0:0:0
384,176,20892,1,0,0:0:0
368,128,21073,5,8,0:0:0
368,128,21163,1,8,0:0:0
352,160,21254,5,0,0:0:0
240,128,21434,1,0,0:0:0
272,128,21615,1,0,0:0:0
320,128,21796,5,8,0:0:0
368,128,21886,5,0,0:0:0
368,128,21977,1,0,0:0:0
400,128,22157,1,0,0:0:0
400,128,22338,1,0,0:0:0
368,128,22428,5,8,0:0:0
368,128,22519,1,8,0:0:0
368,128,22700,5,0,0:0:0
384,176,22880,1,0,0:0:0
384,176,23061,1,0,0:0:0
400,128,23151,5,8,0:0:0
384,176,23242,1,8,0:0:0
352,160,23422,5,0,0:0:0
352,224,23784,1,0,0:0:0
352,224,23874,1,0,0:0:0
368,128,23965,5,8,0:0:0
368,128,24055,1,8,0:0:0
384,176,24145,5,0,0:0:0
352,160,24326,1,0,0:0:0
400,128,24507,1,0,0:0:0
352,160,24597,5,8,0:0:0
352,160,24687,1,8,0:0:0
352,160,24778,1,8,0:0:0
352,160,24868,5,0,0:0:0
368,128,25049,1,0,0:0:0
400,128,25139,5,8,0:0:0
400,128,25230,1,8,0:0:0
400,128,25320,1,8,0:0:0
384,176,25410,5,0,0:0:0
368,128,25591,5,12,0:0:0
256,144,25953,5,0,0:0:0
368,128,26133,5,8,0:0:0
368,128,26224,1,8,0:0:0
352,160,26314,5,0,0:0:0
432,128,26495,1,0,0:0:0
368,128,26675,5,8,0:0:0
384,176,26856,5,0,0:0:0
384,176,27037,1,0,0:0:0
272,112,27398,1,0,0:0:0
352,160,27579,5,8,0:0:0
352,160,27760,5,0,0:0:0
352,160,27940,5,8,0:0:0
352,160,28031,1,8,0:0:0
352,160,28121,1,8,0:0:0
384,128,28302,5,0,0:0:0
256,160,28663,1,0,0:0:0
352,160,28754,1,0,0:0:0
256,160,28844,1,0,0:0:0
352,160,28934,1,0,0:0:0
352,160,29025,5,8,0:0:0
320,144,29206,5,0,0:0:0
320,144,29386,1,0,0:0:0
384,128,29567,5,8,0:0:0
384,128,29657,1,8,0:0:0
384,128,29748,5,0,0:0:0
352,160,29928,5,8,0:0:0
320,144,30290,5,0,0:0:0
320,144,30471,5,8,0:0:0
320,144,30651,5,0,0:0:0
320,144,30832,1,0,0:0:0
384,128,30922,5,8,0:0:0
352,128,31013,1,8,0:0:0
352,160,31103,5,0,0:0:0
352,160,31193,5,8,0:0:0
352,160,31374,5,0,0:0:0
320,144,31555,1,0,0:0:0
352,160,31736,1,0,0:0:0
384,128,31826,1,0,0:0:0
352,128,31916,5,8,0:0:0
320,144,32097,5,0,0:0:0
320,144,32278,1,0,0:0:0
384,128,32459,5,8,0:0:0
352,160,32820,1,8,0:0:0
320,144,33001,5,0,0:0:0
352,128,33181,1,0,0:0:0
352,128,33272,1,0,0:0:0
352,128,33362,5,8,0:0:0
352,128,33543,5,0,0:0:0
352,128,33724,1,0,0:0:0
352,160,33904,5,8,0:0:0
304,208,34085,1,8,0:0:0
384,144,34266,5,0,0:0:0
304,208,34447,1,0,0:0:0
304,208,34627,1,0,0:0:0
304,208,34718,1,0,0:0:0
384,144,34808,5,8,0:0:0
352,128,34989,5,0,0:0:0
224,144,35350,1,0,0:0:0
384,144,35531,5,8,0:0:0
352,128,35712,5,0,0:0:0
224,144,35892,1,0,0:0:0
224,144,35983,1,0,0:0:0
352,128,36073,5,8,0:0:0
320,144,36163,1,8,0:0:0
320,144,36254,1,8,0:0:0
352,128,36434,5,0,0:0:0
272,144,36615,5,8,0:0:0
320,144,36706,5,0,0:0:0
320,144,36796,1,0,0:0:0
320,144,36886,1,0,0:0:0
272,144,36977,5,8,0:0:0
272,144,37067,1,8,0:0:0
368,160,37157,5,0,0:0:0
352,192,37248,1,0,0:0:0
352,192,37338,1,0,0:0:0
384,128,37700,5,8,0:0:0
384,128,38061,5,0,0:0:0
384,128,38242,1,0,0:0:0
384,128,38422,5,8,0:0:0
304,144,38784,5,0,0:0:0
384,128,38965,1,0,0:0:0
384,128,39055,1,0,0:0:0
352,144,39145,5,8,0:0:0
352,144,39326,5,0,0:0:0
352,144,39507,1,0,0:0:0
352,144,39597,5,8,0:0:0
352,144,39687,5,0,0:0:0
352,144,39778,1,0,0:0:0
352,144,39868,5,8,0:0:0
352,144,40230,5,0,0:0:0
352,144,40410,1,0,0:0:0
384,128,40591,5,8,0:0:0
352,144,40772,5,0,0:0:0
352,144,40953,1,0,0:0:0
352,144,41133,1,0,0:0:0
352,144,41224,1,0,0:0:0
352,144,41314,5,8,0:0:0
352,144,41495,5,0,0:0:0
304,176,41675,1,0,0:0:0
352,144,41766,5,8,0:0:0
352,144,41856,5,0,0:0:0
304,176,42037,5,8,0:0:0
352,176,42218,5,0,0:0:0
352,176,42308,1,0,0:0:0
352,176,42398,1,0,0:0:0
352,176,42579,1,0,0:0:0
352,176,42669,1,0,0:0:0
352,144,42760,5,8,0:0:0
304,176,43121,5,0,0:0:0
352,144,43483,5,8,0:0:0
352,144,43663,5,0,0:0:0
352,144,43844,1,0,0:0:0
352,144,44206,5,8,0:0:0
352,144,44386,5,0,0:0:0
352,144,44567,5,8,0:0:0
352,144,44657,1,8,0:0:0
352,144,44748,1,8,0:0:0
352,144,44928,5,0,0:0:0
352,144,45109,1,0,0:0:0
352,144,45200,5,8,0:0:0
352,144,45290,5,0,0:0:0
272,144,45471,1,0,0:0:0
352,144,45651,5,8,0:0:0
352,144,45742,5,0,0:0:0
240,160,46013,1,0,0:0:0
336,112,46374,5,8,0:0:0
336,112,46555,5,0,0:0:0
400,128,46916,1,0,0:0:0
352,144,47097,5,8,0:0:0
336,112,47459,5,0,0:0:0
352,144,47549,5,8,0:0:0
352,144,47639,5,0,0:0:0
384,160,47820,1,0,0:0:0
384,160,47910,1,0,0:0:0
400,128,48001,5,8,0:0:0
400,128,48091,1,8,0:0:0
352,144,48181,5,0,0:0:0
352,144,48272,5,8,0:0:0
352,144,48362,5,0,0:0:0
224,160,48724,5,8,0:0:0
352,144,48904,5,4,0:0:0
256,128,49266,5,8,0:0:0
304,112,49627,5,0,0:0:0
304,112,49808,1,0,0:0:0
304,112,49989,5,8,0:0:0
352,144,50350,5,0,0:0:0
352,144,50531,1,0,0:0:0
352,144,50621,1,0,0:0:0
352,112,50712,5,8,0:0:0
352,144,50892,5,0,0:0:0
400,144,51073,1,0,0:0:0
400,144,51163,1,0,0:0:0
400,144,51344,1,0,0:0:0
384,112,51434,5,8,0:0:0
352,144,51615,5,0,0:0:0
352,144,51796,1,0,0:0:0
352,112,52157,5,8,0:0:0
304,144,52519,5,0,0:0:0
304,144,52700,1,0,0:0:0
304,144,52790,1,0,0:0:0
384,112,52880,5,8,0:0:0
384,144,53061,5,0,0:0:0
480,128,53242,1,0,0:0:0
352,144,53332,5,8,0:0:0
352,112,53422,5,0,0:0:0
304,144,53603,5,8,0:0:0
384,112,53784,5,0,0:0:0
384,112,53874,5,8,0:0:0
384,112,53965,5,0,0:0:0
384,112,54055,1,0,0:0:0
352,144,54145,5,8,0:0:0
352,144,54326,5,0,0:0:0
384,144,54507,5,12,0:0:0
240,160,54868,5,0,0:0:0
352,144,55049,5,8,0:0:0
352,144,55230,5,0,0:0:0
384,112,55591,1,0,0:0:0
384,144,55772,5,8,0:0:0
384,144,55862,1,8,0:0:0
384,144,55953,5,0,0:0:0
368,176,56133,5,8,0:0:0
368,176,56314,5,0,0:0:0
352,144,56495,5,8,0:0:0
352,144,56675,5,0,0:0:0
352,144,56766,5,8,0:0:0
384,144,56856,5,0,0:0:0
384,144,56947,1,0,0:0:0
320,208,57037,5,8,0:0:0
384,144,57218,5,0,0:0:0
384,144,57398,5,8,0:0:0
384,144,57489,5,0,0:0:0
384,144,57579,1,0,0:0:0
288,160,57760,1,0,0:0:0
352,144,57940,5,8,0:0:0
352,144,58121,5,0,0:0:0
432,160,58302,1,0,0:0:0
432,160,58483,1,0,0:0:0
384,144,58663,5,8,0:0:0
352,144,58844,5,0,0:0:0
352,144,59025,5,8,0:0:0
352,144,59206,5,0,0:0:0
352,144,59296,1,0,0:0:0
352,144,59386,1,0,0:0:0
352,144,59567,5,8,0:0:0
352,144,59748,5,0,0:0:0
352,144,59838,1,0,0:0:0
352,144,59928,1,0,0:0:0
384,144,60109,5,8,0:0:0
368,176,60290,5,0,0:0:0
368,176,60380,1,0,0:0:0
368,176,60471,5,8,0:0:0
304,160,60651,5,0,0:0:0
304,160,60742,1,0,0:0:0
304,160,60832,1,0,0:0:0
304,160,60922,1,0,0:0:0
384,144,61013,5,8,0:0:0
352,144,61193,5,0,0:0:0
352,144,61374,1,0,0:0:0
304,160,61465,5,8,0:0:0
352,144,61555,5,0,0:0:0
352,144,61736,5,12,0:0:0
240,160,62097,5,0,0:0:0
352,144,62278,5,8,0:0:0
352,144,62368,1,8,0:0:0
352,144,62459,5,0,0:0:0
272,160,62639,1,0,0:0:0
272,160,62820,1,0,0:0:0
304,160,63001,5,8,0:0:0
304,160,63091,5,0,0:0:0
304,160,63181,5,8,0:0:0
304,160,63362,5,0,0:0:0
304,160,63543,1,0,0:0:0
304,160,63724,5,8,0:0:0
352,144,63904,5,4,0:0:0
304,128,64266,1,0,0:0:0
304,128,64356,1,0,0:0:0
352,144,64447,5,8,0:0:0
352,144,64627,5,4,0:0:0
400,128,64989,1,0,0:0:0
400,128,65079,1,0,0:0:0
400,128,65169,5,8,0:0:0
400,128,65260,5,0,0:0:0
400,128,65350,1,0,0:0:0
224,112,65440,1,0,0:0:0
304,128,65531,5,8,0:0:0
304,128,65712,5,0,0:0:0
352,144,65892,5,8,0:0:0
352,112,65983,5,0,0:0:0
352,112,66073,1,0,0:0:0
352,144,66163,5,8,0:0:0
352,112,66254,5,0,0:0:0
176,176,66434,1,0,0:0:0
352,144,66615,5,8,0:0:0
352,144,66706,1,8,0:0:0
352,144,66796,1,8,0:0:0
256,144,66977,5,0,0:0:0
256,144,67157,1,0,0:0:0
256,144,67248,1,0,0:0:0
320,128,67338,5,8,0:0:0
352,144,67519,5,4,0:0:0
352,144,67880,1,0,0:0:0
384,112,68061,5,8,0:0:0
384,112,68151,1,8,0:0:0
352,176,68242,5,0,0:0:0
256,144,68422,5,8,0:0:0
256,144,68603,5,0,0:0:0
352,144,68784,1,0,0:0:0
320,128,68874,1,0,0:0:0
384,112,68965,5,8,0:0:0
352,112,69326,5,0,0:0:0
352,144,69507,5,8,0:0:0
352,144,69687,5,0,0:0:0
320,128,69868,1,0,0:0:0
320,128,69959,1,0,0:0:0
320,128,70049,1,0,0:0:0
320,128,70139,1,0,0:0:0
352,144,70230,5,8,0:0:0
352,112,70410,5,0,0:0:0
352,112,70591,1,0,0:0:0
400,128,70772,1,0,0:0:0
400,128,70862,5,8,0:0:0
400,128,70953,1,8,0:0:0
400,128,71133,5,0,0:0:0
400,128,71314,1,0,0:0:0
352,144,71404,5,8,0:0:0
352,144,71495,1,8,0:0:0
384,96,71675,5,0,0:0:0
256,192,71856,1,0,0:0:0
400,128,72037,1,0,0:0:0
400,128,72128,5,8,0:0:0
416,96,72218,1,8,0:0:0
352,144,72308,5,0,0:0:0
352,144,72398,1,0,0:0:0
352,144,72579,1,0,0:0:0
352,144,72760,5,12,0:0:0
352,144,72940,1,12,0:0:0
400,128,73302,5,4,0:0:0
224,112,73663,1,0,0:0:0
352,144,73844,5,8,0:0:0
352,144,73934,5,0,0:0:0
352,144,74025,5,8,0:0:0
400,128,74206,5,0,0:0:0
352,144,74386,1,0,0:0:0
352,144,74567,5,8,0:0:0
352,144,74657,1,8,0:0:0
352,144,74748,5,0,0:0:0
352,144,75109,1,0,0:0:0
352,144,75290,1,0,0:0:0
400,96,75471,5,8,0:0:0
400,96,75561,1,8,0:0:0
400,128,75651,5,0,0:0:0
400,96,75742,5,8,0:0:0
400,128,75832,5,0,0:0:0
256,192,76013,1,0,0:0:0
336,112,76193,5,12,0:0:0
288,160,76555,5,0,0:0:0
288,160,76645,1,0,0:0:0
352,144,76736,5,8,0:0:0
320,144,76916,5,0,0:0:0
256,192,77097,1,0,0:0:0
288,160,77187,5,8,0:0:0
400,128,77278,1,8,0:0:0
400,128,77368,5,0,0:0:0
400,128,77459,5,8,0:0:0
416,160,77549,1,8,0:0:0
352,144,77639,5,0,0:0:0
400,128,78001,1,0,0:0:0
400,128,78182,5,8,0:0:0
400,128,78362,1,8,0:0:0
304,128,78543,1,8,0:0:0
400,96,78633,5,0,0:0:0
400,128,78724,5,8,0:0:0
336,192,78814,1,8,0:0:0
400,128,78904,5,0,0:0:0
384,160,79085,5,12,0:0:0
400,128,79447,5,0,0:0:0
368,128,79627,5,8,0:0:0
400,128,79808,5,0,0:0:0
304,128,79989,1,0,0:0:0
304,128,80079,1,0,0:0:0
304,128,80169,1,0,0:0:0
400,128,80350,5,8,0:0:0
384,160,80531,1,12,0:0:0
304,128,80892,5,0,0:0:0
432,128,81073,5,8,0:0:0
400,128,81254,5,0,0:0:0
320,160,81434,1,0,0:0:0
320,160,81525,1,0,0:0:0
400,128,81615,5,8,0:0:0
400,128,81706,1,8,0:0:0
400,128,81796,5,0,0:0:0
400,128,81977,5,8,0:0:0
400,128,82157,5,4,0:0:0
432,128,82519,5,8,0:0:0
400,128,82700,5,0,0:0:0
288,144,83061,1,0,0:0:0
368,128,83242,5,8,0:0:0
368,128,83422,5,0,0:0:0
320,160,84145,1,0,0:0:0
320,160,84236,1,0,0:0:0
400,144,84326,5,8,0:0:0
400,144,84507,1,8,0:0:0
368,128,84687,5,4,0:0:0
368,128,84868,5,12,0:0:0
