osu file format v11

[General]
AudioFilename: Alicemagic TV Size.mp3
AudioLeadIn: 1000
PreviewTime: 14567
Countdown: 1
SampleSet: Normal
StackLeniency: 0.7
Mode: 1
LetterboxInBreaks: 1

[Editor]
DistanceSpacing: 0.8
BeatDivisor: 4
GridSize: 16

[Metadata]
Title:Alicemagic -TV animation ver.-
TitleUnicode:Alicemagic -TV animation ver.-
Artist:Rita
ArtistUnicode:Rita
Creator:Jing
Version:Taiko Futsuu
Source:
Tags:
BeatmapID:210449
BeatmapSetID:74006

[Difficulty]
HPDrainRate:5
CircleSize:5
OverallDifficulty:5
ApproachRate:5
SliderMultiplier:1
SliderTickRate:1

[Events]
//Background and Video events
0,0,"3.jpg"
//Break Periods
//Storyboard Layer 0 (Background)
//Storyboard Layer 1 (Fail)
//Storyboard Layer 2 (Pass)
//Storyboard Layer 3 (Foreground)
//Storyboard Sound Samples
//Background Colour Transformations
3,100,163,162,255

[TimingPoints]
1194,361.44578313253,4,1,0,100,1,0
61916,-100,4,1,0,100,0,1
84868,-100,4,1,0,100,0,0

[HitObjects]
256,192,1194,21,8,0:0:0
256,192,1736,5,0,0:0:0
256,192,2278,5,8,0:0:0
256,192,2639,5,0,0:0:0
256,192,3362,1,0,0:0:0
256,192,4085,1,0,0:0:0
256,192,4808,1,0,0:0:0
256,192,5169,5,8,0:0:0
256,192,5531,5,0,0:0:0
256,192,6254,1,0,0:0:0
256,192,6977,1,0,0:0:0
256,192,7700,1,0,0:0:0
256,192,8061,5,8,0:0:0
256,192,8422,5,0,0:0:0
256,192,9145,1,0,0:0:0
256,192,9868,1,0,0:0:0
256,192,10591,1,0,0:0:0
256,192,10953,5,8,0:0:0
256,192,11314,5,0,0:0:0
256,192,12037,1,0,0:0:0
256,192,12398,1,0,0:0:0
256,192,12579,5,12,0:0:0
256,192,13483,5,0,0:0:0
256,192,13844,5,8,0:0:0
256,192,14206,5,0,0:0:0
256,192,14928,5,8,0:0:0
256,192,15651,5,0,0:0:0
256,192,16374,5,8,0:0:0
256,192,16736,5,0,0:0:0
256,192,17097,1,0,0:0:0
256,192,17820,5,8,0:0:0
256,192,18543,5,0,0:0:0
256,192,19266,5,8,0:0:0
256,192,19627,5,0,0:0:0
256,192,19989,1,0,0:0:0
256,192,20350,5,8,0:0:0
256,192,21073,1,8,0:0:0
256,192,21434,5,0,0:0:0
256,192,21796,5,8,0:0:0
256,192,22519,1,8,0:0:0
256,192,22880,5,0,0:0:0
256,192,23603,1,0,0:0:0
256,192,23965,5,8,0:0:0
256,192,24145,5,4,0:0:0
256,192,24507,5,8,0:0:0
256,192,25049,5,0,0:0:0
288,192,25591,5,8,0:0:0
288,192,26133,5,0,0:0:0
288,192,26856,1,0,0:0:0
288,192,27579,1,0,0:0:0
288,192,27940,5,8,0:0:0
288,192,28302,5,0,0:0:0
288,192,28663,1,0,0:0:0
288,192,29025,5,8,0:0:0
288,192,29748,1,8,0:0:0
288,192,30471,1,8,0:0:0
288,192,30832,5,0,0:0:0
288,192,31193,1,0,0:0:0
288,192,31555,1,0,0:0:0
288,192,32278,5,8,0:0:0
288,192,33001,5,0,0:0:0
288,192,33724,5,8,0:0:0
288,192,34447,5,0,0:0:0
288,192,34808,5,8,0:0:0
288,192,35531,1,8,0:0:0
288,192,35892,5,0,0:0:0
288,192,36615,1,0,0:0:0
288,192,36977,5,8,0:0:0
288,192,37338,5,0,0:0:0
288,192,38061,1,0,0:0:0
288,192,38422,1,0,0:0:0
288,192,38784,1,0,0:0:0
288,192,39507,1,0,0:0:0
288,192,39868,5,8,0:0:0
288,192,40230,5,0,0:0:0
288,192,40953,1,0,0:0:0
288,192,41314,1,0,0:0:0
288,192,41675,1,0,0:0:0
288,192,42398,1,0,0:0:0
288,192,42760,5,8,0:0:0
288,192,43121,5,0,0:0:0
288,192,43844,5,8,0:0:0
288,192,44206,5,0,0:0:0
288,192,44567,1,0,0:0:0
288,192,45290,5,8,0:0:0
288,192,45651,5,0,0:0:0
288,192,46013,1,0,0:0:0
320,208,46736,1,0,0:0:0
320,208,47097,5,8,0:0:0
288,192,47459,5,0,0:0:0
320,208,47820,1,0,0:0:0
320,208,48181,5,8,0:0:0
320,208,48904,5,0,0:0:0
320,208,49266,5,8,0:0:0
320,208,49989,1,8,0:0:0
320,208,50350,5,0,0:0:0
352,176,50712,5,8,0:0:0
320,208,51434,1,8,0:0:0
320,208,51796,5,0,0:0:0
320,208,52519,5,8,0:0:0
320,208,52880,5,0,0:0:0
320,208,53242,1,0,0:0:0
320,208,53603,5,8,0:0:0
320,208,54326,1,8,0:0:0
320,208,54687,5,0,0:0:0
320,208,55049,5,8,0:0:0
320,208,55772,1,8,0:0:0
320,208,56133,5,0,0:0:0
320,208,56495,1,0,0:0:0
320,208,56856,5,8,0:0:0
320,208,57218,5,0,0:0:0
320,208,57579,1,0,0:0:0
320,208,58302,1,0,0:0:0
320,208,59025,1,0,0:0:0
320,208,59748,5,8,0:0:0
320,208,60471,5,0,0:0:0
320,208,61013,5,8,0:0:0
320,208,61736,5,4,0:0:0
320,208,62278,5,8,0:0:0
320,208,63001,1,8,0:0:0
320,208,63724,1,8,0:0:0
320,208,64085,5,0,0:0:0
320,208,64447,1,0,0:0:0
352,160,65169,5,8,0:0:0
352,160,65892,1,8,0:0:0
352,160,66615,1,8,0:0:0
368,112,66977,5,0,0:0:0
368,112,67338,1,0,0:0:0
352,160,68061,5,8,0:0:0
352,160,68784,1,8,0:0:0
352,160,69507,1,8,0:0:0
368,128,69868,5,0,0:0:0
368,128,70230,1,0,0:0:0
368,128,70591,1,0,0:0:0
368,128,71133,1,0,0:0:0
368,128,71856,1,0,0:0:0
368,128,72760,5,12,0:0:0
368,128,73302,5,4,0:0:0
368,128,73844,5,8,0:0:0
368,128,74567,1,8,0:0:0
400,144,75290,1,8,0:0:0
400,144,75651,5,0,0:0:0
400,144,76013,1,0,0:0:0
400,144,76736,5,8,0:0:0
320,176,77459,1,8,0:0:0
256,160,78181,1,8,0:0:0
320,176,78543,5,0,0:0:0
320,176,78904,1,0,0:0:0
320,176,79266,5,8,0:0:0
352,144,79989,5,0,0:0:0
320,176,80350,5,8,0:0:0
368,176,80712,5,0,0:0:0
352,144,81434,5,8,0:0:0
368,176,81796,5,0,0:0:0
368,176,82157,1,0,0:0:0
368,176,82700,5,8,0:0:0
368,176,83422,5,0,0:0:0
368,176,84326,5,12,0:0:0
352,144,84687,5,0,0:0:0
368,176,84868,5,12,0:0:0
