osu file format v7

[General]
AudioFilename: 8 Alicemagic -Blasterhead Remix-.mp3
AudioLeadIn: 0
PreviewTime: 75888
Countdown: 1
SampleSet: Normal
StackLeniency: 0.7
Mode: 0
LetterboxInBreaks: 1
StoryFireInFront: 0
SkinPreference:Default

[Editor]
Bookmarks: 6325,9216,12108,14999,17891,20782,23674,29457,74276,105180,155240,185963,213523
DistanceSpacing: 1
BeatDivisor: 4
GridSize: 8

[Metadata]
Title:Alicemagic (Blasterhead Remix)
Artist:Rita
Creator:regenz
Version:Insane
Source:Little Busters! Ex
Tags:key vincerio

[Difficulty]
HPDrainRate:6
CircleSize:4
OverallDifficulty:8
SliderMultiplier:1.8
SliderTickRate:0.5

[Events]
//Background and Video events
0,0,"sayabg.jpg"
//Break Periods
2,100508,105703
2,182918,189197
//Storyboard Layer 0 (Background)
Sprite,Background,Centre,"komari04.jpg",320,240 F,2,192469,192831,0,1 S,0,192816,198599,1.25,1 F,0,192831,198599,1
Sprite,Background,Centre,"komari06.jpg",320,240 F,2,196806,197168,0,1 S,0,197153,202936,1.25,1 F,0,197168,202936,1
Sprite,Background,Centre,"komari07.jpg",320,240 F,2,201144,201505,0,1 S,0,201490,207273,1.25,1 F,0,201505,207273,1
Sprite,Background,Centre,"komari08.jpg",320,240 F,0,205481,205843,0,1 S,0,205828,211611,1.25,1 F,0,205843,,1 F,0,210541,210903,1,0
Sprite,Background,Centre,"doll2.jpg",320,239 F,0,212710,213071,0,1 S,0,213071,,1 M,0,213071,215963,320,239 F,0,213071,215963,1 F,0,215963,216144,1,0
Sprite,Background,Centre,"saya01.jpg",320,240 F,2,215602,215963,0,1 S,0,215948,221731,1.25,1 F,0,215963,221731,1
Sprite,Background,Centre,"saya02.jpg",320,240 F,2,219939,220300,0,1 S,0,220285,226069,1.25,1 F,0,220300,223177,1 F,0,223177,226069,1
Sprite,Background,Centre,"saya03.jpg",320,240 F,2,224276,224638,0,1 S,0,224623,230406,1.25,1 F,0,224638,230406,1
Sprite,Background,Centre,"saya04.jpg",320,240 F,2,228614,228975,0,1 S,0,228960,234743,1.25,1 F,0,228975,234743,1
Sprite,Background,Centre,"allwsaya.jpg",320,240 F,2,232951,233312,0,1 M,0,233297,240526,320,240,320,244 S,1,233297,240526,2.1,1.04 F,1,233312,246505,1 M,0,240526,246686,320,244 F,0,246505,246686,1,0
//Storyboard Layer 1 (Fail)
//Storyboard Layer 2 (Pass)
//Storyboard Layer 3 (Foreground)
Sprite,Foreground,Centre,"etext38.png",320,240 F,2,193734,193915,0,1 M,0,193915,196445,320,444
Sprite,Foreground,Centre,"etext39.png",320,240 F,2,196806,196987,0,1 M,0,196987,199337,320,444
Sprite,Foreground,Centre,"etext4a.png",320,240 F,2,199698,199879,0,1 M,0,199879,204397,320,442
Sprite,Foreground,Centre,"etext41.png",320,240 F,2,205120,205300,0,1 M,0,205300,208011,320,443
Sprite,Foreground,Centre,"etext42.png",320,240 F,2,208373,208553,0,1 M,0,208553,210903,320,444
Sprite,Foreground,Centre,"etext43.png",320,240 F,2,211264,211445,0,0.9081604 M,0,211445,215963,320,441
Sprite,Foreground,Centre,"etext13.png",320,240 F,2,216686,216867,0,1 M,0,216867,219578,320,442
Sprite,Foreground,Centre,"effectflash.jpg",320,240 M,0,217032,,320,250 F,0,217032,217290,0,0.42 S,0,217032,217394,0.144,2.76 F,0,217290,217394,0.42,1 S,0,217394,,2.76 F,0,217394,217575,1 F,0,217575,217951,1,0
Sprite,Foreground,Centre,"etext14.png",320,240 F,2,220120,220300,0,1 M,0,220300,222469,320,445
Sprite,Foreground,Centre,"etext15.png",320,240 F,2,222831,223011,0,1 M,0,223011,227710,320,444
Sprite,Foreground,Centre,"etext16.png",320,240 F,2,228252,228429,0,1 M,0,228429,231234,320,447
Sprite,Foreground,Centre,"etext17.png",320,240 F,2,231505,231686,0,1 M,0,231686,,320,445 M,0,231686,234035,320,445
Sprite,Foreground,Centre,"etext18.png",320,240 F,2,234216,234397,0,1 M,0,234397,239276,320,445
//Storyboard Sound Samples
//Background Colour Transformations
3,100,0,0,0

[TimingPoints]
6333,361.44578313253,4,1,1,60,1,0
25851,-100,4,1,1,60,0,0
27839,-100,4,1,1,70,0,0
28019,-100,4,1,1,71,0,0
28200,-100,4,1,1,72,0,0
28381,-100,4,1,1,72,0,0
28561,-100,4,1,1,81,0,0
28742,-100,4,1,1,90,0,0
28923,-100,4,1,1,100,0,0
29104,-100,4,1,1,60,0,0
75640,-100,4,1,1,75,0,0
75820,-100,4,1,1,80,0,0
76182,-100,4,1,1,90,0,0
76363,-100,4,1,1,95,0,0
76543,-100,4,1,1,80,0,0
76995,-100,4,1,1,80,0,0
77176,-100,4,1,1,80,0,1
100308,-100,4,1,1,60,0,0
109706,-100,4,1,1,30,0,0
109887,-100,4,1,1,34,0,0
110067,-100,4,1,1,44,0,0
110248,-100,4,1,1,44,0,0
110429,-100,4,1,1,50,0,0
110610,-100,4,1,1,55,0,0
110790,-100,4,1,1,60,0,0
110971,-100,4,1,1,71,0,0
111875,-100,4,1,1,61,0,0
155519,-100,4,1,1,40,0,0
156061,-100,4,1,1,60,0,0
156604,-100,4,1,1,60,0,0
157146,-100,4,1,1,70,0,0
157688,-100,4,1,1,80,0,0
158230,-100,4,1,1,90,0,0
158772,-100,4,1,1,100,0,0
159586,-100,4,1,1,80,0,1
180188,-100,4,1,1,20,0,0
180549,-100,4,1,1,51,0,0
180911,-100,4,1,1,70,0,0
181272,-100,4,1,1,91,0,0
181634,-100,4,1,1,100,0,0
181995,-100,4,1,1,100,0,0
182357,-100,4,1,1,80,0,0
182718,-100,4,1,1,60,0,0
192839,-100,4,1,1,50,0,0
202055,-100,4,1,1,50,0,0
203320,-100,4,1,1,60,0,0
203682,-100,4,1,1,70,0,0
204043,-100,4,1,1,80,0,0
204405,-100,4,1,1,90,0,0
204766,-100,4,1,1,100,0,0
205128,-100,4,1,1,100,0,0
205308,-100,4,1,1,60,0,0
215881,-100,4,1,1,60,0,0
216061,-100,4,1,1,70,0,0
216242,-100,4,1,1,80,0,0
216423,-100,4,1,1,90,0,0
216875,-100,4,1,1,100,0,0
217417,-100,4,1,1,80,0,1
240549,-100,4,1,0,60,0,0
756009,-100,4,1,1,85,0,0

[Colours]
Combo1 : 239,5,122
Combo2 : 122,239,5
Combo3 : 5,122,239

[HitObjects]
88,56,6333,1,0
88,144,6513,2,0,B|88:248,1,90,0|8
88,328,6875,1,0
296,328,7055,6,0,B|296:216,1,90
296,56,7417,2,0,B|296:168,1,90,8|0
384,192,7778,5,0
296,192,7959,1,0
208,192,8140,2,0,B|96:192,2,90,8|0|0
40,104,8682,5,0
40,280,8863,1,8
256,192,9224,5,4
440,192,9586,1,8
440,104,9766,2,0,B|336:104,1,90
256,104,10128,1,0
168,104,10308,2,0,B|168:200,2,90,8|0|0
256,104,10851,2,0,B|256:224,1,90,0|8
392,192,11212,5,0
256,328,11393,1,0
128,192,11573,1,0
256,56,11754,1,8
480,192,12116,5,4
392,192,12296,2,0,B|392:96,2,90,0|8|0
304,192,12839,2,0,B|200:192,1,90,0|0
72,192,13200,5,8
176,304,13381,1,0
328,304,13561,1,0
432,192,13742,1,0
328,80,13923,1,8
176,80,14104,2,0,B|40:80,2,90
72,192,14646,1,8
256,192,15007,5,4
336,112,15188,2,0,B|416:40,1,90,0|8
336,272,15549,2,0,B|408:352,1,90,0|0
256,192,15911,1,0
176,272,16092,2,0,B|96:344,1,90,8|0
176,112,16453,2,0,B|104:32,1,90,0|0
336,112,16814,2,0,B|416:40,1,90,8|0
336,272,17176,2,0,B|408:352,2,90,0|0|8
176,192,17899,6,0,B|80:192,1,90,4|0
176,280,18260,6,0,B|176:176,1,90,8|0
264,280,18622,6,0,B|168:280,1,90,0|0
264,192,18983,6,0,B|264:296,1,90,8|0
352,192,19345,2,0,B|352:96,2,90,0|0|8
256,80,19887,5,0
144,192,20067,1,0
256,304,20248,1,0
368,192,20429,1,8
56,48,20790,5,4
144,64,20971,2,0,B|192:32|240:104,1,90,0|8
168,152,21332,1,0
256,192,21513,1,0
360,88,21694,6,0,B|424:88|424:152,1,90,0|8
152,296,22055,2,0,B|88:296|88:232,1,90,0|0
360,88,22417,2,0,B|424:88|424:152,1,90,0|8
328,240,22778,2,0,B|272:248|240:152,1,90
184,152,23140,2,0,B|248:152|264:216,1,90,0|8
72,56,23682,5,4
432,56,24043,2,0,B|432:136|432:160,1,90,8|0
432,328,24405,2,0,B|296:328,1,90
160,328,24766,2,0,B|48:328,2,90,8|0|4
416,72,25851,5,0
352,128,26031,2,0,B|280:184,1,90,0|8
208,240,26393,1,0
280,184,26573,1,4
208,128,26754,2,0,B|128:56,1,90,0|12
72,128,27116,2,0,B|168:208,1,90,0|4
88,256,27477,2,0,B|184:336,1,90,4|4
248,320,27839,2,4,B|248:376,14,45,0|0|0|0|0|0|0|0|0|0|0|0|0|0|0
160,40,29465,6,0,B|344:40,1,180,0|8
256,200,30007,1,0
80,200,30188,1,0
256,200,30369,1,0
424,200,30549,1,8
256,320,30730,2,0,B|256:96,1,180
304,80,31272,6,0,B|184:80,1,90,8|0
128,112,31634,1,0
216,168,31814,2,0,B|312:168,2,90,0|8|0
256,248,32357,1,0
176,288,32537,2,0,B|288:344,1,90,0|8
344,336,32899,1,0
424,312,33079,2,0,L|376:232|376:232|432:120,1,180,0|8
256,24,33622,5,0
96,152,33802,1,4
256,280,33983,1,0
416,152,34164,2,0,L|320:152,1,90,8|0
328,64,34525,6,0,C|424:64,2,90,0|0|8
120,64,35067,1,0
120,272,35248,1,0
328,272,35429,1,0
328,64,35610,6,0,C|328:160,2,90,8|0|0
400,152,36152,2,0,C|400:48,1,90,8|8
400,152,36513,2,0,C|400:256,1,90
208,336,37055,5,8
208,248,37236,2,0,C|96:248,1,90
208,160,37598,2,0,C|208:280,1,90,8|8
296,248,37959,2,0,C|400:248,2,90
256,328,38501,1,8
64,248,38682,6,0,C|64:120,1,90
256,88,39043,1,0
448,184,39224,1,8
264,184,39586,5,0
352,192,39766,2,0,B|384:144|312:80,1,90,0|8
256,88,40128,2,0,B|200:48|160:112,1,90
72,192,40489,5,0
256,296,40670,1,8
440,192,40851,1,2
168,192,41393,6,0,B|56:192,1,90,8|0
256,120,41754,2,0,C|256:16,1,90
336,192,42116,2,0,C|440:192,1,90,8|0
256,256,42477,2,0,C|256:352,1,90
304,152,42839,2,0,C|368:88,2,90,8|0|0
208,152,43381,2,0,C|144:88,2,90,0|8|0
256,256,43923,1,4
256,80,44284,5,8
72,80,44646,2,0,C|72:192,1,90
160,176,45007,2,0,C|160:288,2,90,8|0|0
256,80,45549,2,0,C|256:192,1,90,0|8
344,176,45911,2,0,C|344:304,2,90
472,328,46453,5,8
472,40,46814,1,0
40,32,47176,1,8
40,328,47537,1,0
256,192,47899,5,8
128,64,48260,2,0,C|80:24|48:72|112:120,1,180,0|8
256,192,48983,1,0
384,320,49345,2,0,C|432:360|464:312|400:264,1,180,8|0
256,344,50067,5,8
184,288,50248,2,0,C|104:216,1,90
48,176,50610,1,0
120,120,50790,2,0,C|192:64,3,90,8|0|0|0
256,8,51513,1,8
392,120,51875,1,8
232,40,52236,2,0,C|128:40,1,90,8|0
16,192,52598,5,0
136,344,52778,1,0
256,192,52959,2,0,C|136:192,2,90,8|0|0
376,344,53501,1,0
488,192,53682,1,8
376,40,53863,1,0
256,192,54043,1,0
72,200,54405,6,0,L|72:288|176:288,1,180,8|0
256,288,54947,1,0
256,192,55128,2,0,L|256:88,2,90,8|0|0
256,8,55851,5,8
504,360,56212,1,8
8,360,56573,1,8
256,192,56935,5,8
192,128,57116,1,4
320,256,57477,1,0
384,192,57658,2,0,L|384:80,1,90,8|0
128,192,58200,2,0,L|128:304,1,90,0|8
384,192,58742,2,0,L|384:80,2,90,8|8|8
256,16,59465,5,8
256,104,59646,1,0
256,192,59826,1,0
256,280,60007,1,8
256,368,60188,6,0,L|256:160,1,180,8|4
256,192,60911,12,4,63802
416,328,64164,6,0,L|208:328,1,180,0|8
56,328,64887,1,8
56,56,65248,1,8
168,192,65610,2,0,L|168:296,1,90
352,192,65971,2,0,L|352:312,1,90,8|0
264,280,66333,2,0,L|264:176,2,90,0|0|8
264,96,67055,1,0
416,192,67417,5,8
320,288,67598,1,0
224,192,67778,1,0
320,96,67959,1,0
472,192,68140,5,8
320,344,68320,1,0
168,192,68501,1,0
72,32,68863,6,0,L|176:32,1,90,8|0
256,32,69224,1,0
440,32,69405,2,0,L|320:32,1,90,0|8
448,344,69947,5,0
256,344,70128,1,0
64,344,70308,1,8
256,32,70670,1,0
256,344,71031,5,8
384,104,71212,2,0,L|280:184,2,90
128,104,71754,2,0,L|208:168,2,90,8|0|0
256,344,72296,2,0,L|256:240,2,90,0|8|0
256,192,72839,12,0,75369
72,64,75730,5,4
256,64,76092,2,0,B|200:64,4,45
432,64,76814,1,8
256,64,77176,5,0
256,152,77357,2,0,B|256:272,1,90,0|8
256,336,77718,1,0
344,336,77899,2,0,L|344:152,1,180,0|8
168,336,78622,2,0,L|168:144,1,180,0|8
256,152,79164,2,0,L|256:48,2,90
256,240,79706,1,8
432,240,80067,2,0,L|432:144,2,90,0|0|8
344,240,80610,2,0,L|344:136,1,90
160,80,80971,5,0
160,304,81152,1,8
496,192,81513,2,0,L|312:192,1,180,0|8
224,192,82055,1,0
496,192,82598,5,8
432,128,82778,2,0,L|368:64,2,90
368,192,83320,1,8
8,192,83682,6,0,L|8:296,1,90
80,192,84043,2,0,L|80:312,1,90,8|0
152,192,84405,2,0,L|152:296,1,90
320,280,84766,5,8
320,104,84947,1,0
448,192,85128,2,0,L|336:192,2,90,0|0|8
152,96,85851,6,0,L|240:176,1,90
152,288,86212,2,0,L|240:208,1,90,8|0
360,288,86573,2,0,L|272:208,1,90
360,96,86935,2,0,L|272:176,1,90,8|0
152,192,87296,5,0
240,192,87477,2,0,B|240:256,6,45,0|0|8|0|0|0|8
232,104,88200,2,0,L|120:104,1,90,0|8
56,104,88561,1,0
120,168,88742,1,0
192,224,88923,1,0
280,224,89104,2,0,L|368:288,2,90,8|0|0
352,168,89646,1,0
416,104,89826,1,8
336,64,90007,2,0,L|216:64,2,90
152,64,90549,5,8
24,192,90730,1,0
152,312,90911,1,0
288,192,91092,1,0
152,64,91272,1,8
416,312,91634,5,4
416,136,91995,2,0,L|320:56,2,90,8|0|0
232,136,92718,1,8
320,136,92899,1,0
320,312,93260,2,0,L|216:232,2,90,0|8|0
216,64,94164,6,0,B|272:24|320:88,1,90,8|0
256,144,94525,1,0
296,224,94706,2,0,B|240:264|192:200,1,90,0|8
72,336,95248,1,8
256,336,95610,5,8
400,192,95790,1,0
256,48,95971,1,0
112,192,96152,2,0,B|232:192,1,90,0|8
504,192,96694,5,0
352,104,96875,1,0
352,280,97055,1,8
8,192,97417,6,0,B|192:192,1,180,0|8
352,104,97959,1,0
504,192,98140,1,0
352,280,98320,1,0
192,192,98501,1,8
472,96,98863,6,4,B|384:168,1,90
472,288,99224,2,4,B|384:216,1,90,4|4
40,96,99766,5,0
40,192,99947,2,4,B|136:192,1,90
40,280,100308,1,4
256,192,106453,12,4,109345
8,192,109706,5,4
72,128,109887,1,0
136,192,110067,1,4
72,256,110248,1,0
136,192,110429,1,4
200,256,110610,1,0
256,192,110790,2,0,B|256:96,1,90,4|0
256,16,111152,5,4
256,104,111332,1,0
256,192,111513,1,4
256,280,111694,1,0
256,368,111875,1,4
408,192,112236,6,0,B|504:192,2,90,8|0|0
192,192,112959,1,8
104,192,113140,2,0,B|-16:192,2,90
192,192,113682,1,8
256,128,113863,1,0
320,192,114043,1,0
256,256,114224,1,0
192,192,114405,1,8
256,360,114766,5,0
128,232,115128,2,0,B|96:168|152:120,1,90,8|0
216,64,115489,2,0,B|280:32|328:88,1,90
384,152,115851,2,0,B|416:216|360:264,2,90,8|0|0
120,192,116573,6,0,B|24:192,2,90,8|0|0
392,192,117296,2,0,B|488:192,2,90,8|0|0
256,360,118019,2,0,B|256:256,1,90,8|0
256,88,118561,5,0
256,176,118742,1,8
256,264,118923,2,0,B|256:360,1,90
424,72,119465,5,8
512,192,119646,1,0
424,304,119826,1,0
128,192,120188,5,8
304,240,120549,2,0,B|344:336,1,90
248,328,120911,1,8
304,144,121092,2,0,B|344:48,1,90
432,64,121453,1,0
216,192,121634,2,0,B|112:192,1,90,8|0
120,104,121995,1,0
512,192,122357,5,8
336,192,122718,2,0,B|224:192,2,90,0|0|8
256,72,123260,1,0
256,312,123441,1,4
72,72,123802,6,0,B|168:72,1,90,8|0
72,192,124164,2,0,B|176:192,1,90
72,312,124525,2,0,B|168:312,1,90,8|0
440,72,124887,6,0,B|344:72,1,90
440,192,125248,2,0,B|344:192,1,90,8|0
440,312,125610,2,0,B|344:312,1,90
256,192,125971,1,8
256,16,126332,6,0,B|336:72,1,90
336,160,126694,1,8
336,248,126875,1,0
336,336,127055,2,0,B|232:272,1,90,0|0
64,288,127417,5,8
64,96,127598,1,0
200,192,127778,1,0
304,48,128140,6,0,B|256:24|200:48,1,90,8|0
256,128,128501,1,0
320,192,128682,1,0
256,256,128863,1,8
304,344,129043,2,0,B|256:360|200:336,1,90
256,32,129586,5,8
344,32,129766,6,0,B|248:32,1,90
344,120,130128,6,0,B|344:16,1,90,0|8
432,120,130489,6,0,B|296:120,1,90
432,208,130851,6,0,B|432:96,1,90,0|8
344,208,131212,6,0,B|448:208,1,90
344,296,131573,6,0,B|344:184,1,90,0|8
184,296,132116,1,0
504,304,132477,6,0,B|504:168,1,90,8|0
504,32,133019,1,0
432,88,133200,1,8
360,144,133381,1,0
288,200,133561,1,0
216,256,133742,1,0
144,312,133923,1,8
8,192,134284,1,8
408,192,134646,6,0,B|544:192,2,90,8|0|0
320,192,135188,1,0
256,128,135369,1,8
192,192,135549,1,0
256,256,135730,1,0
192,192,135911,1,0
104,192,136092,2,0,B|8:192,2,90,8|0|0
256,80,136814,5,8
368,192,136995,1,0
256,304,137176,1,0
144,192,137357,1,0
256,32,137537,5,8
416,192,137718,1,0
256,352,137899,1,0
96,192,138079,2,0,B|0:192,1,90,0|8
256,192,138622,1,8
112,80,138983,6,0,B|224:80,1,90,8|0
400,80,139345,2,0,B|288:80,1,90
400,304,139706,2,0,B|288:304,1,90,8|0
104,304,140067,2,0,B|216:304,1,90
200,192,140429,5,8
256,264,140610,1,0
312,192,140790,1,8
256,120,140971,1,0
256,32,141152,2,0,B|352:32,2,90,8|0|0
0,192,141875,5,8
512,192,142236,1,0
344,56,142598,6,0,B|344:168,1,90,8|0
256,152,142959,2,0,B|256:264,1,90,8|0
168,240,143320,2,0,B|168:344,1,90,8|0
256,352,143682,1,0
504,192,144043,5,8
328,192,144224,2,0,B|424:192,1,90
96,192,144766,2,0,B|216:192,1,90,8|0
8,192,145128,1,0
256,0,145489,5,4
400,104,145851,2,0,B|400:208,1,90
312,192,146212,2,0,B|200:192,1,90,8|0
128,192,146573,2,0,B|128:288,2,90,0|0|8
208,32,147296,1,0
304,32,147477,1,0
256,104,147658,1,8
32,192,148019,5,8
120,192,148200,1,0
208,192,148381,1,8
296,192,148561,1,0
384,192,148742,1,8
472,192,148923,6,0,B|176:192,1,270,0|8
480,352,149826,6,0,B|400:296,1,90,8|0
32,32,150369,2,0,B|112:88,1,90,0|8
256,192,150911,1,8
432,192,151272,5,8
480,120,151453,1,0
432,48,151634,1,0
384,120,151814,1,0
328,48,151995,1,8
272,120,152176,1,0
328,192,152357,1,0
240,192,152537,6,0,L|240:288,2,90,0|8|0
152,192,153079,1,0
208,120,153260,1,0
152,48,153441,1,8
96,120,153622,1,0
152,192,153802,1,0
48,344,154164,5,8
136,344,154345,1,0
224,344,154525,2,0,L|328:344,2,90,0|0|8
408,344,155248,1,0
408,256,155429,1,0
408,48,155610,6,8,B|312:48,1,90,0|8
224,48,155971,1,0
320,48,156152,6,8,B|320:160,1,90
320,232,156513,1,0
320,136,156694,6,8,B|208:136,1,90
136,136,157055,1,0
232,136,157236,6,8,B|232:232,1,90
232,320,157598,1,0
232,224,157778,6,8,B|336:224,1,90
416,224,158140,1,0
320,224,158320,6,8,B|320:128,1,90
408,136,158682,1,0
432,48,158863,6,0,B|464:8|504:56|472:96,2,90,0|0|4
256,32,159586,5,4
24,192,159947,6,0,B|144:192,2,90,8|0|0
208,192,160670,2,0,L|304:192,1,90,8|0
392,192,161031,1,0
472,144,161212,2,0,L|472:240,2,90,0|8|0
328,32,161935,1,0
256,88,162116,1,8
32,328,162477,6,0,L|32:216,1,90
120,328,162839,6,0,L|24:328,1,90,8|0
120,240,163200,6,0,L|120:344,1,90
208,240,163561,6,0,L|104:240,1,90,8|0
208,152,163923,6,0,L|208:264,1,90
296,152,164284,6,0,L|192:152,1,90,8|0
296,64,164646,6,0,L|296:184,1,90,8|0
376,64,165007,1,8
376,248,165369,6,0,L|376:144,1,90,0|0
464,160,165730,1,8
464,248,165911,1,0
464,336,166092,1,0
376,336,166272,1,0
288,336,166453,2,0,L|192:336,1,90,8|0
104,336,166814,1,0
16,336,166995,1,0
16,248,167176,2,0,L|216:248,2,180,8|8|8
496,248,168260,6,0,L|376:248,2,90,0|0|8
256,120,168983,6,0,L|256:24,2,90,0|0|8
312,192,169525,1,0
256,264,169706,1,0
200,192,169887,1,0
256,120,170067,1,8
416,192,170429,1,8
240,192,170790,2,0,L|352:192,2,90,8|0|0
152,192,171333,2,0,B|32:192,1,90,0|8
424,104,171875,5,0
424,192,172055,1,0
424,280,172236,1,8
424,192,172417,2,0,L|304:192,1,90
240,192,172778,2,0,L|136:192,3,90,0|8|0|8
504,192,173682,5,8
416,192,173863,2,0,L|296:192,1,90
256,352,174224,2,0,L|256:248,1,90,0|8
96,192,174586,2,0,B|200:192,1,90,0|0
256,32,174947,2,0,L|256:136,1,90,0|8
504,192,175489,5,0
256,8,175851,1,8
8,192,176212,1,0
256,8,176573,6,4,L|256:136,1,90,8|0
256,192,176935,2,0,L|160:192,2,90
256,192,177477,2,0,L|360:192,2,90,0|8|0
256,376,178200,2,0,B|256:272,2,90,0|8|0
80,192,179104,5,8
168,192,179284,1,0
256,192,179465,1,8
344,192,179646,1,0
432,192,179826,1,8
256,32,180188,5,8
32,192,180549,1,8
256,352,180911,1,8
480,192,181272,1,8
304,144,181634,6,4,L|392:72,2,90,0|0|0
208,240,182176,2,4,L|112:312,2,90,0|0|0
376,88,182718,5,4
256,192,189947,12,4,192477
288,64,192839,6,0,L|176:64,1,90,0|4
128,152,193200,2,0,L|128:256,1,90,8|4
200,312,193561,2,0,L|328:312,1,90,4|0
360,240,193923,2,0,L|360:120,1,90,4|0
256,192,194284,1,4
72,192,194646,6,0,L|72:96,2,90,8|0|0
256,192,195369,2,0,B|360:192,2,90,8|0|0
296,112,195911,2,0,B|248:80|176:128,1,90,0|8
256,192,196272,1,0
216,272,196453,2,0,B|248:296|304:272,1,90
256,192,196814,1,8
440,192,197176,5,4
256,192,197537,2,0,B|128:192,2,90,8|0|0
256,8,198260,2,0,B|376:8,1,90,8|0
408,72,198622,1,0
472,136,198802,2,0,B|472:240,2,90,0|8|0
408,72,199345,1,0
24,288,199887,6,0,L|24:96,1,180
56,192,200429,2,0,L|160:192,2,90,8|0|0
488,192,201152,5,8
400,192,201333,1,0
312,192,201513,1,4
256,120,201694,1,0
256,32,201875,1,8
32,192,202236,5,0
256,352,202598,1,8
480,192,202959,1,4
256,72,203320,6,0,B|256:176,1,90,8|8
168,296,203863,2,0,B|224:224,1,90,4|8
344,296,204405,2,0,B|288:224,2,90,0|0|8
416,192,204947,1,4
352,88,205128,1,4
32,32,205489,6,0,B|152:32,1,90,8|0
192,88,205851,1,0
264,144,206031,1,0
192,200,206212,1,8
264,256,206393,1,0
192,312,206573,1,0
120,256,206754,2,0,B|-8:256,2,90,0|8|0
48,200,207296,2,0,B|48:96,2,90,0|0|8
192,312,208019,1,8
152,144,208381,6,0,B|168:80|240:64,2,90,8|0|0
152,232,208923,2,0,B|152:280|240:312,1,90,0|8
296,296,209284,1,0
296,208,209465,1,0
296,120,209646,2,0,B|408:120,2,90,0|8|0
216,160,210188,1,0
136,200,210369,1,0
56,160,210549,1,8
136,120,210730,1,0
392,192,211092,6,0,B|488:192,1,90,0|8
256,120,211634,2,0,B|256:24,1,90
120,192,212176,2,0,B|-8:192,1,90
256,264,212718,5,8
312,192,212899,1,0
256,120,213079,1,0
200,192,213260,1,0
256,304,213441,5,8
352,192,213622,1,0
256,80,213802,1,0
160,192,213983,1,0
256,344,214164,5,8
392,192,214345,1,0
256,40,214525,1,0
120,192,214706,1,0
392,192,215248,2,0,B|392:96,2,90,0|0|8
208,192,215971,5,4
120,192,216152,1,4
32,192,216333,1,4
208,192,216694,1,4
256,16,217055,2,0,B|256:128,2,90,8|0|0
256,368,217778,6,0,B|256:264,2,90,8|0|0
496,192,218501,6,0,B|384:192,1,90,8|0
312,192,218863,2,0,B|184:192,1,90
128,192,219224,2,0,B|0:192,2,90,8|0|8
312,192,219947,1,8
40,192,220308,6,0,B|40:304,2,90,0|0|8
224,104,220851,2,0,B|128:104,2,90
40,192,221393,6,0,B|136:192,1,90,8|0
224,192,221754,2,0,B|408:192,1,180,0|8
480,240,222296,1,0
480,144,222477,1,8
256,32,222839,5,8
480,192,223200,1,0
256,352,223561,5,8
256,264,223742,2,0,B|256:160,2,90
256,352,224284,1,8
48,192,224646,6,0,B|176:192,2,90,0|0|8
48,120,225188,2,0,B|160:120,1,90
48,264,225549,2,0,B|144:264,1,90,0|8
464,264,226092,6,0,B|360:264,1,90
464,120,226453,2,0,B|344:120,1,90,8|0
464,192,226814,2,0,B|344:192,2,90,0|0|8
376,192,227357,1,0
288,192,227537,2,0,B|168:192,2,90,0|0|8
32,192,228260,5,8
104,248,228441,1,0
176,192,228622,1,8
248,136,228802,1,0
320,192,228983,1,0
392,248,229164,2,0,B|392:128,1,90,0|8
472,192,229525,1,0
472,280,229706,2,0,B|368:360,2,90,0|0|8
472,192,230248,1,0
472,104,230429,1,0
384,104,230610,2,0,B|256:104,1,90,0|8
296,192,230971,1,0
384,192,231152,1,0
384,16,231513,5,8
304,64,231694,2,0,B|224:128,1,90
160,176,232055,1,0
88,232,232236,1,8
160,288,232417,1,0
232,232,232598,2,0,B|352:232,1,90
320,144,232959,2,0,B|216:144,2,90,8|0|0
320,56,233501,2,0,B|216:56,1,90,0|8
136,56,233863,2,0,B|32:56,2,90
80,192,234405,6,0,B|208:192,1,90,8|0
432,192,234766,2,0,B|304:192,1,90,0|0
120,328,235128,6,0,B|192:256,1,90,8|0
392,56,235489,2,0,B|320:128,1,90
256,368,235851,6,0,B|256:272,1,90,8|0
256,16,236212,2,0,B|256:144,1,90,0|0
392,328,236573,6,0,B|320:256,1,90,8|0
120,56,236935,2,0,B|192:128,1,90
256,192,237296,5,8
376,208,237477,2,0,B|400:152|368:96,1,90
296,80,237839,2,0,B|240:56|184:88,1,90,0|8
128,120,238200,2,0,B|104:176|136:232,1,90,0|0
184,272,238561,1,0
256,320,238742,1,8
328,272,238923,2,0,B|424:272,2,90
328,184,239465,6,4,B|256:104,1,90,8|0
176,120,239826,1,4
176,120,239917,1,0
176,120,240007,1,0
176,208,240188,1,4
176,208,240278,1,0
176,208,240369,1,0
176,296,240549,1,4
