osu file format v14

[General]
AudioFilename: Alice In Blue.mp3
AudioLeadIn: 0
PreviewTime: 45836
Countdown: 0
SampleSet: Soft
StackLeniency: 0.5
Mode: 0
LetterboxInBreaks: 0
WidescreenStoryboard: 0

[Editor]
DistanceSpacing: 1.4
BeatDivisor: 4
GridSize: 4
TimelineZoom: 1.5

[Metadata]
Title:Alice in Blue
TitleUnicode:アリス・イン・ブルー
Artist:Rita
ArtistUnicode:Rita
Creator:Doyak
Version:Fly!
Source:SHIROBAKO
Tags:Specials Dai San 3 hikou Shoujo tai 第三飛行少女隊 Aria Musashino Animation Musani Opening Startrick Enon ProEzreal Gloria_Guard
BeatmapID:1093691
BeatmapSetID:512286

[Difficulty]
HPDrainRate:6
CircleSize:4.3
OverallDifficulty:8.5
ApproachRate:9.3
SliderMultiplier:1.8
SliderTickRate:1

[Events]
//Background and Video events
Video,-606,"video.avi"
0,0,"bg.jpg",0,0
//Break Periods
//Storyboard Layer 0 (Background)
//Storyboard Layer 1 (Fail)
//Storyboard Layer 2 (Pass)
//Storyboard Layer 3 (Foreground)
//Storyboard Sound Samples

[TimingPoints]
111,322.58064516129,4,2,2,30,1,0
111,-133.333333333333,4,2,2,30,0,0
3014,-100,4,2,2,45,0,0
3981,-100,4,2,2,50,0,0
4304,-100,4,2,2,55,0,0
4627,-100,4,2,2,60,0,0
4949,-100,4,2,2,65,0,0
5272,-100,4,2,1,70,0,1
5292,-100,4,2,1,70,0,0
14143,-80,4,2,1,70,0,0
15594,-117.647058823529,4,2,2,40,0,0
24949,-117.647058823529,4,2,2,45,0,0
25272,-117.647058823529,4,2,2,50,0,0
25594,-117.647058823529,4,2,2,55,0,0
25917,-100,4,2,1,60,0,0
36240,-117.647058823529,4,2,2,40,0,0
40756,-100,4,2,1,55,0,0
41401,-100,4,2,1,60,0,0
43336,-100,4,2,1,65,0,0
43981,-100,4,2,1,70,0,0
44627,-100,4,2,1,75,0,0
44949,-100,4,2,1,80,0,0
45272,-100,4,2,2,80,0,0
45917,-100,4,2,2,60,0,0
46401,-86.9565217391304,4,2,1,80,0,1
50675,-86.9565217391304,4,2,1,5,0,1
50756,-86.9565217391304,4,2,1,80,0,1
55675,-86.9565217391304,4,2,1,5,0,1
55756,-86.9565217391304,4,2,1,80,0,1
56643,-86.9565217391304,4,2,1,80,0,0
56723,-86.9565217391304,4,2,1,80,0,1
63417,-86.9565217391304,4,2,1,5,0,1
63498,-86.9565217391304,4,2,1,80,0,1
64627,-86.9565217391304,4,2,1,60,0,0
65917,-86.9565217391304,4,2,1,70,0,0
67207,-86.9565217391304,4,2,1,80,0,0
68498,-86.9565217391304,4,2,1,90,0,0
69788,-100,4,2,1,70,0,1
69808,-100,4,2,1,70,0,0
80110,-90.9090909090909,4,2,1,70,0,0
80352,-90.9090909090909,4,2,1,5,0,0
80433,-90.9090909090909,4,2,1,80,0,1
80453,-90.9090909090909,4,2,1,80,0,0
86320,-90.9090909090909,4,2,1,50,0,0
88820,-90.9090909090909,4,2,1,30,0,0

[Colours]
Combo1 : 19,236,236
Combo2 : 255,79,255
Combo3 : 62,255,62
Combo4 : 242,24,57

[HitObjects]
394,243,111,6,0,L|474:235,1,67.5000025749208,2|0,0:0|0:0,0:0:0:0:
473,316,433,2,0,L|405:322,1,67.5000025749208
266,253,756,6,0,L|259:185,1,67.5000025749208,2|0,0:0|0:0,0:0:0:0:
292,112,1078,1,0,0:0:0:0:
332,300,1240,6,0,P|273:333|206:307,1,135.000005149842,2|0,0:0|0:0,0:0:0:0:
120,230,1723,2,0,L|187:236,1,67.5000025749208
349,153,2046,5,2,0:0:0:0:
274,191,2207,2,0,L|268:124,1,67.5000025749208
331,72,2530,1,0,0:0:0:0:
450,196,2691,5,2,0:0:0:0:
315,362,3014,2,0,L|271:355,3,45,2|0|0|0,0:0|0:0|0:0|0:0,0:0:0:0:
234,314,3336,2,0,L|190:321,3,45,2|0|0|0,0:0|0:0|0:0|0:0,0:0:0:0:
158,366,3659,2,0,L|114:359,3,45,2|0|0|0,0:0|0:0|0:0|0:0,0:0:0:0:
65,334,3981,5,2,3:2:0:0:
13,220,4143,1,0,3:0:0:0:
30,211,4223,1,0,3:0:0:0:
48,206,4304,1,0,3:0:0:0:
67,205,4384,1,0,3:0:0:0:
86,206,4465,1,0,3:0:0:0:
104,211,4546,1,0,3:0:0:0:
121,220,4627,6,0,L|128:278,1,45,0|0,3:0|3:0,3:0:0:0:
238,257,4788,2,0,L|296:250,1,45,0|0,3:0|3:0,3:0:0:0:
203,151,4949,1,0,3:0:0:0:
200,117,5029,1,0,3:0:0:0:
197,83,5110,1,0,3:0:0:0:
195,50,5190,1,0,3:0:0:0:
193,17,5272,6,0,L|103:24,1,90,4|0,0:1|0:0,0:0:0:0:
112,288,5594,1,8,0:0:0:0:
336,196,5756,1,0,0:0:0:0:
336,196,5836,1,0,0:0:0:0:
336,196,5917,1,2,0:0:0:0:
178,130,6078,1,2,0:0:0:0:
270,354,6240,1,8,0:0:0:0:
52,229,6401,6,0,P|33:317|114:370,1,180,6|2,0:0|0:0,0:0:0:0:
129,238,6804,1,0,0:0:0:0:
126,198,6885,2,0,L|119:108,1,90,8|0,0:0|0:0,0:0:0:0:
383,61,7207,2,0,L|376:151,1,90,2|2,0:0|0:0,0:0:0:0:
276,299,7530,1,8,0:0:0:0:
244,85,7691,1,0,0:0:0:0:
422,218,7852,6,0,L|512:211,1,90,6|0,0:0|0:0,0:0:0:0:
383,61,8175,1,8,0:0:0:0:
276,299,8336,1,0,0:0:0:0:
276,299,8417,1,0,0:0:0:0:
276,299,8498,1,2,0:0:0:0:
242,136,8659,1,2,0:0:0:0:
422,218,8820,1,8,0:0:0:0:
185,194,8981,6,0,P|164:110|228:54,1,180,6|2,0:0|0:0,0:0:0:0:
260,188,9384,1,0,0:0:0:0:
257,228,9465,2,0,L|250:318,1,90,8|2,0:0|0:0,0:0:0:0:
399,284,9788,1,0,0:0:0:0:
387,116,9949,2,0,L|380:26,1,90,2|8,0:0|0:0,0:0:0:0:
168,78,10272,1,0,0:0:0:0:
160,82,10352,1,0,0:0:0:0:
152,86,10433,6,0,P|123:125|123:170,1,90,6|0,0:0|0:0,0:0:0:0:
360,298,10756,2,0,P|389:259|389:214,1,90,8|0,0:0|0:0,0:0:0:0:
201,150,11078,1,2,0:0:0:0:
256,337,11240,1,2,0:0:0:0:
311,104,11401,1,8,0:0:0:0:
174,257,11562,6,0,P|90:236|34:300,1,180,6|2,0:0|0:0,0:0:0:0:
168,332,11965,1,0,0:0:0:0:
208,329,12046,2,0,L|298:322,1,90,8|0,0:0|0:0,0:0:0:0:
406,193,12369,1,2,0:0:0:0:
242,164,12530,1,2,0:0:0:0:
374,276,12691,2,0,L|464:269,1,90,8|0,0:0|0:0,0:0:0:0:
334,31,13014,6,0,L|319:210,1,180,6|8,0:0|0:0,0:0:0:0:
308,323,13498,1,0,0:0:0:0:
448,135,13659,1,2,0:0:0:0:
211,111,13820,1,2,0:0:0:0:
308,323,13981,1,8,0:0:0:0:
334,31,14143,1,6,0:0:0:0:
256,192,14304,12,0,15594,0:0:0:0:
132,201,15917,6,0,L|209:195,1,76.5000014591217,2|0,0:0|0:0,0:0:0:0:
312,81,16240,2,0,L|278:150,1,76.5000014591217,2|0,0:0|0:0,0:0:0:0:
325,296,16562,2,0,L|281:232,1,76.5000014591217,2|0,0:0|0:0,0:0:0:0:
206,112,16885,5,2,0:0:0:0:
206,112,17046,2,0,L|129:118,1,76.5000014591217,2|0,0:0|0:0,0:0:0:0:
70,276,17369,2,0,P|146:307|207:264,1,153.000002918243,2|0,0:0|0:0,0:0:0:0:
354,219,17852,2,0,L|431:225,1,76.5000014591217,2|0,0:0|0:0,0:0:0:0:
291,343,18175,6,0,L|285:266,1,76.5000014591217,2|0,0:0|0:0,0:0:0:0:
279,182,18498,1,2,0:0:0:0:
400,305,18659,2,0,L|477:299,1,76.5000014591217,2|0,0:0|0:0,0:0:0:0:
425,128,18981,2,0,L|348:134,1,76.5000014591217,2|0,0:0|0:0,0:0:0:0:
209,230,19304,6,0,P|142:261|77:226,1,153.000002918243,2|0,0:0|0:0,0:0:0:0:
289,191,19788,2,0,L|295:268,1,76.5000014591217,2|0,0:0|0:0,0:0:0:0:
251,339,20110,1,0,0:0:0:0:
146,177,20272,2,0,L|152:100,1,76.5000014591217,2|0,0:0|0:0,0:0:0:0:
158,17,20594,1,2,0:0:0:0:
304,71,20756,6,0,L|227:65,1,76.5000014591217,2|0,0:0|0:0,0:0:0:0:
352,138,21078,2,0,P|386:73|355:6,1,153.000002918243,2|0,0:0|0:0,0:0:0:0:
289,191,21562,1,2,0:0:0:0:
289,191,21723,2,0,L|295:268,1,76.5000014591217,0|2,0:0|0:0,0:0:0:0:
146,177,22046,6,0,L|152:100,1,76.5000014591217,2|0,0:0|0:0,0:0:0:0:
207,233,22368,2,0,P|138:260|75:222,1,153.000002918243,2|0,0:0|0:0,0:0:0:0:
227,131,22852,1,2,0:0:0:0:
283,275,23014,2,0,L|277:352,1,76.5000014591217,2|0,0:0|0:0,0:0:0:0:
359,143,23336,6,0,P|295:104|227:132,1,153.000002918243,2|0,0:0|0:0,0:0:0:0:
283,275,23820,1,2,0:0:0:0:
439,179,23981,2,0,L|433:102,1,76.5000014591217,2|0,0:0|0:0,0:0:0:0:
426,18,24304,1,2,0:0:0:0:
377,236,24465,6,0,P|445:263|508:225,1,153.000002918243,2|2,0:0|3:2,0:0:0:0:
355,70,24949,1,0,3:0:0:0:
332,72,25030,1,0,3:0:0:0:
309,75,25110,1,0,3:0:0:0:
287,77,25191,1,0,3:0:0:0:
265,80,25272,6,0,L|271:131,3,38.2500007295609,0|0|0|0,3:0|3:0|3:0|3:0,3:0:0:0:
212,199,25594,2,0,L|206:250,1,38.2500007295609,0|0,3:0|3:0,3:0:0:0:
119,160,25756,2,0,L|114:122,1,38.2500007295609,0|0,3:0|3:0,3:0:0:0:
171,23,25917,5,4,0:1:0:0:
407,255,26240,2,0,L|400:345,1,90,8|0,0:0|0:0,0:0:0:0:
236,283,26562,1,2,0:0:0:0:
371,171,26723,1,2,0:0:0:0:
400,344,26885,1,8,0:0:0:0:
183,219,27046,6,0,L|93:226,1,90,0|2,0:0|0:0,0:0:0:0:
219,364,27369,1,0,0:0:0:0:
290,175,27530,1,8,0:0:0:0:
400,344,27691,2,0,L|490:337,1,90,0|2,0:0|0:0,0:0:0:0:
403,167,28014,1,2,0:0:0:0:
236,283,28175,1,8,0:0:0:0:
219,81,28336,1,0,0:0:0:0:
366,253,28498,6,0,L|456:246,1,90,2|0,0:0|0:0,0:0:0:0:
396,80,28820,1,8,0:0:0:0:
284,257,28981,2,0,L|291:347,1,90,0|2,0:0|0:0,0:0:0:0:
149,123,29304,1,2,0:0:0:0:
97,308,29465,1,8,0:0:0:0:
323,183,29627,6,0,L|413:190,1,90,0|2,0:0|0:0,0:0:0:0:
290,346,29949,1,0,0:0:0:0:
123,215,30110,2,0,L|33:222,1,90,8|0,0:0|0:0,0:0:0:0:
200,349,30433,1,2,0:0:0:0:
254,138,30594,1,2,0:0:0:0:
331,272,30756,1,8,0:0:0:0:
123,215,30917,1,0,0:0:0:0:
340,185,31078,6,0,L|430:192,1,90,2|0,0:0|0:0,0:0:0:0:
200,349,31401,2,0,L|110:342,1,90,8|0,0:0|0:0,0:0:0:0:
170,125,31723,1,2,0:0:0:0:
263,302,31885,1,2,0:0:0:0:
57,286,32046,1,8,0:0:0:0:
255,195,32207,1,0,0:0:0:0:
57,286,32369,6,0,P|32:243|29:195,1,90,2|0,0:0|0:0,0:0:0:0:
140,42,32691,2,0,P|165:85|168:133,1,90,8|0,0:0|0:0,0:0:0:0:
342,124,33014,2,0,P|348:80|372:42,1,90,2|2,0:0|0:0,0:0:0:0:
484,203,33336,2,0,P|478:247|455:286,1,90,8|0,0:0|0:0,0:0:0:0:
279,176,33659,6,0,P|273:73|310:-2,2,180,6|8|2,0:0|0:0|0:0,0:0:0:0:
117,286,34465,1,8,0:0:0:0:
103,89,34627,1,8,0:0:0:0:
187,308,34788,6,0,P|117:361|46:312,1,180,6|2,0:0|0:0,0:0:0:0:
103,89,35272,1,8,0:0:0:0:
117,286,35433,1,2,0:0:0:0:
242,152,35594,5,8,0:0:0:0:
279,128,35674,1,8,0:0:0:0:
323,131,35755,1,2,0:0:0:0:
358,158,35835,1,2,0:0:0:0:
372,200,35916,1,8,0:0:0:0:
359,242,35997,1,8,0:0:0:0:
324,270,36077,1,2,0:0:0:0:
279,272,36158,1,2,0:0:0:0:
242,249,36239,5,4,0:0:0:0:
275,46,36562,1,2,0:0:0:0:
84,120,36885,1,2,0:0:0:0:
297,200,37207,1,2,0:0:0:0:
297,200,37369,6,0,P|311:279|240:322,1,153.000002918243,2|2,0:0|0:0,0:0:0:0:
47,240,38014,2,0,P|33:161|104:118,1,153.000002918243,2|0,0:0|0:0,0:0:0:0:
83,119,38498,1,2,0:0:0:0:
315,271,38820,6,0,L|481:259,1,153.000002918243,6|0,0:0|0:0,0:0:0:0:
504,184,39304,1,2,0:0:0:0:
366,22,39627,1,2,0:0:0:0:
261,207,39949,1,2,0:0:0:0:
243,184,40756,5,0,3:0:0:0:
163,72,40917,1,2,0:0:0:0:
163,72,40998,1,2,0:0:0:0:
163,72,41078,2,0,L|73:79,1,90,12|0,0:0|0:0,0:0:0:0:
139,278,41401,6,0,P|165:311|226:337,1,90,6|0,0:0|0:0,0:0:0:0:
373,106,41723,2,0,P|347:73|286:47,1,90,2|0,0:0|0:0,0:0:0:0:
342,309,42046,2,0,P|375:283|401:222,1,90,2|0,0:0|0:0,0:0:0:0:
170,75,42369,2,0,P|137:101|111:162,1,90,2|0,0:0|0:0,0:0:0:0:
373,106,42691,5,2,3:2:0:0:
276,185,42852,1,0,3:2:0:0:
280,217,42932,1,0,3:2:0:0:
284,248,43013,1,2,3:2:0:0:
162,138,43175,1,0,3:2:0:0:
166,107,43256,1,0,3:2:0:0:
170,75,43336,1,2,3:2:0:0:
365,13,43498,1,0,3:2:0:0:
395,18,43578,1,0,3:2:0:0:
423,31,43659,1,2,3:2:0:0:
444,55,43739,1,0,3:2:0:0:
456,83,43820,1,0,3:2:0:0:
460,114,43901,1,0,3:2:0:0:
452,143,43981,5,6,3:2:0:0:
356,312,44143,1,0,3:2:0:0:
318,309,44223,1,0,3:2:0:0:
280,306,44304,1,2,3:2:0:0:
242,303,44384,1,0,3:2:0:0:
204,300,44465,1,0,3:2:0:0:
166,297,44546,1,0,3:2:0:0:
128,294,44627,5,2,3:2:0:0:
93,266,44707,1,0,3:2:0:0:
73,225,44788,1,0,3:2:0:0:
74,181,44868,1,0,3:2:0:0:
93,141,44949,1,2,3:2:0:0:
128,113,45030,1,0,3:2:0:0:
172,103,45110,1,0,3:2:0:0:
215,113,45191,1,0,3:2:0:0:
250,141,45272,5,2,0:0:0:0:
215,377,45433,1,2,0:0:0:0:
173,205,45917,5,2,0:0:0:0:
361,153,46078,1,0,0:0:0:0:
311,343,46240,1,0,0:0:0:0:
289,79,46401,6,0,P|363:50|460:124,1,207.000003948212,4|2,0:1|0:0,0:0:0:0:
385,344,46885,2,0,L|372:232,1,103.500001974106,8|0,0:0|0:0,0:0:0:0:
193,18,47207,2,0,L|181:120,1,103.500001974106,2|2,0:0|0:0,0:0:0:0:
279,300,47530,1,8,0:0:0:0:
94,64,47691,6,0,P|8:158|83:201,1,207.000003948212,6|2,0:0|0:0,0:0:0:0:
275,172,48175,2,0,L|377:160,1,103.500001974106,8|0,0:0|0:0,0:0:0:0:
170,68,48498,1,2,0:0:0:0:
194,293,48659,1,2,0:0:0:0:
377,160,48820,1,8,0:0:0:0:
89,195,48981,6,0,P|45:234|26:286,1,103.500001974106,0|2,0:0|0:0,0:0:0:0:
168,313,49304,1,0,0:0:0:0:
286,234,49465,1,8,0:0:0:0:
89,195,49626,1,0,0:0:0:0:
168,313,49788,1,2,0:0:0:0:
207,116,49949,1,2,0:0:0:0:
168,313,50110,1,8,0:0:0:0:
207,116,50272,1,0,0:0:0:0:
272,337,50433,6,0,L|433:312,1,155.250002961159,2|0,0:0|0:0,0:0:0:0:
472,305,50756,1,8,0:0:0:0:
191,207,50917,2,0,L|89:195,1,103.500001974106,0|2,0:0|0:0,0:0:0:0:
360,132,51240,1,2,0:0:0:0:
360,132,51401,2,0,L|348:234,1,103.500001974106,8|0,0:0|0:0,0:0:0:0:
175,298,51723,5,6,0:0:0:0:
207,116,51885,1,0,0:0:0:0:
348,235,52046,1,2,0:0:0:0:
121,148,52207,2,0,P|130:69|245:31,1,207.000003948212,12|2,0:0|0:0,0:0:0:0:
348,235,52691,5,12,0:0:0:0:
175,298,52852,1,0,0:0:0:0:
207,116,53014,1,2,0:0:0:0:
316,322,53175,2,0,P|411:298|434:203,1,207.000003948212,12|0,0:0|0:0,0:0:0:0:
389,132,53578,1,0,0:0:0:0:
389,132,53659,6,0,L|287:144,1,103.500001974106,12|2,0:0|0:0,0:0:0:0:
134,277,53981,2,0,L|236:289,1,103.500001974106,12|0,0:0|0:0,0:0:0:0:
199,183,54304,5,2,0:0:0:0:
174,383,54465,1,0,0:0:0:0:
361,305,54627,1,8,0:0:0:0:
95,217,54788,2,0,L|107:115,1,103.500001974106,0|2,0:0|0:0,0:0:0:0:
133,310,55110,2,0,P|78:317|19:284,1,103.500001974106,2|8,0:0|0:0,0:0:0:0:
306,179,55433,6,0,P|376:189|378:265,1,155.250002961159,6|0,0:0|0:0,0:0:0:0:
361,305,55756,1,2,0:0:0:0:
283,158,55917,2,0,L|295:56,1,103.500001974106,8|0,0:0|0:0,0:0:0:0:
399,106,56240,1,2,0:0:0:0:
264,283,56401,1,8,0:0:0:0:
176,77,56563,1,8,0:0:0:0:
361,319,56723,6,0,P|287:385|191:359,1,207.000003948212,6|2,0:0|0:0,0:0:0:0:
330,219,57207,2,0,L|432:231,1,103.500001974106,8|0,0:0|0:0,0:0:0:0:
261,148,57530,2,0,P|252:92|277:31,1,103.500001974106,2|2,0:0|0:0,0:0:0:0:
399,106,57852,1,8,0:0:0:0:
264,283,58014,6,0,L|56:258,1,207.000003948212,6|2,0:0|0:0,0:0:0:0:
185,65,58498,2,0,L|173:167,1,103.500001974106,8|0,0:0|0:0,0:0:0:0:
146,377,58820,1,2,0:0:0:0:
281,182,58981,1,2,0:0:0:0:
70,153,59143,1,8,0:0:0:0:
251,352,59304,6,0,L|353:340,1,103.500001974106,0|2,0:0|0:0,0:0:0:0:
396,192,59627,1,0,0:0:0:0:
211,285,59788,1,8,0:0:0:0:
211,99,59949,1,0,0:0:0:0:
396,192,60110,1,2,0:0:0:0:
139,192,60272,1,2,0:0:0:0:
396,192,60433,1,8,0:0:0:0:
93,107,60594,6,0,P|41:191|92:275,1,207.000003948212,6|0,0:0|0:0,0:0:0:0:
216,364,61078,1,8,0:0:0:0:
345,109,61240,2,0,P|443:106|490:193,1,207.000003948212,6|2,0:0|0:0,0:0:0:0:
413,324,61723,1,8,0:0:0:0:
270,70,61885,6,0,B|237:31|237:31|219:204,1,207.000003948212,6|2,0:0|0:0,0:0:0:0:
408,294,62369,2,0,L|396:192,1,103.500001974106,8|0,0:0|0:0,0:0:0:0:
132,118,62691,1,2,0:0:0:0:
204,293,62852,1,2,0:0:0:0:
320,142,63014,1,8,0:0:0:0:
120,311,63175,6,0,P|163:369|256:360,1,155.250002961159,6|0,0:0|0:0,0:0:0:0:
285,356,63498,1,2,0:0:0:0:
384,203,63659,2,0,L|486:215,1,103.500001974106,8|0,0:0|0:0,0:0:0:0:
420,337,63981,1,2,0:0:0:0:
243,189,64143,5,2,0:0:0:0:
208,193,64223,1,2,0:0:0:0:
174,197,64304,1,2,0:0:0:0:
140,201,64384,1,2,0:0:0:0:
105,205,64465,1,2,0:0:0:0:
71,209,64546,1,2,0:0:0:0:
37,213,64627,6,0,L|49:315,1,103.500001974106,4|0,0:0|0:0,0:0:0:0:
343,237,64949,2,0,L|355:135,1,103.500001974106,8|2,0:0|0:0,0:0:0:0:
157,135,65272,2,0,L|169:237,1,103.500001974106,8|2,0:0|0:0,0:0:0:0:
463,315,65594,2,0,L|475:213,1,103.500001974106,8|2,0:0|0:0,0:0:0:0:
256,78,65917,5,8,0:0:0:0:
255,305,66078,1,2,0:0:0:0:
157,135,66240,1,8,0:0:0:0:
354,248,66401,1,2,0:0:0:0:
157,248,66562,1,8,0:0:0:0:
354,135,66723,1,2,0:0:0:0:
354,135,66804,1,2,0:0:0:0:
354,135,66885,1,12,0:0:0:0:
255,305,67046,1,2,0:0:0:0:
255,305,67127,1,2,0:0:0:0:
255,305,67207,1,12,0:0:0:0:
256,55,67369,5,0,0:0:0:0:
138,258,67531,1,8,0:0:0:0:
371,258,67692,1,2,0:0:0:0:
371,258,67772,1,2,0:0:0:0:
371,258,67852,1,8,0:0:0:0:
256,32,68014,5,2,0:0:0:0:
116,270,68176,1,8,0:0:0:0:
392,270,68336,1,2,0:0:0:0:
392,270,68417,1,2,0:0:0:0:
392,270,68497,1,8,0:0:0:0:
118,108,68659,5,2,0:0:0:0:
118,108,68740,1,2,0:0:0:0:
118,108,68820,1,8,0:0:0:0:
254,349,68981,1,6,0:0:0:0:
394,108,69143,1,8,0:0:0:0:
367,76,69223,1,8,0:0:0:0:
334,51,69304,1,2,0:0:0:0:
296,37,69384,1,2,0:0:0:0:
256,32,69465,1,8,0:0:0:0:
216,37,69546,1,8,0:0:0:0:
178,51,69626,1,2,0:0:0:0:
145,76,69707,1,2,0:0:0:0:
118,108,69788,6,0,L|126:202,1,90,6|0,0:0|0:0,0:0:0:0:
386,197,70110,2,0,L|394:108,1,90,8|0,0:0|0:0,0:0:0:0:
256,310,70433,1,2,0:0:0:0:
256,88,70594,1,2,0:0:0:0:
256,310,70756,1,8,0:0:0:0:
314,29,70917,6,0,P|226:10|173:91,1,180,6|2,0:0|0:0,0:0:0:0:
305,107,71320,1,0,0:0:0:0:
345,103,71401,2,0,L|435:96,1,90,8|0,0:0|0:0,0:0:0:0:
391,327,71723,2,0,L|301:320,1,90,2|2,0:0|0:0,0:0:0:0:
151,211,72046,2,0,L|241:204,1,90,8|0,0:0|0:0,0:0:0:0:
46,86,72369,6,0,L|39:176,1,90,6|0,0:0|0:0,0:0:0:0:
104,325,72691,1,8,0:0:0:0:
189,110,72852,1,0,0:0:0:0:
189,110,72933,1,0,0:0:0:0:
189,110,73014,1,2,0:0:0:0:
254,260,73175,1,2,0:0:0:0:
39,175,73336,1,8,0:0:0:0:
313,202,73498,6,0,P|332:290|251:343,1,180,6|2,0:0|0:0,0:0:0:0:
235,211,73901,1,0,0:0:0:0:
239,171,73982,2,0,L|246:81,1,90,8|2,0:0|0:0,0:0:0:0:
157,295,74304,1,0,0:0:0:0:
354,174,74465,1,12,0:0:0:0:
124,155,74627,1,12,0:0:0:0:
298,307,74788,1,8,0:0:0:0:
245,81,74949,6,0,L|65:68,1,180,2|8,0:0|0:0,0:0:0:0:
135,342,75433,1,2,0:0:0:0:
347,250,75594,1,2,0:0:0:0:
162,113,75756,1,2,0:0:0:0:
135,342,75917,1,8,0:0:0:0:
289,191,76078,6,0,P|377:172|430:253,1,180,6|2,0:0|0:0,0:0:0:0:
298,271,76481,1,0,0:0:0:0:
258,265,76562,2,0,L|168:258,1,90,8|0,0:0|0:0,0:0:0:0:
385,88,76885,1,2,0:0:0:0:
329,341,77046,1,2,0:0:0:0:
299,120,77207,2,0,L|306:30,1,90,8|0,0:0|0:0,0:0:0:0:
436,256,77530,6,0,L|346:249,1,90,6|0,0:0|0:0,0:0:0:0:
76,134,77852,2,0,L|166:127,1,90,8|0,0:0|0:0,0:0:0:0:
318,117,78175,1,2,0:0:0:0:
134,261,78336,1,2,0:0:0:0:
101,29,78498,1,8,0:0:0:0:
260,176,78659,6,0,P|348:195|401:114,1,180,6|0,0:0|0:0,0:0:0:0:
269,98,79062,1,0,0:0:0:0:
229,102,79143,2,0,L|139:109,1,90,8|2,0:0|0:0,0:0:0:0:
242,263,79465,1,8,0:0:0:0:
284,277,79545,1,8,0:0:0:0:
329,280,79626,1,2,0:0:0:0:
372,271,79706,1,2,0:0:0:0:
412,250,79787,1,8,0:0:0:0:
445,220,79868,1,8,0:0:0:0:
468,181,79948,1,2,0:0:0:0:
480,138,80029,1,2,0:0:0:0:
480,93,80110,6,0,L|321:76,1,148.50000453186,4|0,0:1|0:0,0:0:0:0:
242,139,80433,6,0,L|234:40,1,99.0000030212403,12|0,0:0|0:0,0:0:0:0:
338,237,80756,1,2,0:0:0:0:
111,135,80917,1,2,0:0:0:0:
320,0,81078,1,8,0:0:0:0:
283,307,81240,6,0,P|355:324|422:214,1,198.000006042481,6|2,0:0|0:0,0:0:0:0:
296,215,81643,1,0,0:0:0:0:
255,212,81724,2,0,L|156:205,1,99.0000030212403,8|0,0:0|0:0,0:0:0:0:
304,90,82046,1,2,0:0:0:0:
279,357,82207,1,2,0:0:0:0:
425,236,82369,1,8,0:0:0:0:
156,205,82530,1,0,0:0:0:0:
378,99,82691,6,0,L|385:0,1,99.0000030212403,6|0,0:0|0:0,0:0:0:0:
246,42,83014,1,8,0:0:0:0:
511,63,83175,1,0,0:0:0:0:
511,63,83256,1,0,0:0:0:0:
511,63,83336,1,2,0:0:0:0:
358,291,83498,1,2,0:0:0:0:
246,42,83659,1,8,0:0:0:0:
425,236,83820,6,0,P|442:308|332:375,1,198.000006042481,6|2,0:0|0:0,0:0:0:0:
333,249,84223,1,0,0:0:0:0:
330,208,84304,2,0,L|323:109,1,99.0000030212403,8|2,0:0|0:0,0:0:0:0:
137,324,84627,2,0,L|236:331,1,99.0000030212403,0|2,0:0|0:0,0:0:0:0:
422,203,84949,1,8,0:0:0:0:
420,165,85029,1,8,0:0:0:0:
418,128,85110,1,2,0:0:0:0:
415,91,85190,1,2,0:0:0:0:
413,54,85271,5,8,0:0:0:0:
211,12,85433,2,0,L|164:17,3,33.0000010070801,2|2|2|2,0:0|0:0|0:0|0:0,0:0:0:0:
270,200,85756,5,8,0:0:0:0:
413,54,85917,2,0,L|460:59,3,33.0000010070801,2|2|2|2,0:0|0:0|0:0|0:0,0:0:0:0:
436,331,86240,5,12,0:0:0:0:
256,192,86320,12,0,88820,0:0:0:0:
