osu file format v7

[General]
AudioFilename: Rita - Alea jacta est!.mp3
AudioLeadIn: 0
PreviewTime: 58615
Countdown: 0
SampleSet: Soft
StackLeniency: 0.7
Mode: 0
LetterboxInBreaks: 1

[Editor]
DistanceSpacing: 0.800000011920929
BeatDivisor: 2
GridSize: 8

[Metadata]
Title:Alea jacta est!
Artist:Rita
Creator:v2b
Version:Normal+
Source:Katahane
Tags:Tarte eroge yuri

[Difficulty]
HPDrainRate:2
CircleSize:4
OverallDifficulty:4
SliderMultiplier:1.2
SliderTickRate:0.5

[Events]
//Background and Video events
0,0,"a1ef9550ef5c4134377abe03.jpg"
//Break Periods
2,82744,96414
//Storyboard Layer 0 (Background)
//Storyboard Layer 1 (Fail)
//Storyboard Layer 2 (Pass)
//Storyboard Layer 3 (Foreground)
//Storyboard Sound Samples
//Background Colour Transformations
3,100,163,162,255

[TimingPoints]
6595,379.746835443038,4,2,1,60,1,0
32987,-100,4,1,1,40,0,0
34126,-100,4,2,1,60,0,0
58145,-100,4,1,1,60,0,0
58335,-100,4,2,1,60,0,0
68778,-100,4,1,1,60,0,0
70202,-100,4,2,1,60,0,0
108936,-100,4,1,1,40,0,0
110076,-100,4,2,1,60,0,0
134095,-100,4,1,1,60,0,0
134284,-100,4,2,1,60,0,0
144727,-100,4,1,1,60,0,0
146151,-100,4,2,1,60,0,0
158493,-100,4,1,1,60,0,0

[Colours]
Combo1 : 255,53,53
Combo2 : 128,255,255
Combo3 : 128,255,0
Combo4 : 255,255,128

[HitObjects]
256,48,6595,1,4
168,88,6974,1,8
256,120,7354,1,0
168,160,7734,1,8
256,192,8113,2,0,B|384:192,1,120,0|8
432,272,8873,2,0,B|296:272,1,120,0|8
216,272,9632,5,0
216,272,10012,1,8
120,272,10392,1,0
120,272,10772,1,8
56,200,11151,6,0,B|16:144|16:144,2,60,0|0|8
96,112,11911,2,0,B|136:168|136:168,2,60,0|0|8
176,64,12670,6,0,B|240:24|312:80,1,120,4|8
240,152,13430,2,0,B|304:192|376:136,1,120,0|8
304,64,14189,2,0,B|368:24|440:80,1,120,0|8
368,152,14949,2,0,B|432:192|504:136,1,120,0|8
496,248,15708,5,0
496,344,16088,1,8
408,312,16468,1,0
408,216,16848,1,8
256,192,17227,12,4,18746
256,96,19126,5,0
256,192,19506,1,0
256,192,19696,1,2
256,288,20076,1,0
256,192,20265,12,4,21784
136,112,22164,5,2
232,112,22544,1,0
232,112,22734,1,0
232,112,22924,2,0,B|296:144|360:104,1,120,2|0
440,112,23683,2,0,B|488:176|432:232,1,120,2|0
360,272,24443,1,2
264,288,24822,5,0
264,288,25012,1,0
264,288,25202,2,0,B|120:288,2,120,2|0|2
248,192,26341,5,0
248,192,26531,1,0
248,192,26721,2,0,B|392:192,2,120,2|0|2
200,112,27860,6,0,B|120:112|120:192,1,120,0|2
176,256,28620,2,0,B|256:256|256:176,1,120,0|2
256,88,29379,5,0
256,88,29569,1,0
256,88,29759,2,0,B|384:88,1,120,2|0
400,184,30519,2,0,B|240:184,1,120,2|0
184,184,31278,1,2
112,248,31658,1,0
184,312,32038,1,2
256,248,32417,5,4
256,248,32797,1,4
256,152,33177,2,0,B|256:104|256:104,8,30,0|0|0|0|0|0|0|0|4
352,168,34316,5,8
440,128,34696,1,0
440,128,34886,1,0
440,128,35076,1,8
352,88,35455,1,0
352,88,35835,1,8
264,56,36215,1,0
264,56,36405,1,0
264,56,36594,1,8
176,24,36974,6,0,B|40:24,1,120,0|8
80,120,37734,2,0,B|216:120,1,120,0|8
296,120,38493,1,0
384,160,38873,1,8
296,192,39253,1,0
296,192,39443,1,0
296,192,39632,1,8
200,216,40012,6,0,B|136:256|64:200,1,120,0|8
88,120,40772,2,0,B|152:80|224:136,1,120,0|8
288,168,41531,6,0,B|432:168|432:168,2,120,0|8|0
224,240,42670,2,0,B|80:240,1,120,8|0
56,160,43430,5,0
112,80,43810,1,0
112,80,44000,1,0
112,80,44189,1,8
256,192,44569,12,4,46088
256,120,46468,5,8
176,176,46848,2,0,B|104:176|104:176,2,60,0|0|8
240,248,47607,1,0
320,200,47987,1,8
408,152,48367,2,0,B|488:152,2,60,0|0|8
360,72,49126,6,0,B|200:72,1,120,0|8
160,128,49886,1,0
160,128,50076,1,0
160,128,50265,1,8
200,216,50645,2,0,B|264:240|336:208,3,120,0|8|0|8
400,168,52164,5,0
456,248,52544,1,8
368,288,52924,1,0
304,216,53303,1,8
248,136,53683,1,0
160,184,54063,1,8
216,264,54443,1,0
304,216,54822,1,8
344,128,55202,5,0
344,128,55392,1,0
344,128,55582,1,8
256,96,55962,1,0
256,96,56151,1,0
256,96,56341,1,8
256,192,56721,12,4,58240
256,192,58620,5,8
208,272,59000,1,0
208,272,59189,1,0
208,272,59379,1,8
256,192,59759,1,0
256,192,60139,1,8
304,112,60519,1,0
304,112,60708,1,0
304,112,60898,1,8
232,48,61278,6,0,B|160:16|112:56,1,120,0|8
40,112,62038,2,0,B|0:168|48:240,1,120,0|8
120,272,62797,2,0,B|184:304|248:272,1,120,0|8
328,248,63557,1,0
328,248,63746,1,0
328,248,63936,1,8
384,176,64316,6,0,B|384:48,1,120,4|8
296,16,65076,2,0,B|296:152,1,120,0|8
208,176,65835,2,0,B|208:48,1,120,0|8
120,16,66594,1,0
120,16,66784,1,0
120,16,66974,2,0,B|120:168,1,120,8|0
120,232,67734,5,8
168,320,68113,1,0
256,360,68493,1,8
256,264,68873,5,4
192,192,69253,1,4
256,120,69632,1,4
320,192,70012,1,4
416,192,70392,6,0,B|456:256|408:320,1,120,4|8
416,192,71151,2,0,B|368:136|416:80,1,120,0|8
328,40,71911,2,0,B|264:72|192:32,1,120,0|8
184,136,72670,1,0
184,136,72860,1,0
184,136,73050,2,0,B|120:104|56:144,1,120,8|0
32,224,73810,5,8
80,312,74189,1,0
144,240,74569,1,8
192,328,74949,1,0
256,256,75329,1,8
256,160,75708,2,0,B|256:88,2,60,0|0|8
336,216,76468,6,0,B|464:216,1,120,4|8
408,296,77227,2,0,B|264:296,1,120,0|8
208,352,77987,2,0,B|160:296|216:232,1,120,0|8
304,240,78746,2,0,B|344:184|296:112,1,120,0|8
256,40,79506,5,4
256,136,79886,1,8
256,136,80076,1,4
256,136,80265,1,0
256,232,80645,1,12
256,232,80835,1,0
256,192,81025,12,4,82544
256,144,97734,5,4
256,240,98113,5,2
208,328,98493,1,0
304,328,98873,1,2
352,240,99253,2,0,B|392:184|344:120,1,120,0|2
256,160,100012,2,0,B|216:104|264:40,1,120,0|2
352,32,100772,6,0,B|496:32,1,120,0|2
464,128,101531,1,0
368,128,101911,1,2
272,128,102291,2,0,B|128:128,1,120,0|2
168,224,103050,1,0
264,224,103430,1,2
360,224,103810,6,0,B|432:224|432:224,2,60,0|0|2
320,136,104569,2,0,B|400:136,2,60,0|0|2
280,48,105329,2,0,B|360:48,2,60,0|0|2
184,48,106088,5,0
184,48,106278,1,0
184,48,106468,1,2
184,48,106658,1,0
184,48,106848,2,0,B|104:48|72:112,1,120,0|2
64,192,107607,1,0
160,192,107987,1,0
256,136,108367,5,4
256,136,108746,1,4
256,232,109126,2,0,B|256:280|256:280,8,30,0|0|0|0|0|0|0|0|4
336,184,110265,5,8
424,136,110645,1,0
336,88,111025,1,8
248,136,111405,2,0,B|184:168|112:128,1,120,0|8
40,112,112164,2,0,B|40:264,1,120,0|8
88,312,112924,5,0
88,312,113113,1,0
88,312,113303,2,0,B|240:312,1,120,8|0
208,312,113873,1,0
208,312,114063,1,8
304,312,114443,2,0,B|440:312,1,120,0|8
456,224,115202,2,0,B|320:224,1,120,0|8
240,224,115962,5,0
240,224,116151,1,0
240,224,116341,1,8
144,224,116721,1,0
144,224,116911,1,0
144,224,117101,1,8
88,144,117481,1,0
88,144,117670,1,0
88,144,117860,1,8
184,144,118240,1,0
184,144,118430,1,0
184,144,118620,1,8
256,208,119000,6,0,B|256:336,3,120,0|8|0|8
256,192,120519,12,4,122038
256,192,122417,5,8
352,168,122797,1,0
416,96,123177,1,8
352,168,123557,2,0,B|440:296,1,120,0|8
344,320,124316,2,0,B|264:200,1,120,0|8
224,136,125076,6,0,B|160:176,2,60,0|0|8
168,64,125835,1,0
168,64,126025,1,0
168,64,126215,1,8
168,64,126405,1,0
168,64,126595,1,0
264,40,126974,1,8
360,64,127354,1,0
456,40,127734,1,8
456,136,128113,6,0,B|456:264,1,120,0|8
392,184,128873,2,0,B|392:328,1,120,0|8
328,232,129632,2,0,B|328:368,1,120,0|8
232,368,130392,1,0
232,368,130582,1,0
232,368,130772,1,8
152,320,131151,6,0,B|72:320|72:240,1,120,0|8
72,152,131911,2,0,B|72:72|152:72,1,120,0|8
256,192,132670,12,4,134189
400,136,134569,5,8
328,200,134949,1,0
256,264,135329,1,8
184,200,135708,1,0
112,136,136088,1,8
168,64,136468,2,0,B|232:64,1,60
280,64,136848,2,0,B|352:64,1,60,8|0
392,64,137227,6,0,B|440:128|384:192,1,120,0|8
304,152,137987,2,0,B|256:216|320:280,1,120,0|8
392,312,138746,2,0,B|520:312,3,120,0|8|0|8
464,232,140265,5,4
464,136,140645,1,8
376,168,141025,1,0
376,72,141405,1,8
288,104,141784,2,0,B|232:144|152:96,1,120,0|8
232,32,142544,2,0,B|168:-8|88:56,1,120,0|8
64,120,143303,5,0
64,120,143493,1,0
64,120,143683,1,8
160,120,144063,1,0
160,120,144253,1,0
160,120,144443,1,8
256,120,144822,5,4
320,192,145202,1,4
256,264,145582,1,4
192,192,145962,1,4
112,248,146341,5,4
176,320,146721,1,8
272,344,147101,1,0
272,344,147291,1,0
272,344,147481,1,8
368,320,147860,1,0
448,272,148240,1,8
496,192,148620,1,0
496,192,148810,1,0
496,192,149000,1,8
496,96,149379,6,0,B|496:24|416:24,1,120,0|8
320,24,150139,2,0,B|184:24,1,120,0|8
104,24,150898,1,0
104,24,151088,1,0
104,24,151278,1,8
104,24,151468,1,0
8,24,151848,1,0
8,24,152038,1,8
8,24,152227,1,0
8,24,152417,6,0,B|8:184,1,120,4|8
104,112,153177,2,0,B|104:248,1,120,0|8
200,208,153936,2,0,B|200:344,1,120,0|8
296,304,154696,2,0,B|296:376,2,60,0|0|8
336,216,155455,5,4
256,160,155835,1,8
256,160,156025,1,4
256,160,156215,1,0
176,216,156594,1,12
176,216,156784,1,0
256,192,156974,12,4,158493
