osu file format v12

[General]
AudioFilename: 4332398.mp3
AudioLeadIn: 1500
PreviewTime: 58956
Countdown: 0
SampleSet: Soft
StackLeniency: 0.7
Mode: 0
LetterboxInBreaks: 0
WidescreenStoryboard: 1

[Editor]
DistanceSpacing: 1
BeatDivisor: 4
GridSize: 4

[Metadata]
Title:Alea jacta est!
TitleUnicode:Alea jacta est!
Artist:Rita
ArtistUnicode:Rita
Creator:DELiS
Version:Normal
Source:Katahane
Tags:iyasine motion Blueberry Yogurt Shinichiro Matsumoto
BeatmapID:292056
BeatmapSetID:112150

[Difficulty]
HPDrainRate:3
CircleSize:3
OverallDifficulty:3
ApproachRate:4
SliderMultiplier:0.899999999999999
SliderTickRate:1

[Events]
//Background and Video events
0,0,"74934df1d147406319379777ed74b71f.jpg",0,0
//Break Periods
2,6937,17569
2,82887,92000
//Storyboard Layer 0 (Background)
//Storyboard Layer 1 (Fail)
//Storyboard Layer 2 (Pass)
//Storyboard Layer 3 (Foreground)
//Storyboard Sound Samples
//Background Colour Transformations
3,100,163,162,255

[TimingPoints]
-857,379.746835443038,4,2,1,100,1,0
661,-100,4,2,1,50,0,0
4839,-100,4,2,1,45,0,0
5218,-100,4,2,1,50,0,0
18889,-100,4,2,1,55,0,0
21927,-100,4,2,1,60,0,0
32465,-100,4,2,1,50,0,0
32655,-100,4,2,1,60,0,0
32845,-100,4,2,1,50,0,0
33035,-100,4,2,1,60,0,0
33225,-100,4,2,1,40,0,0
33510,-100,4,2,1,50,0,0
33889,-100,4,2,1,60,0,0
46231,-100,4,2,1,65,0,0
58383,-100,4,2,1,70,0,1
58763,-100,4,2,1,80,0,1
69016,-100,4,2,1,70,0,0
69775,-100,4,2,1,60,0,0
69870,-100,4,2,1,70,0,0
70535,-100,4,2,2,60,0,1
76611,-100,4,2,1,70,0,0
93320,-100,4,2,1,60,0,0
94079,-100,4,2,1,55,0,0
94839,-100,4,2,1,50,0,0
97877,-100,4,2,1,60,0,0
108415,-100,4,2,1,50,0,0
108605,-100,4,2,1,60,0,0
108794,-100,4,2,1,50,0,0
108984,-100,4,2,1,60,0,0
109174,-100,4,2,1,40,0,0
109554,-100,4,2,1,50,0,0
110029,-100,4,2,1,60,0,0
122180,-100,4,2,1,65,0,0
134332,-100,4,2,1,70,0,1
144965,-100,4,2,1,70,0,0
145630,-100,4,2,1,60,0,0
145820,-100,4,2,1,70,0,0
146484,-100,4,2,2,60,0,1
152560,-100,4,2,1,70,0,0
158636,-100,4,1,0,60,0,0
167560,-100,4,1,0,65,0,0
169269,-100,4,1,0,70,0,0
170788,-100,4,1,0,75,0,1
171168,-100,4,2,1,70,0,1
181421,-100,4,2,1,70,0,0
182180,-100,4,2,1,60,0,0
182275,-100,4,2,1,70,0,0
182940,-100,4,2,2,60,0,1
189016,-100,4,2,1,70,0,0
195092,-100,4,2,1,80,0,0

[Colours]
Combo1 : 125,190,255
Combo2 : 186,188,137
Combo3 : 255,166,255
Combo4 : 30,255,120

[HitObjects]
388,168,661,2,0,P|324:188|216:148,1,180,0|0,1:2|0:0,0:0:0:0:
176,72,1801,1,0,1:2:0:0:
92,108,2180,2,0,L|80:244,1,135,0|0,1:2|1:0,0:0:0:0:
144,308,3130,1,0,1:0:0:0:
144,308,3699,6,0,P|228:284|340:312,1,180,0|0,1:0|0:0,0:0:0:0:
400,336,4839,1,0,1:0:0:0:
476,288,5218,2,0,L|468:198,1,89.9999999999999,2|2,0:0|0:0,0:0:0:0:
460,108,5978,2,0,P|415:105|364:121,2,89.9999999999999,8|8|4,0:0|0:0|0:0,0:0:0:0:
156,192,18889,6,0,P|244:204|329:145,1,180,4|0,0:0|0:0,0:0:0:0:
376,88,20029,1,0,1:2:0:0:
440,152,20408,2,0,B|428:196|428:196|448:236|448:236|436:288,2,135,0|0|0,1:0|1:0|1:2,0:0:0:0:
460,64,21927,5,4,0:0:0:0:
348,144,22497,2,0,P|276:148|212:120,1,135,2|8,0:0|0:0,0:0:0:0:
144,72,23446,2,0,P|78:58|14:78,2,135,2|2|8,0:0|0:0|0:0,0:0:0:0:
220,124,24965,6,0,P|200:212|240:304,1,180,2|0,0:0|0:0,0:0:0:0:
312,336,26105,1,10,0:0:0:0:
400,312,26484,2,0,P|444:316|496:304,2,89.9999999999999,2|0|2,0:0|0:0|0:0,0:0:0:0:
332,256,27624,1,10,0:0:0:0:
408,208,28003,6,0,L|408:16,1,180,2|0,0:0|0:0,0:0:0:0:
320,44,29143,1,10,0:0:0:0:
248,96,29522,2,0,L|260:188,1,89.9999999999999,2|0,0:0|0:0,0:0:0:0:
184,236,30282,2,0,L|172:146,1,89.9999999999999,2|8,0:0|0:0,0:0:0:0:
164,56,31041,6,0,B|248:88|248:88|344:56,1,180,2|0,0:0|0:0,0:0:0:0:
416,92,32180,1,10,0:0:0:0:
440,180,32560,2,0,L|448:280,1,89.9999999999999,4|4,0:0|0:0,0:0:0:0:
404,352,33320,5,8,0:0:0:0:
316,376,33699,1,8,0:0:0:0:
228,356,34079,6,0,P|180:348|120:356,1,89.9999999999999,4|8,0:0|0:0,0:0:0:0:
96,364,34649,2,0,P|72:312|80:228,1,135,2|8,0:0|0:0,0:0:0:0:
160,204,35598,2,0,P|228:208|288:168,2,135,2|2|8,0:0|0:0|0:0,0:0:0:0:
72,196,37117,6,0,P|65:151|69:106,1,89.9999999999999,2|8,0:0|0:0,0:0:0:0:
132,44,37877,2,0,P|177:48|219:64,1,89.9999999999999,2|8,0:0|0:0,0:0:0:0:
260,144,38636,2,0,P|304:136|345:118,1,89.9999999999999,2|8,0:0|0:0,0:0:0:0:
384,96,39206,2,0,P|376:52|348:4,2,89.9999999999999,2|2|0,0:0|0:0|0:0,0:0:0:0:
384,140,40155,6,0,B|372:188|372:188|396:232|396:232|388:280|336:316,1,180,4|0,0:0|0:0,0:0:0:0:
272,336,41294,1,10,0:0:0:0:
192,300,41674,2,0,P|144:288|96:296,1,89.9999999999999,6|8,0:0|0:0,0:0:0:0:
16,316,42434,2,0,L|8:224,1,89.9999999999999,2|8,0:0|0:0,0:0:0:0:
4,136,43193,6,0,P|84:104|184:132,1,180,4|0,0:0|0:0,0:0:0:0:
240,176,44332,1,10,0:0:0:0:
312,232,44712,2,0,P|360:224|432:232,1,89.9999999999999,6|8,0:0|0:0,0:0:0:0:
484,260,45472,2,0,L|472:372,2,89.9999999999999,2|8|4,0:0|0:0|0:0,0:0:0:0:
392,160,46801,6,0,P|324:144|252:168,1,135,2|8,0:0|0:0,0:0:0:0:
228,244,47750,2,0,P|164:260|76:240,2,135,2|2|8,0:0|0:0|0:0,0:0:0:0:
262,161,49269,6,0,P|327:143|392:160,2,135,2|2|8,0:0|0:0|0:0,0:0:0:0:
176,196,50788,2,0,L|168:106,1,89.9999999999999,2|8,0:0|0:0,0:0:0:0:
156,16,51548,2,0,P|108:24|71:46,1,89.9999999999999,2|8,0:0|0:0,0:0:0:0:
80,136,52307,6,0,P|172:152|252:96,1,180,4|0,0:0|0:0,0:0:0:0:
272,24,53446,1,10,0:0:0:0:
348,68,53826,2,0,P|396:144|364:248,1,180,6|0,0:0|0:0,0:0:0:0:
324,300,54965,1,10,0:0:0:0:
252,244,55345,6,0,L|155:269,1,89.9999999999999,6|8,0:0|0:0,0:0:0:0:
76,288,56105,2,0,P|32:264|8:224,1,89.9999999999999,2|8,0:0|0:0,0:0:0:0:
24,144,56864,1,6,0:0:0:0:
112,124,57244,1,8,0:0:0:0:
184,180,57624,2,0,P|228:172|266:149,1,89.9999999999999,6|8,0:0|0:0,0:0:0:0:
324,80,58383,5,4,1:1:0:0:
324,80,58953,2,0,L|328:224,1,135,4|8,0:0|0:0,0:0:0:0:
336,304,59902,2,0,P|288:312|224:308,1,89.9999999999999,2|8,0:0|0:0,0:0:0:0:
208,292,60472,2,0,P|152:288|96:300,1,89.9999999999999,2|0,0:0|0:0,0:0:0:0:
76,276,61041,1,8,0:0:0:0:
32,196,61421,6,0,P|44:156|40:88,1,89.9999999999999,6|8,0:0|0:0,0:0:0:0:
32,64,61991,2,0,P|88:44|176:64,1,135,2|8,0:0|0:0,0:0:0:0:
216,124,62940,2,0,P|264:124|324:112,1,89.9999999999999,2|8,0:0|0:0,0:0:0:0:
348,104,63510,2,0,P|372:172|348:244,1,135,2|8,0:0|0:0,0:0:0:0:
304,304,64459,5,4,0:0:0:0:
232,252,64839,2,0,P|148:224|60:268,1,180,10|8,0:0|0:0,0:0:0:0:
20,184,65978,2,0,P|8:136|16:88,2,89.9999999999999,2|8|0,0:0|0:0|0:0,0:0:0:0:
108,200,67117,1,10,0:0:0:0:
112,292,67497,6,0,P|64:308|8:300,2,89.9999999999999,6|8|0,0:0|0:0|0:0,0:0:0:0:
188,244,68636,1,10,0:0:0:0:
264,292,69016,2,0,P|308:300|360:288,1,89.9999999999999,4|0,0:0|0:0,0:0:0:0:
444,280,69775,2,0,P|452:232|440:184,1,89.9999999999999,4|0,0:0|0:0,0:0:0:0:
432,100,70535,6,0,P|352:72|256:100,1,180,4|0,0:0|0:0,0:0:0:0:
220,176,71674,1,8,0:0:0:0:
144,128,72054,2,0,P|80:112|4:144,2,135,8|8|8,0:0|0:0|0:0,0:0:0:0:
220,176,73573,6,0,L|208:320,2,135,8|8|8,0:0|0:0|0:0,0:0:0:0:
262,95,75092,2,0,P|328:72|392:88,2,135,8|8|8,0:0|0:0|0:0,0:0:0:0:
272,184,76611,6,0,P|280:251|180:312,1,180,4|0,0:0|0:0,0:0:0:0:
192,224,77750,1,8,0:0:0:0:
204,136,78130,2,0,L|304:124,1,89.9999999999999,2|8,0:0|0:0,0:0:0:0:
384,124,78889,2,0,P|399:167|396:213,1,89.9999999999999,2|8,0:0|0:0,0:0:0:0:
328,268,79649,6,0,P|327:313|354:381,2,89.9999999999999,6|8|2,0:0|0:0|0:0,0:0:0:0:
276,196,80788,1,8,0:0:0:0:
220,264,81168,2,0,P|152:260|96:308,2,135,4|10|8,0:0|0:0|0:0,0:0:0:0:
256,180,82687,5,4,0:0:0:0:
152,120,93320,6,2,P|200:120|248:116,1,89.9999999999999,4|4,0:0|0:0,0:0:0:0:
272,200,94079,2,2,P|227:199|182:203,1,89.9999999999999,0|0,0:0|0:0,0:0:0:0:
92,208,94839,6,0,P|88:260|56:308,1,89.9999999999999,4|0,1:2|0:0,0:0:0:0:
140,348,95598,2,0,L|232:323,1,89.9999999999999,0|0,1:0|0:0,0:0:0:0:
312,300,96358,2,0,P|316:216|240:156,1,180,0|0,1:0|0:0,0:0:0:0:
160,144,97497,1,0,1:0:0:0:
80,188,97877,5,4,0:0:0:0:
52,52,98446,2,0,P|124:44|192:56,1,135,2|8,0:0|0:0,0:0:0:0:
232,132,99396,2,0,P|300:148|368:120,2,135,2|2|8,0:0|0:0|0:0,0:0:0:0:
148,100,100915,6,0,P|132:142|128:186,1,89.9999999999999,2|0,0:0|0:0,0:0:0:0:
164,268,101674,2,0,P|208:272|252:264,1,89.9999999999999,2|8,0:0|0:0,0:0:0:0:
340,240,102434,2,0,P|356:284|352:348,2,89.9999999999999,2|0|2,0:0|0:0|0:0,0:0:0:0:
296,164,103573,1,8,0:0:0:0:
204,160,103953,6,0,P|116:176|36:120,1,180,2|0,0:0|0:0,0:0:0:0:
48,40,105092,1,8,0:0:0:0:
132,72,105472,2,0,L|120:176,1,89.9999999999999,2|0,0:0|0:0,0:0:0:0:
188,224,106231,2,0,L|200:328,1,89.9999999999999,2|8,0:0|0:0,0:0:0:0:
280,272,106991,6,0,P|348:236|452:276,1,180,2|0,0:0|0:0,0:0:0:0:
500,332,108130,1,10,0:0:0:0:
441,265,108510,2,0,P|456:224|444:156,1,89.9999999999999,4|4,0:0|0:0,0:0:0:0:
412,96,109269,5,8,0:0:0:0:
340,44,109649,1,8,0:0:0:0:
260,84,110029,6,0,P|212:88|152:72,1,89.9999999999999,4|8,0:0|0:0,0:0:0:0:
128,68,110598,2,0,P|108:120|128:204,1,135,2|8,0:0|0:0,0:0:0:0:
204,240,111548,2,0,P|152:284|84:280,2,135,2|2|8,0:0|0:0|0:0,0:0:0:0:
228,152,113067,6,0,L|132:148,2,89.9999999999999,2|8|0,0:0|0:0|0:0,0:0:0:0:
316,160,114206,1,10,0:0:0:0:
281,243,114586,2,0,P|271:287|272:332,1,89.9999999999999,2|8,0:0|0:0,0:0:0:0:
312,356,115155,2,0,L|412:348,2,89.9999999999999,2|2|0,0:0|0:0|0:0,0:0:0:0:
272,332,116105,6,0,P|196:372|92:340,1,180,4|0,0:0|0:0,0:0:0:0:
80,264,117244,1,10,0:0:0:0:
156,212,117624,2,0,P|144:168|148:104,1,89.9999999999999,2|8,0:0|0:0,0:0:0:0:
164,36,118383,2,0,P|209:35|270:56,1,89.9999999999999,2|8,0:0|0:0,0:0:0:0:
312,116,119143,6,0,P|364:128|432:112,1,89.9999999999999,6|8,0:0|0:0,0:0:0:0:
480,80,119902,1,2,0:0:0:0:
488,168,120282,1,8,0:0:0:0:
496,256,120661,2,0,L|396:268,1,89.9999999999999,6|8,0:0|0:0,0:0:0:0:
316,284,121421,2,0,P|316:328|332:384,2,89.9999999999999,2|8|4,0:0|0:0|0:0,0:0:0:0:
324,148,122750,6,0,P|264:128|184:140,1,135,2|8,0:0|0:0,0:0:0:0:
136,204,123699,2,0,P|64:212|4:184,2,135,2|2|8,0:0|0:0|0:0,0:0:0:0:
193,136,125218,6,0,P|260:127|324:148,2,135,2|2|8,0:0|0:0|0:0,0:0:0:0:
136,204,126737,2,0,L|124:296,1,89.9999999999999,2|8,0:0|0:0,0:0:0:0:
216,288,127497,2,0,L|228:380,1,89.9999999999999,2|8,0:0|0:0,0:0:0:0:
304,328,128256,6,0,P|392:352|468:304,1,180,6|0,0:0|0:0,0:0:0:0:
484,220,129396,1,8,0:0:0:0:
412,164,129775,2,0,P|320:140|236:176,1,180,2|0,0:0|0:0,0:0:0:0:
188,244,130915,1,8,0:0:0:0:
104,216,131294,6,0,P|88:172|92:120,1,89.9999999999999,6|0,0:0|0:0,0:0:0:0:
124,48,132054,2,0,P|172:56|236:52,1,89.9999999999999,2|0,0:0|0:0,0:0:0:0:
304,44,132813,1,6,0:0:0:0:
388,8,133193,1,0,0:0:0:0:
464,56,133573,2,0,L|456:164,1,89.9999999999999,6|0,0:0|0:0,0:0:0:0:
448,236,134332,5,4,1:1:0:0:
448,236,134902,2,0,P|368:224|304:248,1,135,4|8,0:0|0:0,0:0:0:0:
252,304,135851,2,0,P|200:312|132:292,1,89.9999999999999,2|8,0:0|0:0,0:0:0:0:
120,304,136421,2,0,P|124:260|104:208,1,89.9999999999999,2|0,0:0|0:0,0:0:0:0:
76,184,136991,1,8,0:0:0:0:
136,116,137370,6,0,P|180:136|236:136,1,89.9999999999999,6|8,0:0|0:0,0:0:0:0:
268,136,137940,2,0,P|280:188|256:268,1,135,2|8,0:0|0:0,0:0:0:0:
176,300,138889,2,0,P|128:288|72:292,1,89.9999999999999,2|8,0:0|0:0,0:0:0:0:
44,292,139459,2,0,P|32:244|56:148,1,135,2|8,0:0|0:0,0:0:0:0:
100,88,140408,5,4,0:0:0:0:
140,168,140788,2,0,P|192:188|304:136,1,180,10|8,0:0|0:0,0:0:0:0:
388,116,141927,2,0,P|404:164|400:228,2,89.9999999999999,2|8|0,0:0|0:0|0:0,0:0:0:0:
304,84,143067,1,10,0:0:0:0:
252,156,143446,6,0,L|255:245,2,89.9999999999999,6|8|0,0:0|0:0|0:0,0:0:0:0:
172,116,144586,1,10,0:0:0:0:
160,204,144965,2,0,P|112:188|84:136,1,89.9999999999999,4|8,0:0|0:0,0:0:0:0:
172,116,145725,2,0,L|168:20,1,89.9999999999999,4|8,0:0|0:0,0:0:0:0:
252,56,146484,6,0,P|340:32|428:60,1,180,4|0,0:0|0:0,0:0:0:0:
364,124,147624,1,8,0:0:0:0:
420,196,148003,2,0,L|412:352,2,135,8|8|8,0:0|0:0|0:0,0:0:0:0:
364,124,149522,6,0,P|300:136|232:104,2,135,8|8|8,0:0|0:0|0:0,0:0:0:0:
420,196,151041,2,0,L|412:352,2,135,8|8|8,0:0|0:0|0:0,0:0:0:0:
336,228,152560,6,0,P|256:196|160:220,1,180,4|0,0:0|0:0,0:0:0:0:
104,280,153699,1,10,0:0:0:0:
48,208,154079,2,0,L|40:116,1,89.9999999999999,2|8,0:0|0:0,0:0:0:0:
128,108,154839,2,0,L|135:18,1,89.9999999999999,2|8,0:0|0:0,0:0:0:0:
224,40,155598,6,0,P|272:44|332:28,1,89.9999999999999,6|8,0:0|0:0,0:0:0:0:
404,28,156358,2,0,P|404:76|392:124,1,89.9999999999999,2|8,0:0|0:0,0:0:0:0:
304,132,157117,2,0,L|336:272,2,135,4|10|8,0:0|0:0|0:0,0:0:0:0:
304,40,158636,6,0,P|264:24|208:20,1,89.9999999999999,4|2,0:0|0:0,0:0:0:0:
180,100,159396,2,0,P|138:87|82:88,1,89.9999999999999,4|2,0:0|0:0,0:0:0:0:
8,52,160155,2,0,L|12:156,1,89.9999999999999,2|2,0:0|0:0,0:0:0:0:
92,180,160915,2,0,L|88:284,1,89.9999999999999,2|2,0:0|0:0,0:0:0:0:
92,360,161674,6,0,P|188:336|264:376,1,180,6|2,0:0|0:0,0:0:0:0:
344,344,162813,1,2,0:0:0:0:
280,280,163193,2,0,P|236:256|216:208,1,89.9999999999999,2|2,0:0|0:0,0:0:0:0:
212,132,163953,2,0,L|104:128,1,89.9999999999999,2|2,0:0|0:0,0:0:0:0:
32,120,164712,6,0,P|28:212|96:280,1,180,6|2,0:0|0:0,0:0:0:0:
172,260,165851,1,2,0:0:0:0:
244,316,166231,2,0,P|296:316|364:292,1,89.9999999999999,2|2,0:0|0:0,0:0:0:0:
416,272,166991,2,0,L|424:168,1,89.9999999999999,2|2,0:0|0:0,0:0:0:0:
436,92,167750,6,0,P|384:56|272:88,1,180,6|2,0:0|0:0,0:0:0:0:
236,164,168889,1,2,0:0:0:0:
152,196,169269,2,0,P|106:197|42:179,1,89.9999999999999,6|2,0:0|0:0,0:0:0:0:
72,100,170029,2,0,P|116:100|180:120,1,89.9999999999999,2|2,0:0|0:0,0:0:0:0:
244,148,170788,5,6,0:0:0:0:
244,148,171358,2,0,B|222:194|222:194|248:224|252:280,1,135,4|8,0:0|0:0,0:0:0:0:
252,360,172307,2,0,P|204:364|148:344,1,89.9999999999999,2|8,0:0|0:0,0:0:0:0:
152,308,172877,2,0,P|112:292|56:296,1,89.9999999999999,2|0,0:0|0:0,0:0:0:0:
24,312,173446,1,0,0:0:0:0:
24,220,173826,6,0,P|36:180|32:128,1,89.9999999999999,6|8,0:0|0:0,0:0:0:0:
44,88,174396,2,0,P|112:76|176:104,1,135
204,184,175345,2,0,P|248:180|288:144,1,89.9999999999999,2|8,0:0|0:0,0:0:0:0:
316,124,175915,2,0,P|352:184|348:260,1,135,2|8,0:0|0:0,0:0:0:0:
348,336,176864,5,4,0:0:0:0:
256,324,177244,2,0,P|176:304|92:348,1,180,10|8,0:0|0:0,0:0:0:0:
56,264,178383,2,0,L|68:168,2,89.9999999999999,2|8|0,0:0|0:0|0:0,0:0:0:0:
0,340,179522,1,10,0:0:0:0:
88,344,179902,6,0,P|136:340|184:348,2,89.9999999999999,6|8|0,0:0|0:0|0:0,0:0:0:0:
0,340,181041,1,10,0:0:0:0:
32,256,181421,2,0,P|41:212|36:167,1,89.9999999999999,4|0,0:0|0:0,0:0:0:0:
32,76,182180,2,0,P|76:70|120:78,1,89.9999999999999,4|0,0:0|0:0,0:0:0:0:
200,120,182940,6,0,P|288:140|376:100,1,180,4|0,0:0|0:0,0:0:0:0:
444,60,184079,1,8,0:0:0:0:
456,148,184459,2,0,L|444:296,2,135,8|8|8,0:0|0:0|0:0,0:0:0:0:
444,60,185978,6,0,P|384:32|316:48,2,135,8|8|8,0:0|0:0|0:0,0:0:0:0:
372,116,187497,2,0,P|296:128|240:88,2,135,8|8|8,0:0|0:0|0:0,0:0:0:0:
452,80,189016,6,0,P|488:160|452:264,1,180,4|0,0:0|0:0,0:0:0:0:
408,316,190155,1,8,0:0:0:0:
328,272,190535,2,0,P|284:268|224:288,1,89.9999999999999,2|8,0:0|0:0,0:0:0:0:
224,192,191294,2,0,P|272:180|340:188,1,89.9999999999999,2|8,0:0|0:0,0:0:0:0:
400,196,192054,6,0,P|416:240|448:276,1,89.9999999999999,6|8,0:0|0:0,0:0:0:0:
492,196,192813,2,0,P|480:152|444:116,1,89.9999999999999,2|8,0:0|0:0,0:0:0:0:
364,92,193573,2,0,P|298:78|233:94,2,135,4|10|8,0:0|0:0|0:0,0:0:0:0:
448,120,195092,5,4,0:0:0:0:
