osu file format v9

[General]
AudioFilename: Rita - Alea Jacta Est!.mp3
AudioLeadIn: 0
PreviewTime: 64802
Countdown: 0
SampleSet: Normal
StackLeniency: 0.7
Mode: 0
LetterboxInBreaks: 1

[Editor]
Bookmarks: 18625,34384,46536,58688,70270,82422
DistanceSpacing: 1
BeatDivisor: 4
GridSize: 8

[Metadata]
Title:Alea Jacta Est!
Artist:Rita
Creator:jusufkala
Version:Normal
Source:Katahane
Tags:Tarte eroge yuri

[Difficulty]
HPDrainRate:4
CircleSize:3
OverallDifficulty:4
ApproachRate:3
SliderMultiplier:1.4
SliderTickRate:0.5

[Events]
//Background and Video events
Video,0,"katahane_op_frame(xvid).avi"
0,0,"konachan-com-76754-fue-katahane.jpg"
//Break Periods
2,18825,20792
//Storyboard Layer 0 (Background)
//Storyboard Layer 1 (Fail)
//Storyboard Layer 2 (Pass)
//Storyboard Layer 3 (Foreground)
//Storyboard Sound Samples
//Background Colour Transformations
3,100,163,162,255

[TimingPoints]
4954.18715273632,379.746835443038,4,1,0,60,1,0
6473,-100,4,2,0,80,0,0
22232,-100,4,2,0,80,0,0
32295,-100,4,1,0,60,0,0
34384,-100,4,2,0,80,0,0
44447,-100,4,1,0,60,0,0
46536,-133.333333333333,4,2,0,80,0,0
58118,-100,4,2,0,80,0,1
68751,-100,4,1,0,60,0,0
70270,-100,4,2,0,80,0,1
80903,-100,4,1,0,60,0,0
82422,-100,4,2,0,80,0,0

[Colours]
Combo1 : 255,128,64
Combo2 : 16,159,228
Combo3 : 255,220,155

[HitObjects]
256,192,4954,1,0
256,192,5333,1,0
256,192,5713,1,0
256,192,6093,1,4
136,120,6473,6,0,B|168:72|256:48|344:72|384:128,1,280,2|0
352,200,7422,2,0,B|376:248|432:232,1,70
448,176,7802,2,0,B|512:192|504:272|480:320|392:312,1,210,2|0
328,312,8561,1,0
256,312,8751,2,0,B|256:232,1,70
136,312,9321,6,0,B|80:272|64:224|80:176|136:120,1,210,0|2
120,56,10080,2,0,B|160:24|224:56|216:112,1,140
288,112,10650,2,0,B|376:112,2,70,2|0|0
400,192,11409,2,0,B|272:280|248:128|128:208,1,280,2|0
80,328,12549,6,0,B|16:288|-8:208|16:144|56:96|112:104,1,280,2|0
160,96,13498,2,0,B|208:104|208:176,3,70,0|2|0|0
336,96,14447,2,0,B|376:152|344:232|248:280|168:232,1,280,2|0
40,232,15587,2,0,B|56:312|128:360|224:352,1,210
168,216,16536,2,2,B|208:184|272:184|320:232,1,140
256,192,17106,12,0,18625
136,176,22232,6,0,B|144:112|184:72|256:32|320:72|368:112|376:184,1,350
256,352,23751,2,0,B|256:200,1,140
256,144,24321,1,0
256,144,24511,1,0
184,144,24701,2,0,B|96:144|56:240|88:336|208:320,1,280
288,232,25840,2,0,B|200:232,1,70,0|2
56,96,26789,5,0
128,96,27169,2,0,B|208:96,1,70
272,96,27549,1,0
344,96,27738,2,0,B|448:120|472:224|392:296|328:288,1,280,0|0
248,192,28878,2,0,B|152:192,2,70,0|2|2
40,264,29827,6,0,B|16:296|40:344,2,70
104,296,30397,2,0,B|128:256|96:208,1,70,2|0
104,160,30776,2,0,B|152:112|224:72|312:112|352:160,1,280
232,224,31916,2,0,B|232:304,1,70,2|0
256,192,32295,12,0,33814
328,104,34384,6,0,B|216:72|144:192|224:312|328:280,1,350,8|0
512,184,35903,2,0,B|288:184,1,210
256,56,36852,2,0,B|168:40|136:128,2,140,0|8|0
216,192,37992,2,0,B|224:240|168:264,1,70,8|0
376,64,38941,6,0,B|376:224,1,140
256,128,39701,1,0
256,56,39890,2,0,B|176:32|104:80|104:200|248:208,1,280,8|0
352,208,41030,1,8
440,320,41409,2,0,B|384:376|312:328,1,140,0|8
240,208,42169,2,0,B|184:152|112:200,1,140,0|8
184,320,42928,2,0,B|128:376|56:328,3,140,0|8|0|8
256,192,44447,12,4,45966
112,56,46536,6,0,B|224:56,1,104.999996870756,2|0
256,96,47106,2,0,B|376:96,1,104.999996870756,2|2
464,216,48055,2,0,B|504:272|456:328,1,104.999996870756,0|0
416,328,48625,2,0,B|360:368|304:320,1,104.999996870756,2|0
280,296,49194,1,2
240,264,49384,2,0,B|208:248|208:208,1,52.4999984353781,2|0
200,64,50144,2,0,B|168:40|136:72,1,52.4999984353781
256,192,52042,5,6
160,64,52612,2,0,B|48:120|88:248,1,209.999993741512
112,280,53561,2,0,B|184:360|328:360|408:280,1,314.999990612269
400,184,55080,2,0,B|328:104|184:104|104:184,1,314.999990612269
256,192,56409,12,4,58118
256,64,58688,5,8
256,136,58878,2,0,B|256:288,2,140,0|2|0
376,64,60017,2,0,B|400:96|376:144,1,70,8|0
336,264,60587,2,0,B|336:344,3,70,0|8|0|2
32,48,62295,5,0
120,152,62675,2,0,B|192:152,1,70,0|2
200,224,63055,2,0,B|272:224,1,70
368,128,63625,6,0,B|416:120|448:176,2,70,0|8|0
304,104,64194,2,0,B|256:112|224:56,2,70,0|0|8
312,176,64764,5,0
176,184,65144,2,0,B|112:192|80:256|112:328|184:328,1,210
296,256,66093,2,0,B|224:256,1,70,8|0
368,256,66663,2,0,B|440:256,1,70,0|8
480,120,67232,2,0,B|440:72|400:40|328:16|240:40|208:72|176:120,1,350
136,168,68371,1,2
136,168,68561,1,2
72,192,68751,5,0
200,192,69131,1,0
136,320,69511,1,0
136,320,69890,1,0
136,320,70270,6,0,B|136:232,2,70,4|0|8
208,320,70840,2,0,B|256:368|360:368|408:320,1,210
304,224,71789,2,0,B|304:80,1,140,0|8
360,48,72359,2,0,B|416:64|432:120|400:192,1,140
408,232,72928,1,8
312,328,73308,2,0,B|368:384|464:376|504:320,2,210,0|0|8
200,240,74827,2,0,B|256:184|352:192|392:248,1,210,0|0
104,40,76346,6,2,B|40:96|88:176,1,140
256,120,77106,2,0,B|320:176|272:256,1,140,0|2
144,152,77865,2,0,B|144:304,1,140,0|2
80,104,78625,2,2,B|16:160|64:240,1,140,0|2
216,304,79384,6,0,B|304:304,3,70,0|0|2|2
288,232,80144,2,0,B|368:232,4,70,0|0|2|2|0
256,192,81093,12,4,82422
256,80,83371,6,0,B|256:176,1,70
328,160,83751,2,0,B|416:168|456:248|400:352|328:344,1,280,2|0
192,344,84890,1,0
192,344,85270,2,0,B|120:240|256:240|192:120,1,210,2|0
204,148,86030,1,2
344,152,86409,1,0
480,168,86789,2,0,B|512:248|440:328|352:304,1,210
304,304,87549,2,0,B|240:256|168:304,1,140
88,104,88498,6,0,B|224:48|256:176|432:96,1,350,2|0
432,168,89637,2,0,B|456:208|432:240,1,70
368,232,90017,2,0,B|224:232,1,140,2|0
192,168,90587,2,0,B|136:184|120:240|168:296,1,140
288,320,91346,2,0,B|368:344|424:296,2,140,2|0|0
144,320,92485,2,2,B|112:256|192:264|160:160,1,140
256,192,93055,12,0,97612
