osu file format v9

[General]
AudioFilename: Rita - Alea Jacta Est!.mp3
AudioLeadIn: 0
PreviewTime: 64802
Countdown: 0
SampleSet: Normal
StackLeniency: 0.7
Mode: 0
LetterboxInBreaks: 1

[Editor]
Bookmarks: 6473,18625,34384,46536,58688,70270,82422
DistanceSpacing: 1
BeatDivisor: 2
GridSize: 8

[Metadata]
Title:Alea Jacta Est!
Artist:Rita
Creator:jusufkala
Version:Easy
Source:Katahane
Tags:Tarte eroge yuri

[Difficulty]
HPDrainRate:2
CircleSize:3
OverallDifficulty:2
ApproachRate:3
SliderMultiplier:1.2
SliderTickRate:1

[Events]
//Background and Video events
Video,0,"katahane_op_frame(xvid).avi"
0,0,"72618.jpg"
//Break Periods
2,18825,20792
//Storyboard Layer 0 (Background)
//Storyboard Layer 1 (Fail)
//Storyboard Layer 2 (Pass)
//Storyboard Layer 3 (Foreground)
//Storyboard Sound Samples
//Background Colour Transformations
3,100,163,162,255

[TimingPoints]
4954.18715273632,379.746835443038,4,1,0,60,1,0
6473,-100,4,2,0,80,0,0
58118,-100,4,2,0,80,0,1
68751,-100,4,1,0,60,0,0
70270,-100,4,2,0,80,0,1
80903,-100,4,2,0,80,0,0

[Colours]
Combo1 : 255,128,64
Combo2 : 16,159,228
Combo3 : 255,220,155

[HitObjects]
256,72,6473,1,0
48,192,7232,1,0
256,312,7992,1,0
464,200,8751,1,0
224,192,9511,6,0,B|160:184|104:96|176:40|240:40,1,240,0|2
304,272,11030,2,0,B|368:264|424:176|352:120|288:120,1,240,0|2
64,192,12549,5,0
64,192,13308,2,0,B|304:192,1,240,2|0
80,112,14827,2,0,B|136:48|232:48|304:120,1,240,2|0
192,328,16346,1,2
256,192,17106,12,0,18625
296,48,22232,6,0,B|392:40|448:128|392:224|288:216,1,300
224,48,23751,2,0,B|32:48,1,180
120,136,24701,2,0,B|40:160|8:232|64:304|136:312,1,240
200,224,25840,2,0,B|112:224,1,60,0|0
344,352,26789,6,0,B|344:152,1,180
464,184,27738,2,0,B|456:72|344:24|232:72|232:192,1,360
232,304,29257,1,2
48,304,29827,6,0,B|0:256|0:184|48:136,1,180
152,88,30776,2,0,B|400:88,1,240
392,208,31916,2,0,B|392:272,1,60,2|0
256,192,32485,12,0,33814
152,88,34384,6,0,B|64:88|16:192|64:288|160:288,1,300,0|8
304,200,35903,2,0,B|336:144|432:144|464:208,1,180
376,288,36852,2,0,B|376:48,1,240
376,48,37992,1,8
376,48,38182,1,8
136,48,38941,6,0,B|208:152|56:152|160:288,1,240
192,312,39890,2,0,B|232:368|312:368|352:312,2,180,8|0|8
72,312,41409,1,0
72,72,42169,1,8
256,192,42928,12,4,45966
256,336,46536,6,0,B|256:104,1,180,8|0
256,156,47485,1,0
392,40,48055,2,0,B|392:232,1,180,0|8
296,288,49004,2,0,B|320:344|392:376|472:344|488:280,2,240
376,152,52612,6,0,B|344:88|256:48|176:88|136:120|128:168,1,300
256,280,54701,2,0,B|256:144,1,120,2|0
112,160,56220,2,0,B|112:232,1,60,2|0
256,192,56979,12,0,58118
256,64,58688,6,0,B|144:40|56:160|80:256,1,300,2|0
184,192,60017,2,0,B|264:192,1,60,8|0
296,296,60587,2,0,B|480:296,1,180
96,48,62295,5,0
96,48,62675,2,0,B|64:88|112:128|112:128|64:168|104:208|104:208,1,180
512,336,64764,6,0,B|416:280|416:408|304:312,1,180,2|0
400,232,65713,2,0,B|288:216|216:288|224:376,2,240
360,120,67612,1,2
240,120,67992,2,0,B|240:200|152:208,2,120,0|0|4
184,144,70270,6,0,B|184:56|256:40|328:56|328:152,2,240,2|0|0
232,320,72359,2,0,B|288:288|296:208|248:152,1,180,0|8
176,72,73308,2,0,B|120:104|112:184|160:240,1,180
312,296,74447,1,8
312,296,74827,2,0,B|312:112,1,180
48,264,76346,6,0,B|56:224|120:176|168:224|184:272,2,180,2|0|0
136,344,77865,2,0,B|320:344,1,180
432,336,78814,2,0,B|432:256,1,60,0|8
256,192,79384,12,4,82422
256,40,83941,5,2
256,40,84321,2,0,B|256:224,1,180
160,288,85270,2,0,B|200:368|320:368|352:288,1,240,2|0
456,224,86409,2,0,B|400:144|504:144|448:40,2,180
456,224,87928,1,0
296,312,88498,6,0,B|184:240|184:360|40:288,2,240,2|0|0
392,232,90397,2,0,B|464:272|464:344|392:384,1,180
344,272,91346,2,0,B|256:240|240:136|304:72,1,240,2|0
376,168,92485,2,2,B|400:136|432:184|432:184|496:184,1,120
256,192,93055,12,0,96093
256,192,97612,5,4
