osu file format v6

[General]
AudioFilename: aka no sora.mp3
AudioLeadIn: 0
PreviewTime: -1
Countdown: 1
SampleSet: Normal
StackLeniency: 0.7
Mode: 0
LetterboxInBreaks: 1
SkinPreference:AKA KUU

[Editor]
DistanceSpacing: 0.800000011920929
BeatDivisor: 4
GridSize: 8

[Metadata]
Title:Aka no sora
Artist:Rita
Creator:Yousha
Version:oni
Source:
Tags:

[Difficulty]
HPDrainRate:9
CircleSize:5
OverallDifficulty:6
SliderMultiplier:2
SliderTickRate:2

[Events]
//Background and Video events
0,0,"OUEV0590.jpg"
//Break Periods
2,51720,52428
2,66069,66775
2,114547,125471
2,185851,195471
//Storyboard Layer 0 (Background)
//Storyboard Layer 1 (Fail)
//Storyboard Layer 2 (Pass)
//Storyboard Layer 3 (Foreground)
//Storyboard Sound Samples
//Background Colour Transformations
3,100,163,162,255

[TimingPoints]
39565,434.782608695652,4,1,1,100,1,0

[Colours]
Combo1 : 255,135,197
Combo2 : 255,135,248
Combo3 : 135,183,255
Combo4 : 135,255,172
Combo5 : 255,169,135

[HitObjects]
472,48,39565,1,0
424,16,39782,1,0
376,48,39999,1,0
424,112,40434,1,0
344,112,40651,1,0
136,48,41304,5,0
88,16,41521,1,0
40,48,41738,1,0
88,112,42065,1,0
128,112,42173,1,0
208,112,42391,1,0
32,224,43043,5,0
152,328,43478,1,0
88,224,43912,1,0
152,272,44130,1,0
304,328,44565,1,0
376,304,44782,1,0
432,248,44999,1,0
424,168,45217,2,0,B|384:200|304:176,2,100
368,112,45869,1,0
296,144,46086,1,0
256,24,46521,5,0
176,64,46956,2,0,B|112:8|48:40|24:32|32:136,1,200
112,160,47608,1,0
192,160,47825,1,0
256,48,48695,5,0
376,152,49130,1,0
320,304,49565,1,0
160,304,49999,1,0
96,152,50434,1,0
256,48,51086,2,0,B|376:112|312:216,1,200
480,320,53478,5,0
408,352,53695,1,0
344,304,53912,1,0
480,216,54347,1,0
400,216,54565,1,0
480,72,55217,5,0
416,32,55434,1,0
352,88,55651,1,0
480,160,55978,1,0
440,160,56086,1,0
360,160,56304,1,0
168,24,56956,5,0
48,136,57391,1,0
56,296,57825,1,0
136,304,58043,1,0
288,344,58478,1,0
120,288,58695,1,0
120,208,58912,1,0
160,136,59130,1,0
400,144,59782,1,0
480,128,59999,1,0
336,48,60434,5,0
424,72,60869,1,0
424,312,61521,1,0
352,352,61738,1,0
112,336,62391,1,0
64,272,62608,1,0
40,112,63043,1,0
176,24,63478,1,0
320,96,63912,1,0
160,96,64347,5,0
304,24,64782,1,0
448,88,65217,1,0
392,144,65434,1,0
304,280,65869,1,0
256,192,67825,12,0,69130
480,32,69565,5,0
320,32,69999,1,0
400,168,70434,1,0
400,88,70651,1,0
400,248,71086,1,0
400,328,71304,5,0
240,328,71738,1,0
400,328,72173,1,0
400,248,72391,1,0
408,88,72825,1,0
400,168,73043,5,0
488,32,73478,1,0
328,32,73912,1,0
400,72,74130,1,0
488,208,74565,1,0
408,200,74782,5,0
408,360,75217,1,0
248,360,75651,1,0
168,360,75869,1,0
32,280,76304,1,0
64,208,76521,5,0
112,56,76956,1,0
272,24,77391,1,0
408,104,77825,1,0
456,256,78260,1,0
312,328,78695,1,0
176,240,79130,1,0
112,88,79565,1,0
264,128,79999,2,4,B|488:80,3,200
304,56,81738,5,0
184,24,82065,1,0
128,128,82391,1,0
192,168,82608,1,0
32,200,83043,5,0
56,272,83260,1,0
136,296,83478,1,0
296,312,83912,5,0
368,336,84130,1,0
432,288,84347,1,0
496,144,84782,5,0
472,64,84999,1,0
392,40,85217,1,0
280,88,85543,1,0
288,128,85651,1,0
336,192,85869,1,0
416,208,86086,1,0
336,72,86521,5,0
280,16,86738,1,0
216,56,86956,1,0
88,152,87391,5,0
24,200,87608,1,0
48,280,87825,1,0
104,336,88043,1,0
176,304,88260,1,0
192,224,88478,1,0
112,240,88695,2,0,B|256:208,1,150
144,184,89347,1,0
168,264,89565,1,0
328,280,89999,5,0
400,320,90217,1,0
456,264,90434,1,0
472,104,90869,5,0
408,56,91086,1,0
336,88,91304,1,0
192,24,91738,5,0
112,8,91956,1,0
48,56,92173,1,0
32,176,92499,1,0
56,144,92608,1,0
120,192,92825,1,0
120,112,93043,1,0
256,32,93478,5,0
296,96,93695,1,0
216,96,93912,1,0
256,248,94347,5,0
232,328,94565,1,0
152,336,94782,1,0
88,288,94999,1,0
40,224,95217,1,0
104,176,95434,1,0
160,232,95651,2,0,B|280:320,1,200
336,192,96521,1,0
448,304,96956,5,0
448,224,97173,1,0
368,224,97391,1,0
448,80,97825,5,0
448,160,98043,1,0
368,160,98260,1,0
424,8,98695,5,0
336,8,98912,1,0
264,48,99130,1,0
160,104,99456,1,0
184,136,99565,1,0
264,152,99782,1,0
328,104,99999,1,0
472,176,100434,5,0
512,248,100651,1,0
440,288,100869,1,0
280,312,101304,5,0
200,336,101521,1,0
128,296,101738,1,0
96,224,101956,1,0
104,144,102173,1,0
168,192,102391,1,0
216,256,102608,2,0,B|344:288|416:208,2,200
128,128,103912,5,0
56,88,104130,1,0
120,40,104347,1,0
280,16,104782,5,0
344,64,104999,1,0
264,88,105217,1,0
424,112,105651,5,0
408,192,105869,1,0
328,192,106086,1,0
168,192,106521,5,0
168,352,106956,5,0
328,352,107391,5,0
256,192,107825,12,0,109565
32,120,110217,5,0
80,56,110434,1,0
160,64,110651,1,0
224,16,110869,1,0
304,32,111086,1,0
256,192,111304,12,0,114347
40,40,126521,5,0
120,56,126738,1,0
56,112,126956,1,0
208,168,127391,1,0
144,128,127608,1,0
360,32,128260,5,0
288,64,128478,1,0
352,104,128695,1,0
248,160,129021,1,0
272,136,129130,1,0
336,184,129347,1,0
504,352,129999,5,0
344,352,130434,1,0
472,256,130869,1,0
392,256,131086,1,0
416,96,131521,1,0
472,40,131738,1,0
392,16,131956,1,0
344,80,132173,2,0,B|248:168,1,200
152,280,132825,5,0
104,216,133043,1,0
240,128,133478,5,0
120,24,133912,1,0
32,248,134565,1,0
96,296,134782,1,0
416,272,135651,5,0
264,216,136086,1,0
112,272,136521,1,0
48,128,136956,1,0
160,16,137391,1,0
320,40,137825,1,0
440,144,138260,1,0
432,224,138478,1,0
304,320,138912,2,0,B|184:256,5,100
200,112,140434,1,0
344,48,140869,5,0
480,128,141304,1,0
392,264,141738,1,0
328,312,141956,1,0
176,360,142391,1,0
104,320,142608,1,0
40,176,143043,1,0
104,32,143478,1,0
184,48,143695,1,0
352,40,144130,1,0
424,72,144347,5,0
456,232,144782,1,0
360,360,145217,1,0
288,336,145434,1,0
128,360,145869,1,0
80,296,146086,1,0
40,144,146521,1,0
152,24,146956,1,0
232,48,147173,1,0
392,32,147608,1,0
416,104,147825,5,0
328,240,148260,1,0
256,96,148695,1,0
416,104,149130,1,0
328,240,149565,1,0
256,96,149999,1,0
416,104,150434,1,0
328,240,150869,1,0
200,152,151304,2,0,B|200:8|368:136|376:152|376:296|192:272,1,400
24,24,153043,5,0
128,80,153369,1,0
232,24,153695,1,0
296,72,153912,1,0
456,48,154347,5,0
504,112,154565,1,0
448,168,154782,1,0
496,320,155217,5,0
432,368,155434,1,0
368,328,155651,1,0
216,288,156086,5,0
144,328,156304,1,0
96,264,156521,1,0
48,152,156847,1,0
88,144,156956,1,0
136,208,157173,1,0
160,280,157391,1,0
56,160,157825,5,0
16,88,158043,1,0
88,56,158260,1,0
248,72,158695,5,0
304,8,158912,1,0
360,72,159130,1,0
424,16,159347,1,0
488,64,159565,1,0
424,112,159782,1,0
424,192,159999,2,0,B|328:336,2,200
272,144,161304,5,0
224,80,161521,1,0
144,104,161738,1,0
64,240,162173,5,0
88,312,162391,1,0
168,296,162608,1,0
312,360,163043,5,0
312,280,163260,1,0
392,296,163478,1,0
496,240,163804,1,0
480,200,163912,1,0
456,128,164130,1,0
400,72,164347,1,0
256,8,164782,5,0
304,72,164999,1,0
240,120,165217,1,0
120,16,165651,1,0
168,64,165869,1,0
112,120,166086,1,0
168,168,166304,1,0
112,224,166521,1,0
168,280,166738,1,0
112,336,166956,2,0,B|208:248|296:336,2,200
224,224,168260,5,0
280,168,168478,1,0
360,184,168695,1,0
456,264,169130,5,0
480,336,169347,1,0
400,344,169565,1,0
256,272,169999,5,0
216,344,170217,1,0
160,288,170434,1,0
56,224,170760,1,0
56,184,170869,1,0
88,112,171086,1,0
144,56,171304,1,0
304,40,171738,5,0
384,8,171956,1,0
432,72,172173,1,0
488,224,172608,5,0
440,288,172825,1,0
384,224,173043,1,0
336,288,173260,1,0
280,224,173478,1,0
232,288,173695,1,0
168,240,173912,2,0,B|304:80,1,200
376,72,174565,1,0
312,24,174782,1,0
176,104,175217,5,0
136,32,175434,1,0
216,16,175651,1,0
304,152,176086,5,0
328,72,176304,1,0
400,104,176521,1,0
472,248,176956,5,0
504,320,177173,1,0
424,336,177391,1,0
288,256,177825,1,0
152,344,178260,1,0
24,248,178695,1,0
176,192,179130,2,0,B|176:128|184:112,13,50
256,192,180869,5,0
24,136,181521,5,0
80,80,181738,1,0
152,40,181956,1,0
232,48,182173,1,0
256,192,182391,12,0,185651
88,40,196521,5,0
408,40,197391,1,0
416,360,198260,1,0
96,360,199130,1,0
88,40,199999,5,0
408,40,200869,1,0
416,360,201738,1,0
96,360,202608,1,0
88,40,203478,5,0
408,40,204347,1,0
408,360,205217,1,0
88,360,206086,1,0
88,40,206956,1,0
408,40,207825,1,0
408,360,208695,1,0
88,360,209565,1,0
312,136,210434,5,0
192,136,210760,1,0
256,248,211086,1,0
256,168,211304,1,0
152,48,211738,5,0
64,24,211956,1,0
48,104,212173,1,0
48,264,212608,5,0
24,336,212825,1,0
104,360,213043,1,0
256,328,213478,5,0
328,360,213695,1,0
376,296,213912,1,0
448,200,214238,1,0
432,160,214347,1,0
408,80,214565,1,0
336,40,214782,1,0
176,64,215217,5,0
96,16,215434,1,0
64,88,215651,1,0
56,248,216086,5,0
32,320,216304,1,0
104,352,216521,1,0
176,312,216738,1,0
248,352,216956,1,0
312,304,217173,1,0
392,328,217391,2,0,B|256:240,1,150
152,200,218043,1,0
216,152,218260,1,0
376,144,218695,5,0
408,72,218912,1,0
336,48,219130,1,0
192,120,219565,5,0
168,40,219782,1,0
88,56,219999,1,0
72,216,220434,5,0
48,296,220651,1,0
120,328,220869,1,0
232,288,221195,1,0
256,256,221304,1,0
336,264,221521,1,0
384,200,221738,1,0
496,88,222173,5,0
448,24,222391,1,0
368,40,222608,1,0
216,96,223043,5,0
168,32,223260,1,0
112,88,223478,1,0
56,32,223695,1,0
32,104,223912,1,0
256,192,224130,12,0,224782
448,200,225217,6,0,B|448:176|448:104,2,50
464,280,225651,5,0
488,352,225869,1,0
408,344,226086,1,0
256,288,226521,5,0
200,344,226738,1,0
144,288,226956,1,0
56,152,227391,5,0
32,72,227608,1,0
112,56,227825,1,0
224,16,228151,1,0
248,48,228260,1,0
328,64,228478,1,0
376,144,228695,1,0
464,280,229130,5,0
456,360,229347,1,0
376,336,229565,1,0
240,248,229999,5,0
192,312,230217,1,0
120,272,230434,1,0
48,232,230651,1,0
48,152,230869,1,0
72,72,231086,1,0
152,64,231304,2,0,B|88:144,2,200
312,80,232608,5,0
376,32,232825,1,0
296,16,233043,1,0
208,96,233478,5,0
160,32,233695,1,0
96,80,233912,1,0
48,232,234347,5,0
120,264,234565,1,0
160,192,234782,1,0
320,192,235217,1,0
320,32,235651,1,0
160,32,236086,1,0
168,176,236521,2,0,B|248:256|288:136|264:152,7,100
256,192,238260,5,0
416,16,238912,5,0
456,80,239130,1,0
480,152,239347,1,0
424,208,239565,1,0
352,240,239782,1,0
256,192,239999,12,0,243043
