osu file format v14

[General]
AudioFilename: Aka no Sora.mp3
AudioLeadIn: 1500
PreviewTime: 81542
Countdown: 0
SampleSet: Soft
StackLeniency: 0.7
Mode: 0
LetterboxInBreaks: 0
WidescreenStoryboard: 0

[Editor]
Bookmarks: 38509,52422,68074,95900,109813,123726
DistanceSpacing: 1.4
BeatDivisor: 8
GridSize: 4
TimelineZoom: 1.800001

[Metadata]
Title:Aka no Sora
TitleUnicode:紅の空
Artist:Rita
ArtistUnicode:Rita
Creator:Citrus
Version:Normal
Source:鬼うた。
Tags:BakaHuang Axey 130cm U-ma 〜鬼が来たりて、甘えさせろとのたもうた。〜 鬼宴 -oniuta- 新井健史
BeatmapID:792807
BeatmapSetID:358801

[Difficulty]
HPDrainRate:4
CircleSize:3
OverallDifficulty:4
ApproachRate:5
SliderMultiplier:1.2
SliderTickRate:1

[Events]
//Background and Video events
0,0,"BG3.jpg",0,0
Video,-60,"op.flv"
//Break Periods
//Storyboard Layer 0 (Background)
//Storyboard Layer 1 (Fail)
//Storyboard Layer 2 (Pass)
//Storyboard Layer 3 (Foreground)
//Storyboard Layer 4 (Overlay)
//Storyboard Sound Samples

[TimingPoints]
638,705.882352941176,4,2,1,60,1,0
2402,-100,4,2,1,40,0,0
2579,-100,4,2,1,60,0,0
3814,-100,4,2,1,40,0,0
3990,-100,4,2,1,60,0,0
5226,-100,4,2,1,40,0,0
5402,-100,4,2,1,60,0,0
6285,-100,4,2,2,40,0,0
6461,-100,4,2,1,60,0,0
8049,-100,4,2,1,40,0,0
8226,-100,4,2,1,60,0,0
10873,-100,4,2,1,40,0,0
11049,-100,4,2,1,60,0,0
11932,-100,4,2,2,40,0,0
12108,-100,4,2,1,60,0,0
13696,-100,4,2,1,40,0,0
13873,-100,4,2,1,60,0,0
15108,-100,4,2,1,40,0,0
15285,-100,4,2,1,60,0,0
17579,-100,4,2,2,40,0,0
17755,-100,4,2,1,60,0,0
19343,-100,4,2,1,40,0,0
19520,-100,4,2,1,60,0,0
21108,434.782608695652,4,2,1,80,1,0
21325,-100,4,2,1,40,0,0
22847,-100,4,2,2,100,0,0
36325,-100,4,1,0,30,0,0
38499,-100,4,2,0,70,0,0
38535,-100,4,2,2,80,0,0
45021,-100,4,2,1,100,0,0
45129,-100,4,2,2,80,0,0
48499,-100,4,2,2,100,0,0
48607,-100,4,2,2,80,0,0
51977,-100,4,2,1,100,0,0
52412,-100,4,2,1,60,0,0
52521,-100,4,2,1,80,0,0
62412,-100,4,2,2,100,0,0
62521,-100,4,2,1,80,0,0
67629,-100,4,2,1,80,0,0
68064,-100,4,2,2,80,0,0
69803,-100,4,2,2,60,0,0
71107,-100,4,2,1,100,0,0
71216,-100,4,2,2,80,0,0
74586,-100,4,2,1,100,0,0
75021,-100,4,2,2,45,0,0
75455,-100,4,2,2,50,0,0
75890,-100,4,2,2,55,0,0
76325,-100,4,2,2,60,0,0
76760,-100,4,2,2,65,0,0
77194,-100,4,2,2,70,0,0
77629,-100,4,2,2,75,0,0
78064,-100,4,2,2,80,0,0
79803,-100,4,2,2,95,0,0
80238,-100,4,2,0,100,0,0
80274,-100,4,2,1,80,0,0
80890,-100,4,2,2,80,0,0
81977,-100,4,2,2,100,0,1
94151,-100,4,2,2,80,0,1
94586,-100,4,2,2,88,0,1
95021,-100,4,2,2,100,0,1
95673,-100,4,2,2,100,0,0
95890,-100,4,2,2,100,0,1
107955,-100,4,2,2,100,0,0
108064,-100,4,2,1,100,0,1
108173,-100,4,2,1,80,0,0
108499,-100,4,2,1,10,0,0
109803,-100,4,2,2,100,0,0
125455,-100,4,2,1,80,0,0
126325,-100,4,2,1,70,0,0
127194,-100,4,2,1,60,0,0
128064,-100,4,2,1,50,0,0
128934,-100,4,2,2,40,0,0

[Colours]
Combo1 : 128,255,255
Combo2 : 255,128,255

[HitObjects]
164,116,638,6,0,L|220:94,1,60
287,136,1343,2,0,P|298:77|266:28,1,120,4|0,0:0|0:0,0:0:0:0:
220,94,2402,1,4,0:0:0:0:
153,52,2755,2,0,P|141:110|173:159,1,120,4|0,0:0|0:0,0:0:0:0:
252,166,3814,1,4,0:0:0:0:
331,173,4167,6,0,P|375:161|423:173,2,90,4|0|4,0:0|0:0|0:0,0:0:0:0:
286,238,5579,1,4,0:0:0:0:
241,303,5932,2,0,L|248:362,2,60,8|2|8,0:0|0:0|0:0,0:0:0:0:
286,238,6990,6,0,P|228:255|176:228,1,120,4|0,0:0|0:0,0:0:0:0:
237,175,8049,1,4,0:0:0:0:
160,150,8402,2,0,P|140:94|160:38,2,120,4|0|4,0:0|0:0|0:0,0:0:0:0:
237,175,10167,1,0,0:0:0:0:
314,200,10520,2,0,L|375:193,2,60,0|4|4,0:0|0:0|0:0,0:0:0:0:
237,175,11579,6,0,L|176:182,2,60,8|2|8,0:0|0:0|0:0,0:0:0:0:
297,121,12637,2,0,P|318:177|295:231,1,120,4|0,0:0|0:0,0:0:0:0:
219,254,13696,2,0,L|158:261,1,60,4|4,0:0|0:0,0:0:0:0:
291,344,14755,6,0,L|352:337,1,60,0|4,0:0|0:0,0:0:0:0:
408,280,15461,2,0,P|429:224|406:170,1,120,4|0,0:0|0:0,0:0:0:0:
257,111,16873,2,0,P|236:165|259:220,2,120,4|2|4,0:0|0:0|0:0,0:0:0:0:
318,164,18637,6,0,P|347:164|377:151,2,60,0|0|4,0:0|0:0|0:0,0:0:0:0:
259,220,19696,2,0,P|200:205|144:221,1,120,4|0,0:0|0:0,0:0:0:0:
328,352,21108,6,0,L|320:288,1,60,12|0,0:0|0:0,0:0:0:0:
340,268,22847,6,0,P|360:208|336:156,1,120,4|8,0:0|0:0,0:0:0:0:
304,68,23716,2,0,P|327:49|344:24,2,60,0|0|8,0:0|0:0|0:0,0:0:0:0:
212,100,24586,6,0,P|182:105|147:100,1,60,0|0,0:0|0:0,0:0:0:0:
105,89,25021,2,0,B|83:92|83:92|43:126|58:182,1,120,8|0,0:0|0:0,0:0:0:0:
69,229,25673,1,0,0:0:0:0:
93,269,25890,6,0,P|145:245|205:261,2,120,8|0|8,0:0|0:0|0:0,0:0:0:0:
157,341,27194,2,0,P|213:356|267:331,1,120,0|8,0:0|0:0,0:0:0:0:
332,260,28064,5,4,0:0:0:0:
360,350,28499,1,8,0:0:0:0:
332,260,28934,2,0,L|336:200,1,60,4|0,0:0|0:0,0:0:0:0:
369,165,29368,2,0,L|373:105,1,60,12|0,0:0|0:0,0:0:0:0:
405,69,29803,6,0,P|349:84|295:59,1,120,4|8,0:0|0:0,0:0:0:0:
220,120,30673,1,0,0:0:0:0:
172,116,30890,1,0,0:0:0:0:
128,96,31107,1,8,0:0:0:0:
44,144,31542,6,0,P|29:87|54:33,2,120,0|8|0,0:0|0:0|0:0,0:0:0:0:
68,188,32629,2,0,L|56:254,1,60,0|8,0:0|0:0,0:0:0:0:
97,334,33281,6,0,P|152:354|208:335,1,120,0|8,0:0|0:0,0:0:0:0:
274,265,34151,2,0,L|277:146,1,120,0|8,0:0|0:0,0:0:0:0:
371,167,35021,6,0,L|367:311,2,120,0|8|0,0:0|0:0|0:0,0:0:0:0:
342,76,36325,1,2,0:2:0:0:
342,76,38499,6,0,B|286:100|286:100|230:76,1,120,4|0,0:0|0:0,0:0:0:0:
186,59,39151,2,0,P|99:59|59:137,1,180
4,214,40238,2,0,P|59:193|114:213,1,120
145,249,40890,1,0,0:0:0:0:
285,216,41542,6,0,P|340:236|395:216,1,120,2|0,0:0|0:0,0:0:0:0:
340,136,42412,1,0,0:0:0:0:
340,136,42629,2,0,P|360:80|340:25,1,120
297,47,43281,2,0,L|229:36,1,60
192,58,43716,6,0,P|172:113|192:168,1,120,0|0,0:0|0:0,0:0:0:0:
251,244,44586,2,0,P|271:299|251:354,1,120,0|8,0:0|0:0,0:0:0:0:
172,299,45455,6,0,B|208:304|232:284|232:284|260:304|260:304|296:280|344:288,2,180,0|0|0,0:0|0:0|0:0,0:0:0:0:
84,256,47194,2,0,P|51:207|61:149,1,120
125,77,48064,2,0,P|157:125|148:184,1,120,0|2,0:0|0:0,0:0:0:0:
84,256,48934,6,0,P|157:207|240:240,1,180,0|0,0:0|0:0,0:0:0:0:
268,272,49803,2,0,P|324:287|376:260,2,120,0|0|0,0:0|0:0|0:0,0:0:0:0:
314,187,51107,5,0,0:0:0:0:
314,187,51325,2,0,P|343:137|332:79,1,120,0|0,0:0|0:0,0:0:0:0:
296,45,51977,6,0,L|177:33,1,120,8|4,0:0|0:1,0:0:0:0:
96,88,52847,1,0,0:0:0:0:
15,143,53281,1,4,0:0:0:0:
103,185,53716,1,0,0:0:0:0:
184,130,54151,6,0,P|194:69|166:19,2,120,4|0|4,0:0|0:0|0:0,0:0:0:0:
103,185,55455,2,0,L|96:244,1,60,8|4,0:0|0:0,0:0:0:0:
70,285,55890,6,0,P|122:261|190:285,1,120,4|0,0:0|0:0,0:0:0:0:
219,304,56542,2,0,P|275:319|329:295,1,120,4|0,0:0|0:0,0:0:0:0:
364,262,57194,2,0,L|376:204,1,60,0|4,0:0|0:0,0:0:0:0:
411,171,57629,5,4,0:0:0:0:
478,101,58064,1,0,0:0:0:0:
433,16,58499,1,4,0:0:0:0:
338,31,58934,1,8,0:0:0:0:
323,127,59368,6,0,P|247:167|173:123,1,180,4|4,0:0|0:0,0:0:0:0:
147,82,60238,2,0,P|174:133|159:190,1,120,4|0,0:0|0:0,0:0:0:0:
132,230,60890,1,4,0:0:0:0:
105,269,61107,6,0,P|154:240|224:258,1,120,4|0,0:0|0:0,0:0:0:0:
282,319,61977,2,0,P|232:347|162:329,2,120,4|2|4,0:0|0:0|0:0,0:0:0:0:
344,248,63281,1,0,0:0:0:0:
407,176,63716,6,0,P|439:259|392:331,1,180,4|4,0:0|0:1,0:0:0:0:
259,275,65021,2,0,P|207:251|139:275,2,120,0|4|8,0:0|0:0|0:0,0:0:0:0:
198,349,66325,1,4,0:0:0:0:
198,349,67629,5,10,0:0:0:0:
148,266,68064,6,0,P|124:212|142:156,1,120,4|8,0:0|0:0,0:0:0:0:
130,60,68934,2,0,P|188:66|228:109,1,120,8|8,0:0|0:0,0:0:0:0:
317,147,69803,6,0,P|282:194|224:207,1,120,8|8,0:0|0:0,0:0:0:0:
148,266,70673,2,0,L|155:332,2,60,8|0|2,0:0|0:0|0:0,0:0:0:0:
134,170,71542,5,8,0:0:0:0:
67,100,71977,2,0,P|124:110|175:80,1,120,8|8,0:0|0:0,0:0:0:0:
242,148,72847,2,0,P|292:118|350:128,2,120,8|8|8,0:0|0:0|0:0,0:0:0:0:
311,214,74151,5,8,0:0:0:0:
351,239,74368,1,0,0:0:0:0:
398,239,74586,1,2,0:0:0:0:
492,220,75021,5,4,0:1:0:0:
462,311,75455,1,4,0:1:0:0:
398,239,75890,5,4,0:1:0:0:
338,314,76325,1,4,0:1:0:0:
303,224,76760,5,4,0:1:0:0:
221,274,77194,1,4,0:1:0:0:
218,177,77629,5,4,0:1:0:0:
124,196,78064,1,4,0:1:0:0:
154,105,78499,6,0,P|292:67|216:177,1,360,8|8,0:0|0:0,0:0:0:0:
124,196,80238,6,0,L|36:180,2,90,4|0|0,0:0|0:0|0:0,0:0:0:0:
158,166,81107,2,0,L|229:179,1,60,10|10,0:0|0:0,0:0:0:0:
251,146,81542,2,0,L|322:159,1,60,0|0,0:0|0:0,0:0:0:0:
344,126,81977,6,0,P|366:72|345:17,2,120,4|8|0,0:1|0:0|0:0,0:0:0:0:
251,146,83281,1,8,0:0:0:0:
232,190,83499,1,0,0:0:0:0:
237,237,83716,6,0,P|185:210|128:226,1,120,0|8,0:0|0:0,0:0:0:0:
50,169,84586,2,0,L|26:115,2,60,8|0|8,0:0|0:0|0:0,0:0:0:0:
39,264,85455,5,0,0:0:0:0:
128,225,85890,1,8,0:0:0:0:
173,139,86325,2,0,B|224:132|256:164|256:164|288:132|339:139,1,180
376,112,87194,6,0,P|393:70|389:26,2,90,2|2|2,0:0|0:0|0:0,0:0:0:0:
339,139,88064,2,0,L|344:198,2,60,8|0|8,0:0|0:0|0:0,0:0:0:0:
245,115,88934,6,0,P|189:132|136:106,2,120,4|8|0,0:1|0:0|0:0,0:0:0:0:
339,139,90238,2,0,L|344:198,1,60,8|0,0:0|0:0,0:0:0:0:
321,241,90673,5,0,0:0:0:0:
273,323,91107,2,0,P|220:297|164:314,1,120,8|8,0:0|0:0,0:0:0:0:
123,337,91760,1,0,0:0:0:0:
75,334,91977,1,8,0:0:0:0:
101,242,92412,6,0,L|78:122,1,120,0|8,0:0|0:0,0:0:0:0:
173,151,93281,2,0,P|230:164|283:138,1,120,0|8,0:0|0:0,0:0:0:0:
370,96,94151,6,0,L|376:35,2,60,8|0|8,0:0|0:0|0:0,0:0:0:0:
283,138,95021,2,0,L|288:197,2,60,8|0|8,0:0|0:0|0:0,0:0:0:0:
196,96,95890,6,0,P|138:83|85:109,1,120,4|8,0:1|0:0,0:0:0:0:
23,182,96760,2,0,P|-3:234|10:292,2,120,0|8|0,0:0|0:0|0:0,0:0:0:0:
94,245,98064,6,0,L|213:250,1,120,8|8,0:0|0:0,0:0:0:0:
250,218,98716,1,0,0:0:0:0:
285,185,98934,1,8,0:0:0:0:
357,249,99368,6,0,P|382:195|369:138,1,120,0|8,0:0|0:0,0:0:0:0:
437,70,100238,2,0,P|361:114|285:70,1,180,0|0,0:0|0:0,0:0:0:0:
245,94,101107,6,0,P|252:49|238:7,2,90,2|2|2,0:0|0:0|0:0,0:0:0:0:
202,115,101977,2,0,L|148:141,2,60,8|0|8,0:0|0:0|0:0,0:0:0:0:
277,176,102847,6,0,P|334:188|387:163,1,120,4|8,0:1|0:0,0:0:0:0:
447,85,103716,1,0,0:0:0:0:
483,174,104151,1,8,0:0:0:0:
423,251,104586,6,0,P|366:240|313:265,1,120,0|8,0:0|0:0,0:0:0:0:
277,176,105455,2,0,P|224:200|166:188,1,120,8|8,0:0|0:0,0:0:0:0:
149,283,106325,6,0,P|91:268|36:293,2,120,4|8|8,0:1|0:0|0:0,0:0:0:0:
193,302,107412,2,0,L|184:361,2,60,8|8|8,0:0|0:0|0:0,0:0:0:0:
237,321,108064,6,0,P|293:333|348:309,1,120,12|0,0:0|0:0,0:0:0:0:
348,309,109803,5,4,0:1:0:0:
415,240,110238,1,8,0:0:0:0:
482,171,110673,2,0,P|490:140|485:109,2,60,0|0|8,0:0|0:0|0:0,0:0:0:0:
415,240,111542,6,0,P|362:211|304:222,2,120,0|8|8,0:0|0:0|0:0,0:0:0:0:
454,265,112629,1,0,0:0:0:0:
502,266,112847,1,8,0:0:0:0:
482,171,113281,5,0,0:0:0:0:
462,76,113716,1,8,0:0:0:0:
390,141,114151,2,0,P|363:88|376:30,2,120,0|8|4,0:0|0:0|0:0,0:0:0:0:
462,76,115455,5,8,0:0:0:0:
482,171,115890,2,0,L|470:230,1,60,12|0,0:0|0:0,0:0:0:0:
425,247,116325,2,0,L|413:306,1,60,12|0,0:0|0:0,0:0:0:0:
368,323,116760,6,0,P|312:343|256:323,1,120,4|8,0:0|0:0,0:0:0:0:
164,356,117629,1,0,0:0:0:0:
116,350,117847,1,0,0:0:0:0:
79,322,118064,1,8,0:0:0:0:
151,258,118499,6,0,P|163:200|144:144,1,120,0|8,0:0|0:0,0:0:0:0:
64,94,119368,2,0,L|4:56,2,60,8|0|8,0:0|0:0|0:0,0:0:0:0:
144,144,120238,6,0,P|205:145|256:115,1,120,0|8,0:0|0:0,0:0:0:0:
319,44,121107,1,0,0:0:0:0:
349,136,121542,1,8,0:0:0:0:
415,63,121977,5,8,0:0:0:0:
504,103,122412,1,8,0:0:0:0:
494,202,122847,1,8,0:0:0:0:
398,222,123281,1,10,0:0:0:0:
256,192,125455,12,2,128934,0:0:0:0:
