osu file format v14

[General]
AudioFilename: Aka no Sora.mp3
AudioLeadIn: 1500
PreviewTime: 81542
Countdown: 0
SampleSet: Soft
StackLeniency: 0.7
Mode: 0
LetterboxInBreaks: 0
WidescreenStoryboard: 0

[Editor]
Bookmarks: 38509,52422,68074,95900,109813,123726
DistanceSpacing: 1.7
BeatDivisor: 4
GridSize: 4
TimelineZoom: 3.599999

[Metadata]
Title:Aka no Sora
TitleUnicode:紅の空
Artist:Rita
ArtistUnicode:Rita
Creator:Citrus
Version:Insane
Source:鬼うた。
Tags:BakaHuang Axey 130cm U-ma 〜鬼が来たりて、甘えさせろとのたもうた。〜 鬼宴 -oniuta- 新井健史
BeatmapID:788971
BeatmapSetID:358801

[Difficulty]
HPDrainRate:6
CircleSize:5
OverallDifficulty:7.5
ApproachRate:8.4
SliderMultiplier:1.6
SliderTickRate:1

[Events]
//Background and Video events
0,0,"BG.jpg",0,0
Video,-60,"op.flv"
//Break Periods
//Storyboard Layer 0 (Background)
//Storyboard Layer 1 (Fail)
//Storyboard Layer 2 (Pass)
//Storyboard Layer 3 (Foreground)
//Storyboard Layer 4 (Overlay)
//Storyboard Sound Samples

[TimingPoints]
638,705.882352941176,4,2,1,60,1,0
1873,-100,4,2,1,10,0,0
2049,-100,4,2,1,60,0,0
2402,-100,4,2,1,40,0,0
2579,-100,4,2,1,60,0,0
3814,-100,4,2,1,40,0,0
3990,-100,4,2,1,60,0,0
5226,-100,4,2,1,40,0,0
5402,-100,4,2,1,60,0,0
6285,-100,4,2,2,40,0,0
6461,-100,4,2,1,60,0,0
8049,-100,4,2,1,40,0,0
8226,-100,4,2,1,60,0,0
9461,-100,4,2,1,40,0,0
9637,-100,4,2,1,60,0,0
10873,-100,4,2,1,40,0,0
11049,-100,4,2,1,60,0,0
11932,-100,4,2,2,40,0,0
12108,-100,4,2,1,60,0,0
13167,-100,4,2,1,40,0,0
13343,-100,4,2,1,60,0,0
13696,-100,4,2,1,40,0,0
13873,-100,4,2,1,60,0,0
15108,-100,4,2,1,40,0,0
15285,-100,4,2,1,60,0,0
16520,-100,4,2,1,40,0,0
16696,-100,4,2,1,60,0,0
17579,-100,4,2,2,40,0,0
17755,-100,4,2,1,60,0,0
19343,-100,4,2,1,40,0,0
19520,-100,4,2,1,60,0,0
21108,434.782608695652,4,2,1,80,1,0
22847,-100,4,2,2,100,0,0
26216,-100,4,2,1,40,0,0
26325,-100,4,2,2,100,0,0
36325,-100,4,1,0,30,0,0
38064,-100,4,2,1,60,0,0
38499,-100,4,2,0,70,0,0
38535,-100,4,2,2,80,0,0
38825,-100,4,2,2,10,0,0
38934,-100,4,2,2,80,0,0
45021,-100,4,2,1,100,0,0
45129,-100,4,2,2,80,0,0
48499,-100,4,2,2,100,0,0
48607,-100,4,2,2,80,0,0
50673,-200,4,2,1,80,0,0
51325,-100,4,2,1,80,0,0
51977,-100,4,2,1,100,0,0
52412,-100,4,2,1,60,0,0
52521,-100,4,2,1,80,0,0
62412,-100,4,2,2,100,0,0
62521,-100,4,2,1,80,0,0
66216,-100,4,2,1,10,0,0
66325,-200,4,2,1,80,0,0
67194,-100,4,2,1,10,0,0
67629,-100,4,2,1,80,0,0
67955,-100,4,2,1,10,0,0
68064,-100,4,2,2,80,0,0
71107,-100,4,2,1,100,0,0
71216,-100,4,2,2,80,0,0
74586,-100,4,2,1,100,0,0
74694,-100,4,2,2,80,0,0
75021,-100,4,2,2,45,0,0
75455,-100,4,2,2,50,0,0
75890,-100,4,2,2,55,0,0
76325,-100,4,2,2,60,0,0
76760,-100,4,2,2,65,0,0
77194,-100,4,2,2,70,0,0
77629,-100,4,2,2,75,0,0
78064,-100,4,2,2,80,0,0
78607,-100,4,2,2,82,0,0
78716,-100,4,2,2,84,0,0
78825,-100,4,2,2,86,0,0
78934,-100,4,2,2,88,0,0
79151,-100,4,2,2,90,0,0
79260,-100,4,2,2,95,0,0
80238,-66.6666666666667,4,2,0,100,0,0
80274,-66.6666666666667,4,2,1,80,0,0
80890,-100,4,2,2,80,0,0
81651,-100,4,2,2,85,0,0
81760,-100,4,2,2,90,0,0
81868,-100,4,2,2,95,0,0
81977,-100,4,2,2,100,0,1
94151,-100,4,2,2,80,0,1
94260,-100,4,2,2,82,0,1
94368,-100,4,2,2,84,0,1
94477,-100,4,2,2,86,0,1
94586,-100,4,2,2,88,0,1
94803,-100,4,2,2,90,0,1
94912,-100,4,2,2,95,0,1
95021,-100,4,2,2,100,0,1
95673,-100,4,2,2,100,0,0
95890,-100,4,2,2,100,0,1
107955,-100,4,2,2,100,0,0
108064,-100,4,2,1,100,0,1
108173,-100,4,2,1,100,0,0
109803,-100,4,2,2,100,0,0
123281,-100,4,1,0,30,0,0
125455,-100,4,2,1,80,0,0
126325,-100,4,2,1,70,0,0
127194,-100,4,2,1,60,0,0
128064,-100,4,2,1,50,0,0
128934,-100,4,2,2,40,0,0

[Colours]
Combo1 : 128,255,255
Combo2 : 255,128,255

[HitObjects]
40,228,638,5,0,0:0:0:0:
40,228,990,1,0,0:0:0:0:
40,228,1343,2,0,P|96:243|150:219,1,120,4|0,0:0|0:0,0:0:0:0:
168,208,2049,6,0,P|161:247|176:284,1,80,0|4,0:0|0:0,0:0:0:0:
241,238,2755,2,0,P|247:198|233:162,1,80,4|0,0:0|0:0,0:0:0:0:
218,148,3285,1,0,0:0:0:0:
199,136,3461,6,0,P|161:145|123:137,1,80,0|4,0:0|0:0,0:0:0:0:
273,96,4167,2,0,P|329:76|389:88,1,120,4|0,0:0|0:0,0:0:0:0:
405,100,4873,2,0,P|444:100|484:92,2,80,0|4|4,0:0|0:0|0:0,0:0:0:0:
337,160,5932,6,0,L|333:204,1,40,8|0,0:0|0:0,0:0:0:0:
347,239,6285,2,0,L|337:160,1,80,2|8,0:0|0:0,0:0:0:0:
337,160,6990,6,0,P|301:172|257:160,1,80,4|0,0:0|0:0,0:0:0:0:
244,151,7520,1,0,0:0:0:0:
230,136,7696,2,0,P|231:97|222:55,2,80,0|4|4,0:0|0:0|0:0,0:0:0:0:
156,172,8755,2,0,L|151:146,2,26.6666666666667
161,198,9108,2,0,P|122:191|85:206,1,80,0|4,0:0|0:0,0:0:0:0:
130,267,9814,6,0,P|169:274|206:259,1,80,4|0,0:0|0:0,0:0:0:0:
222,248,10343,1,0,0:0:0:0:
236,233,10520,1,0,0:0:0:0:
161,198,10873,1,4,0:0:0:0:
313,212,11226,1,4,0:0:0:0:
236,233,11579,5,8,0:0:0:0:
313,212,11755,1,0,0:0:0:0:
387,246,11932,1,2,0:0:0:0:
387,246,12285,1,8,0:0:0:0:
387,246,12637,6,0,P|405:191|371:138,1,120,4|0,0:0|0:0,0:0:0:0:
366,158,13343,2,0,L|446:150,1,80,0|4,0:0|0:0,0:0:0:0:
340,80,14049,2,0,L|260:88,1,80,4|0,0:0|0:0,0:0:0:0:
243,77,14579,1,0,0:0:0:0:
224,67,14755,6,0,P|186:73|149:58,1,80,0|4,0:0|0:0,0:0:0:0:
84,12,15461,2,0,P|68:48|74:87,1,80,4|0,0:0|0:0,0:0:0:0:
172,180,16167,2,0,P|187:143|181:104,2,80,0|4|4,0:0|0:0|0:0,0:0:0:0:
109,230,17226,5,8,0:0:0:0:
172,180,17402,1,0,0:0:0:0:
89,225,17579,1,2,0:0:0:0:
70,220,17932,1,8,0:0:0:0:
50,216,18285,1,4,0:0:0:0:
172,276,18637,5,0,0:0:0:0:
172,276,18814,1,0,0:0:0:0:
172,276,18990,2,0,P|212:268|252:272,1,80,0|4,0:0|0:0,0:0:0:0:
324,300,19696,2,0,P|284:307|245:304,2,80,4|0|0,0:0|0:0|0:0,0:0:0:0:
324,300,20755,1,0,0:0:0:0:
425,128,21108,5,12,0:0:0:0:
425,128,22194,5,8,0:0:0:0:
423,167,22303,1,8,0:0:0:0:
421,207,22412,1,2,0:0:0:0:
427,47,22629,1,8,0:0:0:0:
357,87,22847,6,0,P|317:93|281:77,1,80,4|0,0:0|0:0,0:0:0:0:
327,26,23173,1,0,0:0:0:0:
327,26,23281,2,0,L|315:106,1,80,8|0,0:0|0:0,0:0:0:0:
154,108,23716,2,0,L|166:188,1,80
142,264,24151,1,8,0:0:0:0:
220,246,24368,5,0,0:0:0:0:
259,237,24477,1,0,0:0:0:0:
298,228,24586,2,0,L|378:235,1,80
316,265,24912,1,0,0:0:0:0:
316,265,25021,2,0,P|310:226|327:190,1,80,8|0,0:0|0:0,0:0:0:0:
397,74,25455,2,0,L|437:69,2,40
327,190,25890,2,0,P|299:138|327:82,1,120,8|0,0:0|0:0,0:0:0:0:
332,104,26325,6,0,L|240:115,1,80
236,100,26651,1,0,0:0:0:0:
219,86,26760,2,0,L|127:97,1,80,8|0,0:0|0:0,0:0:0:0:
185,243,27194,2,0,P|191:204|176:168,1,80
110,220,27629,5,8,0:0:0:0:
145,237,27738,1,0,0:0:0:0:
185,243,27847,1,0,0:0:0:0:
224,238,27955,1,0,0:0:0:0:
260,221,28064,1,4,0:0:0:0:
328,176,28281,5,0,0:0:0:0:
363,159,28390,1,0,0:0:0:0:
403,153,28499,1,8,0:0:0:0:
386,231,28716,1,0,0:0:0:0:
420,75,28934,2,0,L|429:32,2,40,4|0|0,0:0|0:0|0:0,0:0:0:0:
403,153,29368,1,12,0:0:0:0:
386,231,29586,1,0,0:0:0:0:
403,153,29803,6,0,P|363:159|327:143,1,80,4|0,0:0|0:0,0:0:0:0:
305,110,30129,1,0,0:0:0:0:
281,75,30238,2,0,P|245:59|206:65,1,80,8|0,0:0|0:0,0:0:0:0:
157,129,30673,1,0,0:0:0:0:
206,65,30890,1,0,0:0:0:0:
108,193,31107,1,8,0:0:0:0:
157,129,31325,5,0,0:0:0:0:
133,161,31434,1,0,0:0:0:0:
108,193,31542,1,0,0:0:0:0:
137,326,31760,1,0,0:0:0:0:
154,291,31868,1,0,0:0:0:0:
160,251,31977,1,8,0:0:0:0:
82,268,32194,1,0,0:0:0:0:
215,193,32412,5,0,0:0:0:0:
232,228,32521,1,0,0:0:0:0:
238,268,32629,1,0,0:0:0:0:
160,251,32847,1,8,0:0:0:0:
304,205,33064,1,0,0:0:0:0:
448,251,33281,5,0,0:0:0:0:
385,200,33499,1,0,0:0:0:0:
368,165,33608,1,0,0:0:0:0:
362,125,33716,1,8,0:0:0:0:
440,142,33934,1,0,0:0:0:0:
426,291,34151,1,0,0:0:0:0:
304,205,34368,1,0,0:0:0:0:
440,142,34586,1,8,0:0:0:0:
385,200,34803,5,0,0:0:0:0:
368,165,34912,1,0,0:0:0:0:
362,125,35021,1,0,0:0:0:0:
331,149,35129,1,0,0:0:0:0:
294,166,35238,1,0,0:0:0:0:
253,170,35347,1,0,0:0:0:0:
215,165,35455,1,8,0:0:0:0:
274,89,35673,5,0,0:0:0:0:
274,89,35781,1,0,0:0:0:0:
274,89,35890,1,0,0:0:0:0:
286,126,35999,1,0,0:0:0:0:
294,166,36107,1,0,0:0:0:0:
285,206,36216,1,0,0:0:0:0:
268,241,36325,2,2,L|249:268,7,20,2|2|2|2|2|2|2|2,0:2|0:2|0:2|0:2|0:2|0:2|0:2|0:2,0:2:0:0:
268,241,38064,5,0,0:0:0:0:
216,304,38281,1,0,0:0:0:0:
268,241,38499,6,0,P|289:185|285:124,1,120,4|0,0:0|0:0,0:0:0:0:
272,140,38934,2,0,P|312:132|352:132,1,80
254,255,39586,1,0,0:0:0:0:
254,255,39803,2,0,P|214:263|174:263,1,80
109,309,40238,6,0,P|93:252|123:201,1,120
140,191,40673,2,0,P|180:183|220:183,1,80
254,255,41107,2,0,P|214:263|174:263,1,80
288,327,41542,2,0,B|317:325|317:325|356:292|348:244,1,120,2|0,0:0|0:0,0:0:0:0:
344,224,41977,5,0,0:0:0:0:
406,76,42303,1,0,0:0:0:0:
406,76,42412,1,0,0:0:0:0:
253,98,42629,1,0,0:0:0:0:
334,111,42847,1,0,0:0:0:0:
334,111,42955,1,0,0:0:0:0:
334,111,43064,1,0,0:0:0:0:
181,133,43281,1,0,0:0:0:0:
253,98,43499,1,0,0:0:0:0:
334,111,43716,6,0,P|396:155|467:125,1,160
406,76,44368,2,0,L|396:155,1,80
403,174,44694,1,0,0:0:0:0:
410,193,44803,2,0,L|400:272,1,80,0|8,0:0|0:0,0:0:0:0:
230,353,45455,6,0,P|309:340|388:351,1,160
468,370,46107,1,0,0:0:0:0:
496,295,46325,1,0,0:0:0:0:
490,277,46434,1,0,0:0:0:0:
484,259,46542,1,0,0:0:0:0:
512,184,46760,1,0,0:0:0:0:
512,184,47194,5,0,0:0:0:0:
395,79,47629,1,0,0:0:0:0:
453,132,47847,1,0,0:0:0:0:
512,184,48064,1,0,0:0:0:0:
453,132,48499,1,2,0:0:0:0:
395,79,48934,6,0,P|355:87|315:87,1,80
161,130,49586,1,0,0:0:0:0:
161,130,49803,2,0,P|201:138|241:138,1,80
395,79,50238,2,0,P|355:87|315:87,1,80
161,130,50673,6,0,P|201:138|241:138,1,80
240,138,51325,1,0,0:0:0:0:
260,136,51977,5,8,0:0:0:0:
280,132,52412,6,0,B|320:136|320:136|368:180|336:248,1,160,4|0,0:1|0:0,0:0:0:0:
300,316,53064,1,4,0:0:0:0:
300,316,53281,2,0,B|268:320|245:298|245:298|204:332|152:316,1,160,4|0,0:0|0:0,0:0:0:0:
184,241,53934,1,4,0:0:0:0:
151,315,54151,6,0,P|108:274|107:216,1,120,4|0,0:0|0:0,0:0:0:0:
115,198,54586,1,0,0:0:0:0:
184,241,54803,1,4,0:0:0:0:
203,235,54912,1,0,0:0:0:0:
222,229,55021,2,0,P|262:166|225:93,1,160,4|8,0:0|0:0,0:0:0:0:
181,162,55673,5,4,0:0:0:0:
181,162,55890,2,0,B|235:160|235:160|281:185|281:185|336:183,1,160,4|0,0:0|0:0,0:0:0:0:
374,113,56542,1,4,0:0:0:0:
334,183,56760,1,4,0:0:0:0:
375,253,56977,1,0,0:0:0:0:
415,183,57194,1,0,0:0:0:0:
374,113,57412,1,4,0:0:0:0:
334,183,57629,6,0,B|281:185|281:185|235:160|235:160|181:162,1,160,4|0,0:0|0:0,0:0:0:0:
109,204,58281,1,4,0:0:0:0:
180,162,58499,1,4,0:0:0:0:
188,200,58607,1,0,0:0:0:0:
184,239,58716,1,4,0:0:0:0:
108,279,58934,2,0,P|97:241|109:204,1,80,8|4,0:0|0:0,0:0:0:0:
184,239,59368,6,0,B|210:243|230:227|230:227|283:263|334:227,1,160,4|0,0:0|0:0,0:0:0:0:
403,266,60021,2,0,P|415:230|403:186,1,80,4|4,0:0|0:0,0:0:0:0:
394,173,60347,1,0,0:0:0:0:
378,160,60455,1,4,0:0:0:0:
333,227,60673,1,0,0:0:0:0:
336,91,60890,1,4,0:0:0:0:
292,156,61107,6,0,P|236:172|189:138,1,120,4|0,0:0|0:0,0:0:0:0:
180,156,61542,2,0,P|140:144|100:144,1,80,0|4,0:0|0:0,0:0:0:0:
72,172,61868,1,0,0:0:0:0:
42,201,61977,2,0,P|82:138|44:65,1,160,4|2,0:0|0:0,0:0:0:0:
1,134,62629,1,4,0:0:0:0:
83,268,62847,5,4,0:0:0:0:
42,201,63281,1,0,0:0:0:0:
124,335,63499,1,4,0:0:0:0:
124,335,63607,1,0,0:0:0:0:
124,335,63716,2,0,P|164:323|204:323,1,80,4|0,0:0|0:0,0:0:0:0:
222,325,64368,6,0,P|262:262|224:189,1,160,4|0,0:1|0:0,0:0:0:0:
183,257,65021,2,0,L|264:261,1,80,0|4,0:0|0:0,0:0:0:0:
280,250,65347,1,0,0:0:0:0:
297,239,65455,2,0,L|377:243,1,80,4|0,0:0|0:0,0:0:0:0:
427,183,65890,2,0,P|459:232|443:288,1,120,8|0,0:0|0:0,0:0:0:0:
377,243,66325,6,0,P|456:256|503:200,1,160,4|0,0:0|0:0,0:0:0:0:
405,64,67629,6,0,L|427:183,1,120,10|0,0:0|0:0,0:0:0:0:
402,212,68064,6,0,L|418:133,1,80,4|0,0:0|0:0,0:0:0:0:
308,271,68499,2,0,L|324:192,1,80,8|0,0:0|0:0,0:0:0:0:
268,336,68934,2,0,P|304:348|348:336,1,80,8|0,0:0|0:0,0:0:0:0:
232,269,69368,2,0,P|196:257|152:269,1,80,8|0,0:0|0:0,0:0:0:0:
192,334,69803,5,8,0:0:0:0:
308,271,70021,1,0,0:0:0:0:
308,271,70129,1,0,0:0:0:0:
308,271,70238,1,8,0:0:0:0:
232,269,70455,1,0,0:0:0:0:
348,206,70673,1,8,0:0:0:0:
348,206,70781,1,0,0:0:0:0:
348,206,70890,1,0,0:0:0:0:
348,336,71107,1,2,0:0:0:0:
232,269,71325,1,0,0:0:0:0:
348,336,71542,6,0,L|427:328,1,80,8|0,0:0|0:0,0:0:0:0:
248,344,71977,2,0,L|328:337,1,80,8|0,0:0|0:0,0:0:0:0:
227,345,72412,1,8,0:0:0:0:
159,306,72629,2,0,P|147:342|159:386,2,80,0|8|0,0:0|0:0|0:0,0:0:0:0:
227,267,73281,6,0,P|239:231|227:187,1,80,8|0,0:0|0:0,0:0:0:0:
216,175,73607,1,0,0:0:0:0:
203,159,73716,2,0,P|191:123|203:79,2,80,8|0|8,0:0|0:0|0:0,0:0:0:0:
216,175,74260,1,0,0:0:0:0:
229,191,74368,1,0,0:0:0:0:
273,118,74586,1,2,0:0:0:0:
317,45,74803,5,8,0:0:0:0:
317,45,74912,1,0,0:0:0:0:
317,45,75021,1,4,0:1:0:0:
413,172,75455,1,4,0:1:0:0:
413,172,75890,5,4,0:1:0:0:
322,303,76325,1,4,0:1:0:0:
322,303,76760,5,4,0:1:0:0:
170,257,77194,1,4,0:1:0:0:
170,257,77629,5,4,0:1:0:0:
167,99,78064,1,4,0:1:0:0:
167,99,78499,5,8,0:0:0:0:
205,94,78607,1,0,0:0:0:0:
242,77,78716,1,0,0:0:0:0:
272,52,78825,1,0,0:0:0:0:
293,18,78934,1,8,0:0:0:0:
296,176,79151,5,0,0:0:0:0:
296,176,79260,1,0,0:0:0:0:
296,176,79368,1,8,0:0:0:0:
258,181,79477,1,0,0:0:0:0:
221,198,79586,1,0,0:0:0:0:
191,223,79694,1,0,0:0:0:0:
170,257,79803,1,8,0:0:0:0:
329,259,80021,5,0,0:0:0:0:
359,234,80129,1,0,0:0:0:0:
380,200,80238,2,0,B|387:174|368:155|368:155|405:146|429:113|419:80|389:55,2,180.000006866455,4|0|0,0:0|0:0|0:0,0:0:0:0:
329,259,81107,5,10,0:0:0:0:
170,257,81325,1,10,0:0:0:0:
329,259,81542,5,0,0:0:0:0:
289,259,81651,1,0,0:0:0:0:
249,258,81760,1,0,0:0:0:0:
209,258,81868,1,0,0:0:0:0:
170,257,81977,6,0,P|138:213|154:153,1,120,4|0,0:1|0:0,0:0:0:0:
168,140,82412,2,0,P|207:139|245:127,1,80,8|0,0:0|0:0,0:0:0:0:
290,61,82847,2,0,P|329:60|367:48,1,80
385,38,83173,1,0,0:0:0:0:
400,24,83281,1,8,0:0:0:0:
384,159,83499,1,0,0:0:0:0:
290,61,83716,6,0,P|231:47|171:60,1,120
105,75,84151,2,0,P|145:81|185:76,1,80,8|0,0:0|0:0,0:0:0:0:
154,226,84586,1,8,0:0:0:0:
151,186,84694,1,0,0:0:0:0:
138,150,84803,1,0,0:0:0:0:
77,202,85021,1,8,0:0:0:0:
225,170,85238,1,0,0:0:0:0:
373,202,85455,6,0,P|413:139|376:69,1,160,0|8,0:0|0:0,0:0:0:0:
332,135,86107,1,0,0:0:0:0:
373,202,86325,1,0,0:0:0:0:
414,137,86542,1,0,0:0:0:0:
376,69,86760,1,8,0:0:0:0:
332,135,86977,1,0,0:0:0:0:
373,202,87194,5,2,0:0:0:0:
478,323,87521,1,2,0:0:0:0:
478,323,87629,1,8,0:0:0:0:
373,202,87847,1,2,0:0:0:0:
281,303,88064,1,8,0:0:0:0:
316,286,88173,1,0,0:0:0:0:
356,280,88281,1,0,0:0:0:0:
339,358,88499,1,8,0:0:0:0:
223,248,88716,1,0,0:0:0:0:
373,202,88934,6,0,P|428:214|479:180,1,120,4|0,0:1|0:0,0:0:0:0:
489,164,89368,1,8,0:0:0:0:
414,137,89586,1,0,0:0:0:0:
455,72,89803,2,0,P|400:60|349:94,1,120
339,110,90238,1,8,0:0:0:0:
211,64,90455,1,0,0:0:0:0:
236,198,90673,5,0,0:0:0:0:
236,198,90781,2,0,P|254:163|263:124,1,80
211,64,91107,2,0,P|219:102|238:138,1,80,8|0,0:0|0:0,0:0:0:0:
367,185,91542,1,8,0:0:0:0:
358,146,91651,1,0,0:0:0:0:
339,110,91760,1,0,0:0:0:0:
351,263,91977,2,0,P|390:262|424:241,1,80,8|0,0:0|0:0,0:0:0:0:
302,326,92412,6,0,P|246:309|193:334,1,120
181,351,92847,2,0,P|147:371|107:373,1,80,8|0,0:0|0:0,0:0:0:0:
204,256,93281,2,0,P|206:296|193:334,1,80
133,192,93716,2,0,P|169:207|193:239,1,80,8|0,0:0|0:0,0:0:0:0:
120,272,94151,5,8,0:0:0:0:
149,245,94260,1,0,0:0:0:0:
171,212,94368,1,0,0:0:0:0:
183,174,94477,1,0,0:0:0:0:
182,134,94586,1,8,0:0:0:0:
332,123,94803,5,0,0:0:0:0:
332,123,94912,1,0,0:0:0:0:
332,123,95021,1,8,0:0:0:0:
297,142,95129,1,0,0:0:0:0:
258,150,95238,1,0,0:0:0:0:
219,146,95347,1,0,0:0:0:0:
182,134,95455,1,8,0:0:0:0:
250,15,95673,5,0,0:0:0:0:
332,123,95890,6,0,P|376:91|441:96,1,120,4|0,0:1|0:0,0:0:0:0:
457,104,96325,2,0,P|465:65|461:25,1,80,8|0,0:0|0:0,0:0:0:0:
401,166,96760,2,0,P|393:205|397:245,1,80
435,300,97086,1,0,0:0:0:0:
435,300,97194,2,0,P|395:291|356:296,1,80,8|0,0:0|0:0,0:0:0:0:
239,273,97629,6,0,P|214:221|236:166,1,120
251,153,98064,1,8,0:0:0:0:
295,219,98281,1,0,0:0:0:0:
317,294,98499,1,8,0:0:0:0:
278,288,98607,1,0,0:0:0:0:
239,273,98716,1,0,0:0:0:0:
106,337,98934,2,0,P|145:328|185:333,1,80,8|0,0:0|0:0,0:0:0:0:
265,348,99368,6,0,P|317:292|295:219,1,160,0|8,0:0|0:0,0:0:0:0:
184,159,100021,1,0,0:0:0:0:
239,273,100238,1,0,0:0:0:0:
262,149,100455,1,0,0:0:0:0:
170,236,100673,1,8,0:0:0:0:
295,219,100890,1,0,0:0:0:0:
184,159,101107,5,2,0:0:0:0:
218,315,101434,1,2,0:0:0:0:
218,315,101542,1,8,0:0:0:0:
184,159,101760,1,2,0:0:0:0:
276,260,101977,1,8,0:0:0:0:
241,243,102086,1,0,0:0:0:0:
201,237,102194,1,0,0:0:0:0:
218,315,102412,1,8,0:0:0:0:
336,207,102629,1,0,0:0:0:0:
184,159,102847,6,0,P|174:119|187:82,1,80,4|0,0:1|0:0,0:0:0:0:
242,123,103173,1,0,0:0:0:0:
242,123,103281,2,0,L|162:118,1,80,8|0,0:0|0:0,0:0:0:0:
296,184,103716,2,0,L|375:179,1,80
354,220,104042,1,0,0:0:0:0:
354,220,104151,2,0,P|364:182|351:145,1,80,8|0,0:0|0:0,0:0:0:0:
414,262,104586,6,0,P|357:246|304:271,1,120
277,300,105021,2,0,P|225:324|165:308,1,120,8|0,0:0|0:0,0:0:0:0:
135,285,105455,1,0,0:0:0:0:
98,269,105563,1,0,0:0:0:0:
58,272,105672,1,0,0:0:0:0:
151,183,105890,2,0,P|157:143|145:106,1,80,8|0,0:0|0:0,0:0:0:0:
212,62,106325,5,4,0:1:0:0:
78,150,106542,1,0,0:0:0:0:
78,150,106651,1,0,0:0:0:0:
78,150,106760,1,8,0:0:0:0:
228,75,106977,1,8,0:0:0:0:
228,75,107086,1,0,0:0:0:0:
228,75,107194,1,8,0:0:0:0:
62,137,107412,1,8,0:0:0:0:
244,88,107629,1,8,0:0:0:0:
46,124,107847,1,8,0:0:0:0:
260,101,108064,5,12,0:0:0:0:
154,102,109803,6,0,L|151:184,1,80,4|0,0:1|0:0,0:0:0:0:
136,195,110129,1,0,0:0:0:0:
120,208,110238,2,0,P|107:245|117:283,1,80,8|0,0:0|0:0,0:0:0:0:
184,328,110673,1,0,0:0:0:0:
189,248,110890,1,0,0:0:0:0:
117,283,111107,1,8,0:0:0:0:
256,293,111325,5,0,0:0:0:0:
292,275,111434,1,0,0:0:0:0:
328,258,111542,2,0,P|338:219|325:182,1,80
312,167,111868,1,0,0:0:0:0:
299,151,111977,2,0,P|285:113|296:75,1,80,8|0,0:0|0:0,0:0:0:0:
368,110,112412,1,8,0:0:0:0:
368,110,112521,1,0,0:0:0:0:
368,110,112629,1,0,0:0:0:0:
256,223,112847,1,8,0:0:0:0:
241,237,113281,6,0,L|159:240,1,80
125,259,113607,1,0,0:0:0:0:
125,259,113716,2,0,P|135:220|122:183,1,80,8|0,0:0|0:0,0:0:0:0:
53,225,114151,2,0,P|43:264|56:301,2,80,0|0|8,0:0|0:0|0:0,0:0:0:0:
70,190,114694,1,0,0:0:0:0:
76,150,114803,1,0,0:0:0:0:
71,111,114912,1,0,0:0:0:0:
54,75,115021,6,0,P|94:85|131:72,1,80,4|0,0:0|0:0,0:0:0:0:
161,97,115347,1,0,0:0:0:0:
192,121,115455,2,0,P|229:108|268:119,1,80,8|0,0:0|0:0,0:0:0:0:
339,153,115890,1,12,0:0:0:0:
376,163,115999,1,0,0:0:0:0:
414,150,116107,1,0,0:0:0:0:
372,83,116325,1,12,0:0:0:0:
306,223,116542,1,0,0:0:0:0:
372,83,116760,6,0,L|375:162,1,80,4|0,0:0|0:0,0:0:0:0:
376,182,117086,1,0,0:0:0:0:
377,202,117194,2,0,L|379:280,1,80,8|0,0:0|0:0,0:0:0:0:
449,321,117629,1,0,0:0:0:0:
309,241,117847,1,0,0:0:0:0:
449,161,118064,1,8,0:0:0:0:
309,81,118281,5,0,0:0:0:0:
309,81,118390,1,0,0:0:0:0:
309,81,118499,2,0,P|271:68|233:78,1,80
198,98,118825,1,0,0:0:0:0:
162,117,118934,2,0,P|124:127|87:115,1,80,8|0,0:0|0:0,0:0:0:0:
127,46,119368,2,0,L|121:4,2,40,8|0|0,0:0|0:0|0:0,0:0:0:0:
47,184,119803,1,8,0:0:0:0:
38,202,120238,6,0,L|119:194,1,80
135,203,120564,1,0,0:0:0:0:
152,211,120673,2,0,L|232:204,1,80,8|0,0:0|0:0,0:0:0:0:
336,296,121107,2,0,P|299:282|260:289,2,80,0|0|8,0:0|0:0|0:0,0:0:0:0:
387,168,121760,5,0,0:0:0:0:
387,168,121868,1,0,0:0:0:0:
387,168,121977,1,8,0:0:0:0:
347,162,122086,1,0,0:0:0:0:
310,147,122194,1,0,0:0:0:0:
278,123,122303,1,0,0:0:0:0:
256,89,122412,1,8,0:0:0:0:
126,167,122629,5,0,0:0:0:0:
126,167,122738,1,0,0:0:0:0:
126,167,122847,1,8,0:0:0:0:
167,162,122955,1,0,0:0:0:0:
203,146,123064,1,0,0:0:0:0:
232,121,123173,1,0,0:0:0:0:
256,89,123281,2,2,L|256:57,7,20,2|2|2|2|2|2|2|2,0:2|0:2|0:2|0:2|0:2|0:2|0:2|0:2,0:2:0:0:
256,192,125455,12,2,128934,0:0:0:0:
