osu file format v13

[General]
AudioFilename: 06 aiiro.mp3
AudioLeadIn: 1500
PreviewTime: 68619
Countdown: 0
SampleSet: Soft
StackLeniency: 0.7
Mode: 0
LetterboxInBreaks: 0
WidescreenStoryboard: 0

[Editor]
DistanceSpacing: 1
BeatDivisor: 4
GridSize: 4
TimelineZoom: 2.699999

[Metadata]
Title:Aiiro
TitleUnicode:二藍 -あいいろ-
Artist:Rita
ArtistUnicode:Rita
Creator:Fycho
Version:Insane
Source:恋神 -ラブカミ-
Tags:love kami Best Album Kibbleru visual novel
BeatmapID:460360
BeatmapSetID:180684

[Difficulty]
HPDrainRate:6
CircleSize:4
OverallDifficulty:8
ApproachRate:9
SliderMultiplier:1.8
SliderTickRate:1

[Events]
//Background and Video events
0,0,"bg.jpg",0,0
//Break Periods
2,94681,99398
2,158129,166984
//Storyboard Layer 0 (Background)
//Storyboard Layer 1 (Fail)
//Storyboard Layer 2 (Pass)
//Storyboard Layer 3 (Foreground)
//Storyboard Sound Samples
//Background Colour Transformations
3,100,163,162,255

[TimingPoints]
688,344.827586206897,4,2,1,50,1,0
2067,-100,4,2,1,70,0,0
23274,-100,4,2,1,50,0,0
24136,-100,4,2,1,70,0,0
35170,-100,4,2,2,40,0,0
36550,-133.333333333333,4,2,2,60,0,0
41205,-133.333333333333,4,2,2,40,0,0
41722,-133.333333333333,4,2,2,60,0,0
47584,-111.111111111111,4,2,2,60,0,0
52239,-111.111111111111,4,2,2,40,0,0
52756,-111.111111111111,4,2,2,60,0,0
52929,-111.111111111111,4,2,1,50,0,0
53015,-111.111111111111,4,2,2,60,0,0
55688,-111.111111111111,4,2,1,60,0,0
58619,-100,4,2,1,70,0,0
69481,-100,4,2,1,80,0,1
91722,-100,4,2,1,70,0,0
107412,-100,4,2,2,50,0,0
107929,-100,4,2,1,70,0,0
118446,-100,4,2,2,70,0,0
118963,-100,4,2,1,70,0,0
135688,-100,4,2,1,80,0,1
157929,-100,4,2,1,70,0,0
190860,-100,4,2,1,80,0,1
212239,-100,4,2,1,60,0,1
213101,-100,4,2,1,80,0,1
218619,-100,4,2,1,70,0,0

[Colours]
Combo1 : 36,255,91
Combo2 : 21,255,255
Combo3 : 255,89,172
Combo4 : 128,128,192

[HitObjects]
72,124,688,6,0,L|115:112,1,45,8|8,0:3|0:3,0:0:0:0:
211,187,860,2,0,L|167:183,1,45,8|8,0:3|0:3,0:0:0:0:
234,103,1032,2,0,L|277:91,1,45,8|8,0:3|0:3,0:0:0:0:
361,173,1205,2,0,L|317:169,1,45,8|8,0:3|0:3,0:0:0:0:
385,87,1377,5,8,0:3:0:0:
406,82,1463,1,8,0:3:0:0:
428,79,1550,1,8,0:3:0:0:
450,75,1636,1,8,0:3:0:0:
472,72,1722,1,12,0:0:0:0:
460,317,2067,6,0,P|381:289|280:325,2,180,4|8|8,0:0|0:0|0:3,0:0:0:0:
409,140,2929,1,8,0:3:0:0:
468,218,3101,1,8,0:0:0:0:
292,228,3274,6,0,B|303:90|303:90|332:56,1,180,8|8,0:3|0:3,0:0:0:0:
206,88,3791,2,0,L|117:75,1,90,8|0,0:0|0:0,0:0:0:0:
37,131,4136,1,8,0:3:0:0:
136,189,4308,1,8,0:3:0:0:
36,312,4481,2,0,P|18:271|30:228,1,90,8|0,0:0|0:0,0:0:0:0:
136,189,4825,6,0,B|259:195|259:195|322:173,1,180,8|8,0:3|0:0,0:0:0:0:
375,103,5343,1,0,0:0:0:0:
321,267,5515,1,8,0:3:0:0:
382,93,5688,1,8,0:3:0:0:
317,276,5860,1,8,0:0:0:0:
216,100,6032,6,0,P|315:117|405:73,1,180,8|8,0:3|0:3,0:0:0:0:
479,138,6550,2,0,P|494:92|480:41,1,90,8|0,0:0|0:0,0:0:0:0:
388,228,6894,2,0,L|386:325,1,90,8|8,0:3|0:3,0:0:0:0:
291,84,7239,1,8,0:0:0:0:
291,84,7584,6,0,B|351:58|414:81|414:81|422:145,1,180,4|8,0:0|0:0,0:0:0:0:
124,290,8274,1,8,0:3:0:0:
213,181,8446,1,8,0:3:0:0:
284,240,8619,1,8,0:0:0:0:
197,59,8791,6,0,B|156:73|156:73|124:205,1,180,8|8,0:3|0:3,0:0:0:0:
301,160,9308,2,0,P|313:115|297:55,1,90,8|0,0:0|0:0,0:0:0:0:
231,273,9653,1,8,0:3:0:0:
326,249,9825,1,8,0:3:0:0:
422,226,9998,1,8,0:0:0:0:
131,244,10343,6,0,B|78:220|78:220|59:142|96:94,1,180,4|8,0:0|0:0,0:0:0:0:
386,110,11032,2,0,L|296:124,1,90,8|8,0:3|0:3,0:0:0:0:
201,136,11377,1,8,0:0:0:0:
333,231,11722,5,12,0:3:0:0:
333,231,11894,1,8,0:3:0:0:
336,23,12067,1,12,0:0:0:0:
429,177,12412,5,12,0:3:0:0:
429,177,12584,1,8,0:3:0:0:
234,81,12756,1,12,0:0:0:0:
442,64,13101,6,0,P|426:105|427:150,1,90,4|0,0:0|0:0,0:0:0:0:
466,254,13446,1,8,0:0:0:0:
246,344,13619,2,0,B|297:319|365:345|365:345|379:310|371:280,1,180,8|8,0:3|0:3,0:0:0:0:
290,135,14136,2,0,L|283:232,1,90,8|0,0:0|0:0,0:0:0:0:
155,112,14481,5,8,0:3:0:0:
282,229,14653,1,8,0:3:0:0:
282,229,14739,1,0,0:0:0:0:
282,229,14825,1,8,0:0:0:0:
211,331,14998,2,0,P|134:322|34:344,1,180,0|8,0:0|0:3,0:0:0:0:
121,228,15515,1,8,0:0:0:0:
28,180,15688,1,0,0:0:0:0:
28,180,15774,1,0,0:0:0:0:
29,180,15860,6,0,P|9:139|13:95,1,90,4|0,0:0|0:0,0:0:0:0:
93,44,16205,1,8,0:0:0:0:
216,142,16377,2,0,L|101:131,1,90,8|0,0:3|0:0,0:0:0:0:
341,91,16722,1,8,0:3:0:0:
308,191,16894,2,0,L|325:280,1,90,8|0,0:0|0:0,0:0:0:0:
216,142,17239,6,0,P|167:147|124:186,1,90,8|8,0:3|0:3,0:0:0:0:
208,253,17584,1,8,0:0:0:0:
315,298,17756,2,0,L|325:208,1,90,0|0,0:0|0:0,0:0:0:0:
216,354,18101,1,8,0:3:0:0:
216,354,18188,1,0,0:0:0:0:
216,354,18274,1,8,0:0:0:0:
213,201,18446,1,0,0:0:0:0:
116,150,18619,6,0,P|104:219|97:259,1,90,4|0,0:0|0:0,0:0:0:0:
309,207,18963,1,8,0:0:0:0:
228,284,19136,1,8,0:3:0:0:
272,119,19308,1,0,0:0:0:0:
452,171,19481,1,8,0:3:0:0:
328,272,19653,2,0,P|319:214|328:181,1,90,8|0,0:0|0:0,0:0:0:0:
407,346,19998,5,8,0:3:0:0:
265,355,20170,1,8,0:3:0:0:
403,226,20343,1,8,0:0:0:0:
306,186,20515,2,0,P|256:185|175:284,1,180,8|8,0:3|0:3,0:0:0:0:
448,255,21032,2,0,L|456:160,1,90,8|0,0:0|0:0,0:0:0:0:
317,364,21377,6,0,L|321:319|325:274,1,90,4|8,0:0|0:3,0:0:0:0:
446,290,21722,1,8,0:0:0:0:
222,332,21894,2,0,L|243:144,1,180,8|8,0:3|0:3,0:0:0:0:
347,70,22412,1,8,0:0:0:0:
434,171,22584,1,0,0:0:0:0:
241,154,22756,6,0,P|228:97|235:63,1,90,4|8,0:0|0:3,0:0:0:0:
355,246,23101,1,8,0:0:0:0:
347,70,23274,1,8,0:0:0:0:
311,51,23360,1,8,0:0:0:0:
270,53,23446,1,8,0:0:0:0:
232,69,23532,1,8,0:0:0:0:
198,92,23619,1,8,0:0:0:0:
162,97,23705,1,8,0:0:0:0:
124,82,23791,2,0,L|76:78,1,45,8|8,0:0|0:0,0:0:0:0:
220,177,23963,2,0,L|269:183,1,45,8|8,0:0|0:0,0:0:0:0:
125,190,24136,6,0,L|112:279,1,90,4|8,0:0|0:3,0:0:0:0:
221,177,24481,1,8,0:0:0:0:
147,87,24653,2,0,P|83:95|28:213,1,180,8|8,0:3|0:3,0:0:0:0:
252,138,25170,2,0,P|267:87|257:42,1,90,8|0,0:0|0:0,0:0:0:0:
128,242,25515,5,8,0:3:0:0:
147,87,25688,1,8,0:3:0:0:
147,87,25774,1,0,0:0:0:0:
147,87,25860,1,8,0:0:0:0:
292,157,26032,2,0,L|254:361,1,180,8|8,0:3|0:3,0:0:0:0:
231,95,26550,1,8,0:0:0:0:
182,203,26722,1,0,0:0:0:0:
378,48,26894,6,0,P|431:77|450:200,1,180,4|8,0:0|0:0,0:0:0:0:
265,307,27412,2,0,L|369:144,1,180,8|8,0:3|0:3,0:0:0:0:
354,365,27929,1,8,0:0:0:0:
184,375,28101,1,0,0:0:0:0:
398,297,28274,5,8,0:3:0:0:
278,250,28446,1,8,0:3:0:0:
390,183,28619,1,8,0:0:0:0:
312,123,28791,2,0,L|334:15,1,90,8|0,0:3|0:0,0:0:0:0:
215,84,29136,1,8,0:3:0:0:
352,48,29308,1,8,0:0:0:0:
240,178,29481,1,0,0:0:0:0:
139,50,29653,6,0,P|108:108|128:234,1,180,4|8,0:0|0:0,0:0:0:0:
248,357,30170,2,0,L|286:275,1,90,8|0,0:3|0:0,0:0:0:0:
116,327,30515,1,8,0:3:0:0:
218,194,30688,2,0,L|129:202,1,90,8|0,0:0|0:0,0:0:0:0:
106,194,30946,1,0,0:0:0:0:
82,185,31032,5,8,0:3:0:0:
201,299,31205,2,0,B|255:285|298:312|298:312|327:268|321:232,1,180,8|8,0:3|0:3,0:0:0:0:
422,287,31722,2,0,P|426:327|431:380,1,90,0|8,0:0|0:3,0:0:0:0:
403,182,32067,1,8,0:0:0:0:
493,106,32239,1,0,0:0:0:0:
493,106,32325,1,0,0:0:0:0:
493,106,32412,6,0,L|402:81,1,90,4|8,0:0|0:3,0:0:0:0:
390,194,32756,1,8,0:0:0:0:
430,293,32929,1,8,0:3:0:0:
374,206,33274,5,8,0:3:0:0:
414,305,33446,1,8,0:0:0:0:
293,344,33619,1,0,0:0:0:0:
212,249,33791,6,0,L|178:338,1,90,4|4,0:0|0:0,0:0:0:0:
124,195,34136,1,8,0:0:0:0:
287,35,34308,1,8,0:0:0:0:
281,66,34394,1,8,0:0:0:0:
276,98,34481,1,8,0:0:0:0:
162,52,34653,1,4,0:0:0:0:
384,111,34825,1,8,0:0:0:0:
199,153,34998,1,0,0:0:0:0:
337,17,35170,5,2,0:0:0:0:
199,153,35515,1,2,0:0:0:0:
384,111,35860,1,2,0:0:0:0:
162,52,36205,1,2,0:0:0:0:
162,52,36550,6,0,P|134:151|136:195,1,135.000005149842,4|8,0:0|0:0,0:0:0:0:
205,318,37067,1,0,0:0:0:0:
205,318,37239,2,0,P|233:219|231:175,1,135.000005149842,0|0,0:0|0:0,0:0:0:0:
162,52,37756,1,0,0:0:0:0:
247,105,37929,6,0,L|389:92,1,135.000005149842,0|8,0:0|0:0,0:0:0:0:
460,50,38446,2,0,P|489:101|471:187,1,135.000005149842,0|0,0:0|0:0,0:0:0:0:
289,257,38963,1,0,0:0:0:0:
363,203,39136,1,0,1:0:0:0:
504,296,39308,6,0,L|357:287,1,135.000005149842,0|0,0:0|0:0,0:0:0:0:
167,358,39825,2,0,L|305:347,1,135.000005149842,8|0,0:0|0:0,0:0:0:0:
301,347,40256,1,0,0:0:0:0:
301,347,40343,1,0,0:0:0:0:
267,169,40515,1,0,0:0:0:0:
283,262,40688,1,4,0:0:0:0:
357,203,40860,1,0,0:0:0:0:
190,229,41032,5,8,0:0:0:0:
350,122,41205,1,2,0:0:0:0:
267,169,41377,1,0,0:0:0:0:
334,18,41550,1,2,0:0:0:0:
434,59,41722,1,0,0:0:0:0:
350,122,41894,6,0,L|206:115,1,135.000005149842,2|0,0:1|0:0,0:0:0:0:
192,239,42412,1,8,0:0:0:0:
86,203,42584,2,0,L|93:158,3,33.7500012874604,0|0|0|0,0:0|0:0|0:0|0:0,0:0:0:0:
79,153,42929,2,0,L|103:10,1,135.000005149842,8|0,0:0|0:0,0:0:0:0:
204,24,43446,6,0,P|219:101|171:155,1,135.000005149842,2|0,1:0|0:0,0:0:0:0:
98,243,43963,2,0,L|182:246,1,67.5000025749208,2|0,1:0|0:0,0:0:0:0:
230,307,44308,2,0,L|319:280,1,67.5000025749208,2|0,1:0|0:0,0:0:0:0:
379,209,44653,6,0,P|390:266|399:346,1,135.000005149842,2|0,1:0|0:0,0:0:0:0:
499,271,45170,1,8,0:0:0:0:
469,180,45343,2,0,L|466:157,3,22.5000008583069,0|0|0|8,0:0|0:0|0:0|0:0,0:0:0:0:
427,307,45688,2,0,P|385:350|305:350,1,135.000005149842,2|4,0:1|0:0,0:0:0:0:
313,353,46377,5,2,1:1:0:0:
313,353,46722,1,2,0:1:0:0:
203,297,46894,2,0,L|172:301,5,16.8750006437302,0|0|0|0|0|0,0:0|0:0|0:0|0:0|0:0|0:0,0:0:0:0:
89,370,47239,1,8,0:0:0:0:
61,173,47412,1,0,0:0:0:0:
82,163,47498,1,0,0:0:0:0:
106,151,47584,6,0,L|83:255,1,80.9999975280763,4|0,0:0|0:0,0:0:0:0:
204,144,47929,2,0,P|258:137|298:117,1,80.9999975280763,8|0,3:0|0:0,0:0:0:0:
364,67,48274,2,0,P|398:96|384:219,1,161.999995056153,0|0,3:0|3:0,0:0:0:0:
250,258,48791,1,0,0:0:0:0:
313,180,48963,5,0,3:0:0:0:
343,356,49136,1,0,1:0:0:0:
343,356,49222,1,0,1:0:0:0:
343,356,49308,1,8,3:0:0:0:
215,291,49481,1,0,0:0:0:0:
380,241,49653,1,0,3:0:0:0:
369,346,49825,1,0,0:0:0:0:
460,163,49998,1,0,3:0:0:0:
476,264,50170,1,0,0:0:0:0:
343,356,50343,6,0,L|357:262,1,80.9999975280763,0|0,3:0|0:0,0:0:0:0:
399,125,50688,1,0,3:0:0:0:
317,182,50860,2,0,P|278:192|238:191,1,80.9999975280763,8|0,0:0|3:0,0:0:0:0:
67,140,51205,1,0,0:0:0:0:
110,286,51377,1,0,3:0:0:0:
138,198,51550,1,0,0:0:0:0:
193,336,51722,5,0,3:0:0:0:
247,213,51894,1,0,0:0:0:0:
79,271,52067,1,8,0:0:0:0:
247,213,52239,1,10,0:0:0:0:
150,134,52412,1,0,3:0:0:0:
247,213,52584,1,2,0:0:0:0:
105,246,52756,1,8,3:0:0:0:
99,99,52929,6,0,L|260:110,1,161.999995056153,12|0,0:0|0:0,0:0:0:0:
390,144,53446,2,0,P|396:68|403:39,1,80.9999975280763,8|0,3:0|0:0,0:0:0:0:
321,224,53791,2,0,P|315:264|314:304,1,80.9999975280763,0|0,0:0|0:0,0:0:0:0:
441,215,54136,1,0,0:0:0:0:
432,321,54308,1,0,0:0:0:0:
489,125,54481,6,0,P|417:118|343:188,1,161.999995056153,0|0,3:0|3:0,0:0:0:0:
226,332,54998,2,0,P|242:284|238:233,1,80.9999975280763,0|0,0:0|3:0,0:0:0:0:
163,189,55343,1,0,0:0:0:0:
111,286,55515,1,0,3:0:0:0:
156,83,55688,1,4,0:0:0:0:
156,83,56032,5,8,0:3:0:0:
71,137,56205,2,0,L|-20:125,1,80.9999975280763,8|0,0:0|0:0,0:0:0:0:
75,37,56550,1,8,0:3:0:0:
251,178,56722,1,8,0:0:0:0:
224,23,56894,1,0,0:0:0:0:
72,137,57067,1,8,0:0:0:0:
161,160,57412,5,2,0:0:0:0:
13,221,57756,1,2,0:0:0:0:
179,315,58101,1,2,0:0:0:0:
209,304,58188,1,0,0:0:0:0:
240,309,58274,1,8,0:0:0:0:
268,324,58360,1,0,0:0:0:0:
300,322,58446,1,2,0:0:0:0:
330,312,58532,1,0,0:0:0:0:
363,297,58619,6,0,P|396:218|345:149,2,180,4|8|10,0:0|0:0|0:3,0:0:0:0:
243,108,59481,1,8,0:3:0:0:
283,213,59653,1,8,0:0:0:0:
161,330,59825,6,0,L|182:148,1,180,10|8,0:3|0:3,0:0:0:0:
53,196,60343,1,8,0:0:0:0:
124,42,60515,1,0,0:0:0:0:
226,84,60688,1,10,0:3:0:0:
70,109,60860,1,8,0:3:0:0:
202,7,61032,1,8,0:0:0:0:
222,188,61205,1,0,0:0:0:0:
70,109,61377,6,0,P|23:126|-11:249,1,180,4|8,0:0|0:0,0:0:0:0:
62,353,61894,2,0,L|81:265,1,90,2|0,0:0|0:0,0:0:0:0:
174,343,62239,1,8,0:3:0:0:
176,216,62412,1,8,0:0:0:0:
302,350,62584,6,0,P|359:356|431:267,1,180,10|8,0:3|0:3,0:0:0:0:
360,188,63101,1,8,0:0:0:0:
444,78,63274,2,0,P|447:122|447:167,1,90,10|0,0:3|0:0,0:0:0:0:
277,248,63619,2,0,P|273:203|273:158,1,90,8|8,0:3|0:0,0:0:0:0:
175,230,63963,1,0,0:0:0:0:
283,45,64136,6,0,P|365:28|458:103,1,180,4|8,0:0|0:0,0:0:0:0:
415,259,64653,2,0,P|426:180|434:158,1,90,2|8,0:0|0:3,0:0:0:0:
331,312,64998,1,8,0:3:0:0:
331,312,65084,1,0,0:0:0:0:
331,312,65170,1,8,0:0:0:0:
244,270,65343,6,0,B|157:254|157:254|119:269|110:329,1,180,10|8,0:3|0:3,0:0:0:0:
58,182,65860,1,8,0:0:0:0:
16,275,66032,1,0,0:0:0:0:
156,204,66205,5,10,0:3:0:0:
62,149,66377,1,8,0:3:0:0:
195,79,66550,1,8,0:0:0:0:
48,20,66722,1,4,0:0:0:0:
465,302,67067,5,10,0:3:0:0:
303,251,67239,1,8,0:0:0:0:
328,141,67412,1,2,0:0:0:0:
328,141,67498,1,0,0:0:0:0:
328,141,67584,1,8,0:0:0:0:
409,211,67756,1,2,0:0:0:0:
207,290,67929,1,0,0:0:0:0:
218,183,68101,1,2,0:0:0:0:
313,246,68274,5,8,0:0:0:0:
153,369,68446,1,2,0:0:0:0:
143,260,68619,1,8,0:0:0:0:
143,260,68705,1,0,0:0:0:0:
143,260,68791,1,0,0:0:0:0:
312,355,68963,5,8,0:0:0:0:
215,283,69136,1,8,0:0:0:0:
330,172,69308,1,0,0:0:0:0:
184,78,69481,6,0,B|130:64|91:90|91:90|67:65|8:70,1,180,4|0,0:0|0:0,0:0:0:0:
143,260,69998,2,0,L|148:160,1,90,8|0,0:0|0:0,0:0:0:0:
0,320,70343,1,10,0:3:0:0:
1,161,70515,1,10,0:3:0:0:
78,222,70688,1,8,0:0:0:0:
155,86,70860,6,0,P|208:148|193:248,1,180,10|10,0:3|0:3,0:0:0:0:
254,336,71377,2,0,L|165:352,1,90,8|0,0:0|0:0,0:0:0:0:
361,233,71722,1,10,0:3:0:0:
440,366,71894,2,0,L|351:382,1,90,10|8,0:3|0:0,0:0:0:0:
307,164,72239,6,0,P|271:200|267:333,1,180,4|0,0:0|0:0,0:0:0:0:
421,152,72756,2,0,P|423:92|424:47,1,90,8|0,0:0|0:0,0:0:0:0:
216,188,73101,1,10,0:3:0:0:
293,98,73274,1,10,0:3:0:0:
345,221,73446,1,8,0:0:0:0:
130,142,73619,6,0,B|109:186|122:266|122:266|172:287,1,180,10|10,0:3|0:3,0:0:0:0:
287,309,74136,1,8,0:0:0:0:
287,309,74308,1,8,0:3:0:0:
490,151,74481,1,2,0:0:0:0:
423,259,74653,1,8,0:3:0:0:
259,209,74825,2,0,L|357:186,1,90,8|0,0:0|0:0,0:0:0:0:
183,127,75170,5,10,0:3:0:0:
119,256,75343,1,8,0:3:0:0:
311,323,75515,1,12,0:0:0:0:
134,184,75860,5,10,0:3:0:0:
143,327,76032,1,8,0:3:0:0:
342,289,76205,1,12,0:0:0:0:
223,53,76550,5,10,0:3:0:0:
103,132,76722,1,8,0:3:0:0:
235,286,76894,1,12,0:0:0:0:
296,16,77239,5,10,0:3:0:0:
152,24,77412,1,8,0:3:0:0:
189,223,77584,1,12,0:0:0:0:
86,332,77756,6,0,B|82:281|94:229|94:229|49:246|2:224,1,180,4|8,0:0|0:3,0:0:0:0:
60,119,78274,1,8,0:0:0:0:
228,190,78446,1,2,0:0:0:0:
328,59,78619,1,8,0:0:0:0:
142,140,78791,1,10,0:3:0:0:
230,87,78963,1,8,0:0:0:0:
224,313,79136,1,12,0:0:0:0:
224,313,79481,5,8,0:3:0:0:
191,173,79653,1,8,0:0:0:0:
297,262,79825,1,2,0:0:0:0:
159,252,79998,1,8,0:0:0:0:
276,178,80170,1,10,0:3:0:0:
135,101,80343,1,8,0:0:0:0:
348,101,80515,6,0,B|345:157|345:157|286:195|227:170,1,180,4|0,0:0|0:0,0:0:0:0:
112,251,81032,2,0,P|116:295|116:340,1,90,8|0,0:0|0:0,0:0:0:0:
116,340,81291,1,0,0:0:0:0:
116,340,81377,1,10,0:3:0:0:
83,161,81550,1,10,0:3:0:0:
8,273,81722,1,8,0:0:0:0:
222,304,81894,6,0,P|296:283|310:183,1,180,10|10,0:3|0:3,0:0:0:0:
258,59,82412,2,0,L|376:44,1,90,8|0,0:0|0:0,0:0:0:0:
512,113,82756,1,10,0:3:0:0:
412,181,82929,1,10,0:3:0:0:
426,48,83101,1,8,0:0:0:0:
495,247,83274,6,0,B|500:300|468:325|468:325|404:315|367:324,1,180,4|0,0:0|0:0,0:0:0:0:
134,340,83791,2,0,P|218:323|243:311,1,90,8|0,0:0|0:0,0:0:0:0:
224,166,84136,2,0,P|181:152|136:147,1,90,10|10,0:3|0:3,0:0:0:0:
61,251,84481,1,8,0:0:0:0:
303,101,84653,6,0,L|312:297,1,180,10|10,0:3|0:3,0:0:0:0:
201,240,85170,1,8,0:0:0:0:
420,159,85343,1,0,0:0:0:0:
416,184,85429,1,8,0:0:0:0:
414,208,85515,1,10,0:3:0:0:
301,238,85688,1,8,0:3:0:0:
362,84,85860,1,8,0:0:0:0:
367,333,86032,1,0,0:0:0:0:
292,182,86205,6,0,L|187:184,1,90,10|8,0:3|0:3,0:0:0:0:
70,324,86550,2,0,L|229:311,1,135,12|0,0:0|0:0,0:0:0:0:
204,312,86894,5,10,0:3:0:0:
95,226,87067,1,8,0:3:0:0:
350,285,87239,2,0,P|387:243|392:143,1,135,12|0,0:0|0:0,0:0:0:0:
398,166,87584,5,10,0:3:0:0:
477,275,87756,1,8,0:3:0:0:
480,68,87929,2,0,P|407:39|345:49,1,135,12|0,0:0|0:0,0:0:0:0:
352,46,88274,5,10,0:3:0:0:
398,166,88446,1,8,0:3:0:0:
480,69,88619,1,8,0:0:0:0:
337,290,88791,6,0,B|295:271|295:271|271:195|296:135,1,180,4|8,0:0|0:3,0:0:0:0:
135,43,89308,1,8,0:0:0:0:
232,80,89481,1,2,0:0:0:0:
72,196,89653,1,8,0:0:0:0:
177,173,89825,1,10,0:3:0:0:
108,355,89998,1,8,0:0:0:0:
182,282,90170,1,12,0:0:0:0:
182,282,90515,5,0,0:0:0:0:
73,196,90688,1,8,0:0:0:0:
116,112,90860,1,8,0:0:0:0:
161,92,90946,1,8,0:0:0:0:
209,102,91032,1,8,0:0:0:0:
247,133,91119,1,0,0:0:0:0:
295,142,91205,1,8,0:0:0:0:
342,128,91291,1,8,0:0:0:0:
383,101,91377,2,0,L|395:144,1,45,8|8,0:0|0:0,0:0:0:0:
343,222,91550,2,0,L|355:265,1,45,8|8,0:0|0:0,0:0:0:0:
443,316,91722,5,12,0:0:0:0:
256,192,91808,12,4,94481,0:0:0:0:
19,278,99998,6,0,L|112:287,1,90,4|8,0:0|0:3,0:0:0:0:
82,91,100343,1,8,0:0:0:0:
122,190,100515,1,8,0:3:0:0:
98,79,100860,5,8,0:3:0:0:
138,178,101032,1,8,0:0:0:0:
184,273,101205,1,0,0:0:0:0:
261,139,101377,6,0,L|295:50,1,90,12|8,0:0|0:0,0:0:0:0:
413,254,101722,1,12,0:0:0:0:
225,349,101894,1,8,0:0:0:0:
231,318,101981,1,8,0:0:0:0:
236,286,102067,1,8,0:0:0:0:
350,332,102239,1,8,0:0:0:0:
128,273,102412,1,4,0:0:0:0:
313,231,102584,1,8,0:3:0:0:
175,367,102756,6,0,B|114:338|59:362|59:362|66:316|52:287,1,180,4|8,0:0|0:0,0:0:0:0:
94,135,103274,1,0,0:0:0:0:
3,188,103446,2,0,L|183:157,1,180,8|8,0:3|0:0,0:0:0:0:
339,129,103963,1,0,0:0:0:0:
206,265,104136,5,8,0:3:0:0:
357,242,104308,2,0,L|368:350,1,90,0|8,0:0|0:0,0:0:0:0:
257,133,104653,2,0,L|247:43,1,90,0|8,0:0|0:3,0:0:0:0:
365,71,104998,1,0,0:0:0:0:
240,225,105170,1,8,0:0:0:0:
454,210,105343,6,0,P|483:157|461:34,1,180,4|0,0:0|0:0,0:0:0:0:
240,225,105860,1,8,0:0:0:0:
338,190,106032,2,0,L|359:300,1,90,0|8,0:0|0:3,0:0:0:0:
130,272,106377,2,0,L|151:169,1,90,0|8,0:0|0:0,0:0:0:0:
28,52,106722,6,0,P|6:137|40:219,1,180,0|0,0:0|0:0,0:0:0:0:
179,37,107239,1,8,0:0:0:0:
145,127,107412,1,2,0:0:0:0:
224,284,107584,1,0,0:0:0:0:
256,188,107756,1,2,0:0:0:0:
129,314,107929,1,8,0:0:0:0:
347,355,108101,1,4,0:0:0:0:
347,355,108446,5,0,0:0:0:0:
364,213,108619,2,0,P|372:157|377:116,1,90,8|0,0:0|0:0,0:0:0:0:
459,299,108963,1,8,0:3:0:0:
459,299,109308,1,8,0:0:0:0:
277,360,109481,6,0,B|311:341|360:359|360:359|375:307|357:253,1,180,0|0,0:0|0:0,0:0:0:0:
348,145,109998,2,0,L|450:166,1,90,8|0,0:0|0:0,0:0:0:0:
157,206,110343,2,0,L|257:191,1,90,8|0,0:3|0:0,0:0:0:0:
86,136,110688,1,8,0:0:0:0:
116,319,110860,6,0,P|33:317|23:235,1,180,4|0,0:0|0:0,0:0:0:0:
87,46,111377,2,0,L|86:136,1,90,8|0,0:0|0:0,0:0:0:0:
207,71,111722,1,8,0:3:0:0:
158,205,111894,1,0,0:0:0:0:
270,146,112067,1,8,0:0:0:0:
246,318,112239,1,4,0:0:0:0:
246,318,112584,5,12,0:0:0:0:
151,292,112756,1,0,0:0:0:0:
424,215,112929,5,12,0:0:0:0:
327,244,113101,1,0,0:0:0:0:
482,308,113274,5,8,0:0:0:0:
482,308,113360,1,8,0:0:0:0:
482,308,113446,2,0,L|490:274,7,22.5,8|0|0|0|0|0|0|0,0:0|0:0|0:0|0:0|0:0|0:0|0:0|0:0,0:0:0:0:
490,271,113791,6,0,P|509:219|493:172,1,90,4|0,0:0|0:0,0:0:0:0:
422,107,114136,2,0,P|475:95|510:78,1,90,8|0,0:0|0:0,0:0:0:0:
315,65,114481,2,0,P|271:59|226:61,1,90,8|0,0:3|0:0,0:0:0:0:
220,189,114825,1,8,0:0:0:0:
134,133,114998,1,0,0:0:0:0:
64,303,115170,5,8,0:3:0:0:
134,133,115343,2,0,L|129:237,1,90,0|8,0:0|0:0,0:0:0:0:
303,149,115688,2,0,L|297:46,1,90,0|8,0:0|0:3,0:0:0:0:
198,77,116032,1,0,0:0:0:0:
220,189,116205,1,8,0:0:0:0:
152,316,116377,6,0,B|239:273|249:329|334:288,1,180,4|0,0:0|0:0,0:0:0:0:
386,363,116894,1,8,0:0:0:0:
480,188,117067,2,0,P|494:246|482:293,1,90,0|8,0:0|0:3,0:0:0:0:
383,132,117412,1,0,0:0:0:0:
285,283,117584,1,8,0:0:0:0:
412,241,117756,1,0,0:0:0:0:
249,160,117929,6,0,L|276:49,1,90,8|0,0:3|0:0,0:0:0:0:
168,106,118274,1,8,0:0:0:0:
348,26,118446,1,2,0:0:0:0:
412,241,118619,1,0,0:0:0:0:
341,122,118791,1,2,0:0:0:0:
326,317,118963,1,8,0:0:0:0:
175,220,119136,6,0,B|151:266|163:310|163:310|203:339|248:334,1,180,4|0,0:0|0:0,0:0:0:0:
243,148,119653,1,8,0:0:0:0:
64,223,119825,2,0,P|47:183|49:138,1,90,0|8,0:0|0:3,0:0:0:0:
186,21,120170,1,0,0:0:0:0:
152,155,120343,1,8,0:0:0:0:
214,278,120515,6,0,P|303:245|323:166,1,180,0|0,0:0|0:0,0:0:0:0:
435,260,121032,2,0,L|426:356,1,90,8|0,0:0|0:0,0:0:0:0:
487,112,121377,2,0,L|510:203,1,90,8|0,0:3|0:0,0:0:0:0:
412,61,121722,1,8,0:0:0:0:
334,177,121894,6,0,P|243:194|164:112,1,180,4|0,0:0|0:0,0:0:0:0:
153,50,122412,1,8,0:0:0:0:
153,50,122756,1,8,0:3:0:0:
98,218,122929,1,0,0:0:0:0:
187,150,123101,1,8,0:0:0:0:
0,184,123274,1,4,0:0:0:0:
0,184,123619,5,12,0:0:0:0:
36,283,123791,1,0,0:0:0:0:
239,350,123963,1,12,0:0:0:0:
203,251,124136,1,0,0:0:0:0:
309,83,124308,1,8,0:0:0:0:
343,103,124394,1,8,0:0:0:0:
360,140,124481,1,8,0:0:0:0:
357,180,124567,1,8,0:0:0:0:
338,216,124653,1,8,0:0:0:0:
301,232,124739,1,8,0:0:0:0:
260,237,124825,6,0,L|272:332,1,90,4|0,0:0|0:0,0:0:0:0:
162,218,125170,2,0,P|258:202|317:142,1,180,8|10,0:0|0:3,0:0:0:0:
96,151,125688,1,8,0:3:0:0:
47,261,125860,1,8,0:0:0:0:
43,63,126032,6,0,P|148:65|203:128,1,180,10|8,0:3|0:3,0:0:0:0:
175,332,126550,2,0,P|192:273|205:228,1,90,8|0,0:0|0:0,0:0:0:0:
296,90,126894,2,0,P|303:131|311:180,1,90,10|8,0:3|0:3,0:0:0:0:
417,158,127239,1,8,0:0:0:0:
343,328,127412,1,8,0:3:0:0:
434,75,127584,6,0,P|490:110|468:220,1,180,4|8,0:0|0:0,0:0:0:0:
386,322,128101,2,0,P|311:280|210:303,1,180,2|8,0:0|0:3,0:0:0:0:
130,375,128619,1,8,0:0:0:0:
230,188,128791,6,0,P|166:202|57:124,1,180,10|8,0:3|0:3,0:0:0:0:
32,41,129308,1,8,0:0:0:0:
114,266,129481,2,0,P|163:205|156:104,1,180,10|8,0:3|0:3,0:0:0:0:
24,232,129998,1,8,0:0:0:0:
0,80,130170,1,0,0:0:0:0:
131,130,130343,6,0,L|250:117,1,90,4|0,0:0|0:0,0:0:0:0:
316,192,130688,1,8,0:0:0:0:
433,151,130860,2,0,P|465:207|436:334,1,180,2|8,0:0|0:3,0:0:0:0:
254,340,131377,1,8,0:0:0:0:
254,340,131550,6,0,L|354:322,1,90,10|0,0:3|0:0,0:0:0:0:
212,225,131894,1,8,0:3:0:0:
113,284,132067,2,0,P|95:340|104:372,1,90,8|0,0:0|0:0,0:0:0:0:
212,225,132412,1,10,0:3:0:0:
113,284,132584,1,8,0:3:0:0:
132,165,132756,1,8,0:0:0:0:
294,259,132929,6,0,P|346:194|322:94,1,180,4|8,0:0|0:3,0:0:0:0:
132,165,133446,2,0,L|125:271,1,90,8|10,0:0|0:0,0:0:0:0:
126,254,133705,1,8,0:0:0:0:
126,254,133791,1,8,0:0:0:0:
237,120,133963,5,2,0:0:0:0:
43,203,134136,1,8,0:0:0:0:
143,56,134308,1,2,0:0:0:0:
222,224,134481,1,8,0:0:0:0:
133,165,134653,5,2,0:0:0:0:
126,353,134825,1,8,0:0:0:0:
126,353,134912,1,8,0:0:0:0:
126,353,134998,1,0,0:0:0:0:
299,292,135170,1,8,0:0:0:0:
126,353,135343,1,8,0:0:0:0:
109,316,135429,1,0,0:0:0:0:
109,275,135515,1,2,0:0:0:0:
129,240,135601,1,0,0:0:0:0:
166,224,135688,6,0,P|181:146|85:90,1,180,4|0,0:0|0:0,0:0:0:0:
16,52,136205,2,0,L|11:152,1,90,8|0,0:0|0:0,0:0:0:0:
12,312,136550,1,10,0:3:0:0:
154,235,136722,1,10,0:3:0:0:
12,312,136894,1,8,0:0:0:0:
111,149,137067,6,0,P|201:138|255:204,1,180,10|10,0:3|0:3,0:0:0:0:
256,303,137584,2,0,L|345:287,1,90,8|0,0:0|0:0,0:0:0:0:
155,248,137929,1,10,0:3:0:0:
255,183,138101,2,0,P|261:139|247:88,1,90,10|8,0:3|0:0,0:0:0:0:
308,254,138446,6,0,P|272:218|137:218,1,180,4|0,0:0|0:0,0:0:0:0:
88,340,138963,2,0,P|132:341|177:342,1,90,8|0,0:0|0:0,0:0:0:0:
394,340,139308,1,10,0:3:0:0:
309,254,139481,1,10,0:3:0:0:
272,376,139653,1,8,0:0:0:0:
417,319,139825,6,0,B|426:288|426:288|429:226|403:187|403:187|360:179,1,180,10|10,0:3|0:3,0:0:0:0:
287,58,140343,1,8,0:0:0:0:
265,158,140515,1,0,0:0:0:0:
210,353,140688,1,10,0:3:0:0:
171,259,140860,1,8,0:3:0:0:
65,305,141032,2,0,L|89:213,1,90,8|0,0:0|0:0,0:0:0:0:
110,40,141377,5,10,0:3:0:0:
87,218,141550,1,8,0:3:0:0:
249,127,141722,1,12,0:0:0:0:
249,127,142067,5,10,0:3:0:0:
189,305,142239,1,8,0:3:0:0:
359,253,142412,1,12,0:0:0:0:
169,190,142756,5,10,0:3:0:0:
359,253,142929,1,8,0:3:0:0:
264,63,143101,1,12,0:0:0:0:
259,346,143446,5,10,0:3:0:0:
288,139,143619,1,8,0:3:0:0:
359,253,143791,1,8,0:0:0:0:
175,168,143963,6,0,B|148:223|167:271|167:271|212:254|259:276,1,180,4|8,0:0|0:3,0:0:0:0:
382,128,144481,1,8,0:0:0:0:
380,233,144653,1,2,0:0:0:0:
286,36,144825,1,8,0:0:0:0:
275,138,144998,1,10,0:3:0:0:
453,24,145170,1,8,0:0:0:0:
486,119,145343,1,12,0:0:0:0:
476,129,145688,5,8,0:3:0:0:
357,61,145860,1,8,0:0:0:0:
254,149,146032,1,2,0:0:0:0:
308,276,146205,1,8,0:0:0:0:
439,265,146377,1,10,0:3:0:0:
367,170,146550,1,8,0:0:0:0:
172,103,146722,6,0,B|244:140|296:102|296:102|307:34,1,180,4|0,0:0|0:0,0:0:0:0:
69,67,147239,2,0,P|68:111|72:156,1,90,8|0,0:0|0:0,0:0:0:0:
72,156,147498,1,0,0:0:0:0:
72,156,147584,1,10,0:3:0:0:
167,229,147756,1,10,0:3:0:0:
35,320,147929,1,8,0:0:0:0:
180,141,148101,6,0,P|106:162|92:262,1,180,10|10,0:3|0:3,0:0:0:0:
165,335,148619,2,0,L|255:324,1,90,8|0,0:0|0:0,0:0:0:0:
383,243,148963,1,10,0:3:0:0:
257,220,149136,1,10,0:3:0:0:
321,127,149308,1,8,0:0:0:0:
202,111,149481,6,0,B|197:58|229:33|229:33|293:43|330:34,1,180,4|0,0:0|0:0,0:0:0:0:
440,12,149998,2,0,P|466:52|469:121,1,90,8|0,0:0|0:0,0:0:0:0:
389,187,150343,2,0,P|344:181|305:150,1,90,10|10,0:3|0:3,0:0:0:0:
455,259,150688,1,8,0:0:0:0:
241,288,150860,6,0,P|237:203|310:157,1,180,10|10,0:3|0:3,0:0:0:0:
354,268,151377,1,8,0:0:0:0:
439,145,151550,1,0,0:0:0:0:
443,120,151636,1,8,0:0:0:0:
445,96,151722,1,10,0:3:0:0:
469,310,151894,1,8,0:3:0:0:
417,216,152067,1,8,0:0:0:0:
315,364,152239,1,0,0:0:0:0:
178,264,152412,6,0,L|283:262,1,90,10|8,0:3|0:3,0:0:0:0:
464,144,152756,2,0,L|305:157,1,135,12|0,0:0|0:0,0:0:0:0:
307,156,153101,5,10,0:3:0:0:
448,227,153274,1,8,0:3:0:0:
172,242,153446,2,0,L|306:253,1,135,12|0,0:0|0:0,0:0:0:0:
329,254,153791,5,10,0:3:0:0:
190,341,153963,1,8,0:3:0:0:
227,145,154136,2,0,L|68:158,1,135,12|0,0:0|0:0,0:0:0:0:
70,159,154481,5,10,0:3:0:0:
209,62,154653,1,8,0:3:0:0:
56,16,154825,1,8,0:0:0:0:
190,147,154998,6,0,B|209:192|200:249|200:249|103:258,1,180,4|8,0:0|0:3,0:0:0:0:
377,339,155515,1,8,0:0:0:0:
280,304,155688,1,2,0:0:0:0:
99,252,155860,1,8,0:0:0:0:
201,227,156032,1,10,0:3:0:0:
401,178,156205,1,8,0:0:0:0:
304,143,156377,1,12,0:0:0:0:
172,331,156550,5,0,0:0:0:0:
145,164,156722,1,8,0:3:0:0:
145,164,156808,1,8,0:3:0:0:
145,164,156894,1,8,0:3:0:0:
9,284,157067,1,8,0:0:0:0:
217,233,157239,1,8,0:3:0:0:
217,233,157325,1,8,0:3:0:0:
217,233,157412,1,8,0:3:0:0:
42,191,157584,1,8,0:0:0:0:
389,98,157929,5,4,0:0:0:0:
256,192,167584,5,4,0:0:0:0:
208,55,167756,6,0,P|176:87|173:131,1,90,10|0,0:0|0:0,0:0:0:0:
397,218,168101,2,0,P|386:175|349:151,1,90,10|0,0:0|0:0,0:0:0:0:
162,301,168446,1,10,0:0:0:0:
162,301,168532,1,8,0:0:0:0:
162,301,168619,1,8,0:0:0:0:
162,301,168705,1,8,0:0:0:0:
162,301,168791,2,0,P|204:312|244:293,1,90,4|0,0:0|0:0,0:0:0:0:
16,252,169136,5,2,0:0:0:0:
122,106,169308,2,0,L|110:197,1,90,8|2,0:0|0:0,0:0:0:0:
79,28,169653,1,8,0:3:0:0:
122,106,169825,1,8,0:3:0:0:
18,154,169998,1,8,0:0:0:0:
208,151,170170,1,2,0:0:0:0:
208,151,170256,1,0,0:0:0:0:
208,151,170343,6,0,P|216:96|206:52,1,90,8|0,0:3|0:0,0:0:0:0:
122,106,170688,1,8,0:0:0:0:
212,248,170860,2,0,P|267:256|362:177,1,180,10|8,0:3|0:3,0:0:0:0:
450,348,171377,1,8,0:0:0:0:
350,300,171550,1,10,0:3:0:0:
240,327,171722,6,0,L|234:384,3,45,2|0|8|0,0:3|0:0|0:3|0:0,0:0:0:0:
157,261,172067,2,0,L|171:208,3,45,8|0|2|0,0:0|0:0|0:0|0:0,0:0:0:0:
240,327,172412,5,10,0:3:0:0:
280,323,172498,1,0,0:0:0:0:
310,296,172584,1,8,0:3:0:0:
314,255,172670,1,0,0:0:0:0:
298,217,172756,5,8,0:0:0:0:
305,186,172843,1,0,0:0:0:0:
311,155,172929,1,2,0:0:0:0:
320,124,173015,1,0,0:0:0:0:
329,94,173101,6,0,L|320:49,3,45,10|0|10|2,0:3|0:0|0:3|0:0,0:0:0:0:
229,85,173446,2,0,L|225:136,3,45,8|0|8|0,0:0|0:0|0:3|0:0,0:0:0:0:
138,147,173791,6,0,L|79:131,1,45,8|0,0:3|0:0,0:0:0:0:
84,225,173963,2,0,L|39:230,1,45,10|0,0:3|0:0,0:0:0:0:
112,308,174136,2,0,L|107:357,1,45,8|0,0:0|0:0,0:0:0:0:
194,255,174308,2,0,L|201:299,1,45,2|0,0:0|0:0,0:0:0:0:
280,250,174481,6,0,P|300:199|282:152,1,90,10|8,0:3|0:3,0:0:0:0:
150,28,174825,2,0,P|201:48|248:30,1,90,12|0,0:0|0:0,0:0:0:0:
161,317,175170,2,0,P|141:266|159:219,1,90,10|8,0:3|0:3,0:0:0:0:
92,93,175515,2,0,P|41:113|-6:95,1,90,12|0,0:0|0:0,0:0:0:0:
237,361,175860,5,10,0:3:0:0:
259,234,176032,1,8,0:3:0:0:
274,109,176205,1,12,0:0:0:0:
259,234,176377,2,0,L|252:280,1,45,0|8,0:0|0:0,0:0:0:0:
237,361,176550,6,0,L|334:334,1,90,10|0,0:3|0:0,0:0:0:0:
479,308,176894,1,8,0:0:0:0:
332,179,177067,1,4,0:0:0:0:
332,179,177412,5,8,0:3:0:0:
261,272,177584,1,8,0:0:0:0:
426,222,177756,1,2,0:0:0:0:
319,87,177929,1,8,0:0:0:0:
345,314,178101,5,2,0:0:0:0:
233,175,178274,1,8,0:0:0:0:
414,120,178446,1,10,0:0:0:0:
332,179,178619,5,8,0:0:0:0:
137,172,178791,1,0,0:0:0:0:
262,4,178963,1,8,0:0:0:0:
227,236,179136,1,2,0:0:0:0:
153,58,179308,1,8,0:0:0:0:
352,72,179481,1,2,0:0:0:0:
248,113,179653,1,8,0:0:0:0:
68,13,179825,5,4,0:0:0:0:
77,25,180170,1,0,0:0:0:0:
77,25,180343,2,0,L|59:121,1,90,8|2,0:0|0:0,0:0:0:0:
29,227,180688,2,0,B|111:192|138:249|214:214,1,180,8|8,0:3|0:0,0:0:0:0:
257,117,181205,1,2,0:0:0:0:
354,231,181377,6,0,P|371:169|360:136,1,90,8|10,0:3|0:3,0:0:0:0:
271,328,181722,1,8,0:0:0:0:
296,168,181894,2,0,P|368:149|439:222,1,180,2|10,0:0|0:3,0:0:0:0:
295,168,182412,2,0,L|309:68,1,90,8|10,0:0|0:3,0:0:0:0:
213,296,182756,5,0,0:0:0:0:
88,251,182929,1,10,0:3:0:0:
78,215,183015,1,0,0:0:0:0:
84,176,183101,1,8,0:0:0:0:
14,74,183274,1,2,0:0:0:0:
109,144,183446,1,8,0:3:0:0:
14,74,183619,1,10,0:3:0:0:
131,22,183791,2,0,L|238:21,1,90,8|2,0:0|0:0,0:0:0:0:
395,44,184136,5,8,0:3:0:0:
405,78,184222,1,0,0:0:0:0:
420,110,184308,1,10,0:3:0:0:
436,141,184394,1,0,0:0:0:0:
417,172,184481,5,8,0:0:0:0:
411,207,184567,1,0,0:0:0:0:
407,242,184653,1,2,0:0:0:0:
420,275,184739,1,0,0:0:0:0:
434,307,184825,6,0,L|426:361,3,45,8|0|8|0,0:3|0:0|0:3|0:0,0:0:0:0:
327,302,185170,2,0,L|313:244,1,45,8|0,0:0|0:0,0:0:0:0:
226,361,185343,2,0,L|228:317,1,45,2|0,0:3|0:0,0:0:0:0:
134,280,185515,6,0,L|146:180,1,90,10|8,0:3|0:3,0:0:0:0:
129,50,185860,2,0,P|165:96|242:60,1,135,12|0,0:0|0:0,0:0:0:0:
217,58,186205,2,0,L|215:175,1,90,10|8,0:3|0:3,0:0:0:0:
340,81,186550,2,0,P|445:63|475:93,1,135,12|0,0:0|0:0,0:0:0:0:
480,62,186894,6,0,L|482:169,1,90,10|8,0:3|0:3,0:0:0:0:
456,291,187239,2,0,L|296:276,1,135,12|0,0:0|0:0,0:0:0:0:
321,278,187584,5,10,0:3:0:0:
133,317,187756,1,8,0:3:0:0:
231,204,187929,1,12,0:0:0:0:
124,212,188101,6,0,P|138:108|147:27,1,180,4|8,0:0|0:3,0:0:0:0:
50,113,188619,1,8,0:0:0:0:
219,132,188791,1,2,0:0:0:0:
8,227,188963,1,8,0:0:0:0:
231,246,189136,1,10,0:3:0:0:
129,163,189308,1,8,0:0:0:0:
336,128,189481,6,0,P|413:130|467:36,1,180,4|8,0:0|0:3,0:0:0:0:
238,82,189998,2,0,L|244:187,1,90,8|8,0:0|0:0,0:0:0:0:
243,171,190256,1,8,0:0:0:0:
243,171,190343,1,8,0:3:0:0:
49,354,190515,1,8,0:0:0:0:
16,323,190601,1,8,0:0:0:0:
7,278,190688,1,8,0:0:0:0:
21,235,190774,1,8,0:0:0:0:
56,207,190860,6,0,L|244:199,1,180,4|0,0:0|0:0,0:0:0:0:
453,300,191377,2,0,L|363:294,1,90,8|0,0:0|0:0,0:0:0:0:
420,119,191722,2,0,L|510:125,1,90,10|10,0:3|0:3,0:0:0:0:
380,206,192067,1,8,0:0:0:0:
253,122,192239,1,2,0:3:0:0:
245,336,192412,6,0,P|259:293|254:249,1,90,8|10,0:3|0:3,0:0:0:0:
133,129,192756,2,0,P|177:129|223:107,1,90,8|8,0:0|0:3,0:0:0:0:
3,261,193101,1,2,0:3:0:0:
47,140,193274,1,8,0:3:0:0:
139,191,193446,1,8,0:0:0:0:
6,82,193619,6,0,L|1:274,1,180,4|2,0:0|0:0,0:0:0:0:
170,188,194136,2,0,L|167:83,1,90,8|0,0:0|0:0,0:0:0:0:
109,263,194481,1,10,0:3:0:0:
171,189,194653,1,10,0:3:0:0:
300,261,194825,1,8,0:0:0:0:
288,164,194998,1,2,0:3:0:0:
250,342,195170,6,0,P|322:353|392:256,1,180,8|8,0:3|0:0,0:0:0:0:
380,122,195688,2,0,L|482:150,1,90,8|2,0:3|0:0,0:0:0:0:
296,44,196032,1,8,0:3:0:0:
206,222,196205,2,0,P|218:181|203:136,1,90,8|0,0:0|0:0,0:0:0:0:
126,330,196550,6,0,L|233:305,1,90,10|8,0:3|0:3,0:0:0:0:
448,215,196894,1,12,0:0:0:0:
341,186,197067,1,0,0:0:0:0:
145,184,197239,6,0,L|232:163,1,90,10|8,0:3|0:3,0:0:0:0:
439,335,197584,1,12,0:0:0:0:
332,306,197756,1,0,0:0:0:0:
344,68,197929,6,0,L|431:88,1,90,8|8,0:3|0:3,0:0:0:0:
253,154,198274,1,12,0:0:0:0:
146,183,198446,1,0,0:0:0:0:
444,238,198619,6,0,L|357:218,1,90,10|8,0:3|0:3,0:0:0:0:
266,304,198963,1,12,0:0:0:0:
356,73,199136,6,0,P|390:135|361:237,1,180,4|8,0:0|0:3,0:0:0:0:
119,309,199653,1,8,0:0:0:0:
201,170,199825,1,2,0:0:0:0:
286,223,199998,1,8,0:0:0:0:
117,214,200170,1,10,0:3:0:0:
166,88,200343,1,8,0:0:0:0:
237,367,200515,1,12,0:0:0:0:
237,367,200860,5,8,0:3:0:0:
287,240,201032,1,8,0:0:0:0:
164,263,201205,1,2,0:0:0:0:
329,340,201377,1,8,0:0:0:0:
378,179,201550,1,10,0:3:0:0:
287,253,201722,1,8,0:0:0:0:
307,42,201894,1,6,0:0:0:0:
299,43,202239,5,8,0:3:0:0:
212,102,202412,2,0,L|408:75,1,180,8|10,0:0|0:3,0:0:0:0:
200,18,202929,1,10,0:3:0:0:
148,150,203101,1,8,0:0:0:0:
67,86,203274,1,10,0:3:0:0:
239,87,203446,6,0,P|255:136|247:185,1,90,0|10,0:0|0:3,0:0:0:0:
169,357,203791,2,0,L|195:269,1,90,8|0,0:0|0:0,0:0:0:0:
125,164,204136,1,10,0:3:0:0:
299,272,204308,2,0,P|350:271|399:252,1,90,10|8,0:3|0:0,0:0:0:0:
470,154,204653,6,0,P|505:211|500:331,1,180,4|0,0:0|0:0,0:0:0:0:
299,272,205170,2,0,L|188:239,1,90,8|0,0:0|0:0,0:0:0:0:
388,216,205515,1,10,0:3:0:0:
243,360,205688,1,10,0:3:0:0:
424,315,205860,1,8,0:0:0:0:
261,209,206032,6,0,L|266:106,1,90,10|0,0:3|0:0,0:0:0:0:
369,131,206377,1,10,0:3:0:0:
161,152,206550,2,0,L|166:49,1,90,8|0,0:0|0:0,0:0:0:0:
270,136,206894,1,8,0:3:0:0:
262,35,207067,1,8,0:3:0:0:
137,243,207239,2,0,P|195:237|233:201,1,90,8|0,0:0|0:0,0:0:0:0:
12,304,207584,5,10,0:3:0:0:
63,173,207756,1,8,0:3:0:0:
228,282,207929,2,0,P|236:234|222:194,1,90,12|0,0:0|0:0,0:0:0:0:
126,370,208274,5,10,0:3:0:0:
228,282,208446,1,8,0:3:0:0:
63,173,208619,2,0,P|54:129|62:85,1,90,12|0,0:0|0:0,0:0:0:0:
329,95,208963,5,10,0:3:0:0:
218,184,209136,1,8,0:3:0:0:
405,296,209308,1,12,0:0:0:0:
403,303,209653,5,10,0:3:0:0:
320,213,209825,1,8,0:3:0:0:
270,346,209998,1,8,0:0:0:0:
386,73,210170,6,0,P|441:130|420:228,1,180,4|10,0:0|0:3,0:0:0:0:
218,157,210688,1,8,0:0:0:0:
203,334,210860,1,2,0:0:0:0:
210,245,211032,1,8,0:0:0:0:
368,251,211205,1,10,0:3:0:0:
127,289,211377,5,8,0:0:0:0:
297,206,211550,1,12,0:3:0:0:
140,103,211722,5,0,0:0:0:0:
129,197,211894,1,10,0:3:0:0:
153,10,212067,1,8,0:0:0:0:
221,107,212239,1,8,0:0:0:0:
256,127,212325,1,8,0:0:0:0:
296,125,212412,1,8,0:0:0:0:
333,109,212498,1,8,0:0:0:0:
373,107,212584,1,8,0:0:0:0:
412,116,212670,1,8,0:0:0:0:
443,140,212756,2,0,L|420:195,1,45,8|8,0:0|0:0,0:0:0:0:
454,303,212929,2,0,L|417:257,1,45,8|8,0:0|0:0,0:0:0:0:
344,232,213101,6,0,L|333:342,1,90,10|8,0:3|0:3,0:0:0:0:
221,382,213446,2,0,L|213:227,1,135,12|0,0:0|0:0,0:0:0:0:
224,224,213791,5,10,0:3:0:0:
294,82,213963,1,8,0:3:0:0:
103,198,214136,2,0,L|111:43,1,135,12|0,0:0|0:0,0:0:0:0:
100,40,214481,5,10,0:3:0:0:
229,115,214653,1,8,0:3:0:0:
94,297,214825,2,0,L|246:262,1,135,12|0,0:0|0:0,0:0:0:0:
255,262,215170,5,10,0:3:0:0:
345,98,215343,1,8,0:3:0:0:
442,167,215515,1,12,0:0:0:0:
257,158,215688,6,0,P|240:88|311:3,1,180,12|8,0:3|0:3,0:0:0:0:
322,271,216205,1,8,0:0:0:0:
414,97,216377,1,2,0:0:0:0:
480,272,216550,1,8,0:0:0:0:
354,178,216722,1,10,0:3:0:0:
402,335,216894,1,8,0:0:0:0:
452,186,217067,1,2,0:0:0:0:
269,282,217239,5,8,0:0:0:0:
238,290,217325,1,0,0:0:0:0:
207,298,217412,1,2,0:0:0:0:
354,178,217584,1,8,0:0:0:0:
240,151,217756,1,2,0:0:0:0:
252,121,217843,1,0,0:0:0:0:
266,93,217929,1,8,0:0:0:0:
409,282,218101,1,10,0:3:0:0:
417,65,218274,2,0,L|468:145,1,90,8|0,0:0|0:0,0:0:0:0:
214,19,218619,5,4,0:0:0:0:
