osu file format v13

[General]
AudioFilename: 06 aiiro.mp3
AudioLeadIn: 1500
PreviewTime: 68619
Countdown: 0
SampleSet: Soft
StackLeniency: 0.7
Mode: 0
LetterboxInBreaks: 0
WidescreenStoryboard: 0

[Editor]
DistanceSpacing: 1.1
BeatDivisor: 4
GridSize: 4
TimelineZoom: 1.9

[Metadata]
Title:Aiiro
TitleUnicode:二藍 -あいいろ-
Artist:Rita
ArtistUnicode:Rita
Creator:Fycho
Version:Hard
Source:恋神 -ラブカミ-
Tags:love kami Best Album Kibbleru visual novel
BeatmapID:457571
BeatmapSetID:180684

[Difficulty]
HPDrainRate:5
CircleSize:4
OverallDifficulty:6
ApproachRate:8
SliderMultiplier:1.5
SliderTickRate:1

[Events]
//Background and Video events
0,0,"bg.jpg",0,0
//Break Periods
2,94681,99248
2,158129,166834
//Storyboard Layer 0 (Background)
//Storyboard Layer 1 (Fail)
//Storyboard Layer 2 (Pass)
//Storyboard Layer 3 (Foreground)
//Storyboard Sound Samples
//Background Colour Transformations
3,100,163,162,255

[TimingPoints]
688,344.827586206897,4,2,1,50,1,0
2067,-100,4,2,1,70,0,0
35170,-100,4,2,2,40,0,0
36550,-133.333333333333,4,2,2,60,0,0
41205,-133.333333333333,4,2,2,40,0,0
41722,-133.333333333333,4,2,2,60,0,0
47584,-111.111111111111,4,2,2,60,0,0
52239,-111.111111111111,4,2,2,40,0,0
52756,-111.111111111111,4,2,2,60,0,0
52929,-111.111111111111,4,2,1,40,0,0
53015,-111.111111111111,4,2,2,60,0,0
55688,-111.111111111111,4,2,1,60,0,0
58619,-100,4,2,1,70,0,0
69481,-100,4,2,1,80,0,1
91722,-100,4,2,1,70,0,0
107412,-100,4,2,2,50,0,0
107929,-100,4,2,1,70,0,0
118446,-100,4,2,2,70,0,0
118963,-100,4,2,1,70,0,0
135688,-100,4,2,1,80,0,1
157929,-100,4,2,1,70,0,0
190860,-100,4,2,1,80,0,1
218619,-100,4,2,1,70,0,0

[Colours]
Combo1 : 36,255,91
Combo2 : 21,255,255
Combo3 : 255,89,172
Combo4 : 128,128,192

[HitObjects]
393,85,688,6,0,L|401:49,4,37.5,8|8|8|8|8,0:3|0:3|0:3|0:3|0:3,0:0:0:0:
297,141,1205,2,0,L|305:105,4,37.5,8|8|8|8|8,0:3|0:3|0:3|0:3|0:3,0:0:0:0:
215,185,1722,1,12,0:0:0:0:
215,185,2067,6,0,P|131:171|65:208,2,150,4|8|8,0:0|0:0|0:3,0:0:0:0:
227,266,2929,1,8,0:3:0:0:
296,312,3101,1,8,0:0:0:0:
375,286,3274,6,0,P|412:269|431:156,1,150,8|8,0:3|0:3,0:0:0:0:
433,88,3791,2,0,L|342:102,1,75,8|0,0:0|0:0,0:0:0:0:
281,129,4136,2,0,L|198:118,1,75,8|8,0:3|0:3,0:0:0:0:
126,102,4481,1,8,0:0:0:0:
37,317,4825,6,0,P|106:287|179:302,1,150,8|8,0:3|0:0,0:0:0:0:
416,262,5515,2,0,P|371:254|338:233,1,75,8|8,0:3|0:3,0:0:0:0:
311,164,5860,1,8,0:0:0:0:
335,86,6032,6,0,B|455:78|455:78|501:101,1,150,8|8,0:3|0:3,0:0:0:0:
439,237,6550,2,0,P|431:189|442:163,1,75,8|0,0:0|0:0,0:0:0:0:
458,326,6894,2,0,L|374:311,1,75,8|8,0:3|0:3,0:0:0:0:
305,339,7239,2,0,L|220:348,1,75,8|0,0:0|0:0,0:0:0:0:
161,301,7584,6,0,B|51:286|51:286|0:256,1,150,4|8,0:0|0:0,0:0:0:0:
284,141,8274,2,0,L|193:152,1,75,8|8,0:3|0:3,0:0:0:0:
124,157,8619,1,8,0:0:0:0:
84,84,8791,6,0,L|238:64,1,150,8|8,0:3|0:3,0:0:0:0:
315,52,9308,2,0,P|371:36|395:42,1,75,8|0,0:0|0:0,0:0:0:0:
447,94,9653,1,8,0:3:0:0:
438,175,9825,1,8,0:3:0:0:
378,238,9998,2,0,L|390:326,1,75,8|0,0:0|0:0,0:0:0:0:
293,253,10343,6,0,P|221:246|152:289,2,150,4|8|8,0:0|0:0|0:3,0:0:0:0:
349,192,11205,1,8,0:3:0:0:
431,193,11377,2,0,L|423:118,1,75,8|0,0:0|0:0,0:0:0:0:
343,106,11722,6,0,L|257:121,1,75,12|8,0:3|0:3,0:0:0:0:
188,136,12067,1,12,0:0:0:0:
31,49,12412,2,0,L|117:34,1,75,12|0,0:3|0:3,0:0:0:0:
186,19,12756,1,12,0:0:0:0:
96,275,13101,6,0,P|62:208|99:138,1,150,4|8,0:0|0:0,0:0:0:0:
161,87,13619,2,0,B|257:113|257:113|315:151,1,150,8|8,0:3|0:3,0:0:0:0:
385,172,14136,2,0,L|399:82,1,75,8|0,0:0|0:0,0:0:0:0:
477,129,14481,5,8,0:3:0:0:
477,129,14653,2,0,L|454:290,1,150,8|0,0:3|0:0,0:0:0:0:
392,330,15170,2,0,P|345:333|308:314,1,75,8|8,0:3|0:3,0:0:0:0:
292,247,15515,2,0,L|304:163,1,75,8|0,0:0|0:0,0:0:0:0:
220,203,15860,6,0,P|208:283|194:366,1,150,4|8,0:0|0:0,0:0:0:0:
126,307,16377,2,0,P|57:331|0:286,1,150,8|8,0:3|0:3,0:0:0:0:
0,209,16894,1,8,0:0:0:0:
60,152,17067,1,0,0:0:0:0:
140,174,17239,5,8,0:3:0:0:
140,174,17412,2,0,L|297:159,2,150,8|0|8,0:3|0:0|0:3,0:0:0:0:
159,255,18274,2,0,P|158:298|150:344,1,75,8|0,0:0|0:0,0:0:0:0:
230,359,18619,6,0,L|396:337,1,150,4|8,0:0|0:0,0:0:0:0:
454,304,19136,2,0,P|422:235|441:163,1,150,8|8,0:3|0:3,0:0:0:0:
393,97,19653,2,0,L|473:83,1,75,8|0,0:0|0:0,0:0:0:0:
341,164,19998,6,0,L|267:176,1,75,8|8,0:3|0:3,0:0:0:0:
267,176,20515,2,0,L|117:164,1,150,8|8,0:3|0:3,0:0:0:0:
52,113,21032,2,0,P|43:77|60:34,1,75,8|0,0:0|0:0,0:0:0:0:
137,37,21377,6,0,P|235:45|279:2,1,150,4|8,0:0|0:0,0:0:0:0:
287,120,21894,1,8,0:3:0:0:
287,120,22239,1,8,0:3:0:0:
367,101,22412,2,0,L|378:22,1,75,8|0,0:0|0:0,0:0:0:0:
345,196,22756,6,0,L|431:166,1,75,4|8,0:0|0:3,0:0:0:0:
443,249,23101,1,8,0:0:0:0:
369,288,23274,2,0,P|274:304|207:349,1,150,8|8,0:0|0:0,0:0:0:0:
154,292,23791,2,0,L|143:237,3,37.5,8|8|8|8,0:0|0:0|0:0|0:0,0:0:0:0:
138,214,24136,6,0,L|63:243,1,75,4|8,0:0|0:3,0:0:0:0:
37,164,24481,1,8,0:0:0:0:
78,92,24653,2,0,B|179:103|179:103|229:140,1,150,8|8,0:3|0:3,0:0:0:0:
243,210,25170,2,0,L|229:295,1,75,8|0,0:0|0:0,0:0:0:0:
317,354,25515,6,0,L|313:280,1,75,8|8,0:3|0:3,0:0:0:0:
327,198,25860,1,8,0:0:0:0:
407,216,26032,2,0,P|420:145|374:82,1,150,8|8,0:3|0:3,0:0:0:0:
302,119,26550,2,0,L|216:112,1,75,8|0,0:0|0:0,0:0:0:0:
151,83,26894,6,0,P|146:32|159:-7,2,75,4|8|8,0:0|0:3|0:0,0:0:0:0:
106,153,27412,2,0,P|121:226|110:300,1,150,8|8,0:3|0:3,0:0:0:0:
99,383,27929,2,0,P|63:373|26:379,1,75,8|0,0:0|0:0,0:0:0:0:
182,348,28274,6,0,P|217:357|254:351,1,75,8|8,0:3|0:3,0:0:0:0:
311,291,28619,1,8,0:0:0:0:
273,217,28791,2,0,B|265:100|265:100|280:69,1,150,8|8,0:3|0:3,0:0:0:0:
358,47,29308,2,0,L|439:59,1,75,8|0,0:0|0:0,0:0:0:0:
485,121,29653,5,4,0:0:0:0:
500,202,29825,1,8,0:3:0:0:
436,254,29998,1,8,0:0:0:0:
355,235,30170,2,0,P|265:235|224:278,1,150,8|8,0:3|0:3,0:0:0:0:
145,256,30688,2,0,L|142:331,1,75,8|0,0:0|0:0,0:0:0:0:
63,253,31032,6,0,L|65:178,1,75,8|8,0:3|0:3,0:0:0:0:
89,98,31377,1,8,0:0:0:0:
169,75,31550,2,0,B|221:46|271:64|271:64|292:104,1,150,8|8,0:3|0:3,0:0:0:0:
328,177,32067,1,8,0:0:0:0:
282,245,32239,1,0,0:0:0:0:
313,322,32412,6,0,P|359:332|392:327,1,75,4|8,0:0|0:3,0:0:0:0:
448,275,32756,1,8,0:0:0:0:
448,275,32929,2,0,L|436:122,1,150,8|8,0:3|0:3,0:0:0:0:
357,110,33446,2,0,L|362:184,1,75,8|0,0:0|0:0,0:0:0:0:
416,44,33791,5,4,0:0:0:0:
416,44,33963,1,4,0:0:0:0:
356,110,34136,2,0,L|276:116,1,75,8|8,0:0|0:0,0:0:0:0:
281,115,34394,1,8,0:0:0:0:
281,115,34481,1,8,0:0:0:0:
238,186,34653,2,0,L|247:263,2,75,4|8|0,0:0|0:0|0:0,0:0:0:0:
189,73,35170,5,2,0:0:0:0:
201,81,35515,1,2,0:0:0:0:
195,95,35860,1,2,0:0:0:0:
181,88,36205,1,2,0:0:0:0:
367,43,36550,6,0,P|412:66|487:52,1,112.500004291535,4|8,0:0|0:0,0:0:0:0:
477,138,37067,1,0,0:0:0:0:
477,138,37239,2,0,L|455:257,1,112.500004291535
383,280,37756,1,0,0:0:0:0:
366,357,37929,6,0,L|304:347,1,56.2500021457673,0|0,0:0|0:0,0:0:0:0:
241,311,38274,1,8,0:0:0:0:
241,311,38446,2,0,P|196:306|125:350,1,112.500004291535
73,287,38963,2,0,L|63:226,1,56.2500021457673,0|0,0:0|1:0,0:0:0:0:
74,153,39308,6,0,B|159:151|159:151|194:177,1,112.500004291535
251,202,39825,1,8,0:0:0:0:
324,170,39998,1,0,0:0:0:0:
324,170,40170,2,0,L|328:114,1,56.2500021457673
288,46,40515,2,0,L|297:-2,2,28.1250010728836,0|0|4,0:0|0:0|0:0,0:0:0:0:
211,60,40860,5,0,0:0:0:0:
133,73,41032,1,8,0:0:0:0:
55,85,41205,2,0,L|35:220,2,112.500004291535,2|2|2,0:0|0:0|0:1,0:0:0:0:
187,171,42239,5,0,0:0:0:0:
264,188,42412,1,8,0:0:0:0:
340,205,42584,2,0,L|343:233,4,28.1250010728836,0|0|0|0|8,0:0|0:0|0:0|0:0|0:0,0:0:0:0:
392,60,43274,1,0,0:0:0:0:
392,60,43446,6,0,P|316:62|260:68,1,112.500004291535,2|0,1:0|0:0,0:0:0:0:
213,107,43963,2,0,P|132:107|96:102,1,112.500004291535,2|2,1:0|1:0,0:0:0:0:
58,170,44481,1,0,0:0:0:0:
123,211,44653,6,0,P|104:263|105:319,1,112.500004291535,2|0,1:0|0:0,0:0:0:0:
170,364,45170,2,0,L|227:357,1,56.2500021457673,8|0,0:0|0:0,0:0:0:0:
289,309,45515,2,0,L|345:303,1,56.2500021457673,8|2,0:0|0:1,0:0:0:0:
423,310,45860,1,2,0:1:0:0:
482,259,46032,6,0,B|468:219|468:219|471:180|479:147,2,112.500004291535,4|2|2,0:0|1:1|0:1,0:0:0:0:
356,59,47239,2,0,L|373:-15,1,56.2500021457673,8|0,0:0|0:0,0:0:0:0:
287,112,47584,6,0,L|137:114,1,134.999995880127,4|8,0:0|3:0,0:0:0:0:
168,194,48101,1,0,0:0:0:0:
232,244,48274,2,0,L|229:326,1,67.4999979400635,0|0,3:0|0:0,0:0:0:0:
157,349,48619,2,0,P|112:357|78:344,1,67.4999979400635,0|0,3:0|0:0,0:0:0:0:
45,285,48963,5,0,3:0:0:0:
75,209,49136,2,0,L|77:169,2,33.7499989700318,0|0|8,1:0|1:0|3:0,0:0:0:0:
151,235,49481,1,0,0:0:0:0:
151,235,49653,2,0,L|164:157,1,67.4999979400635,0|0,3:0|0:0,0:0:0:0:
205,304,49998,2,0,L|238:236,1,67.4999979400635,0|0,3:0|0:0,0:0:0:0:
304,289,50343,6,0,P|365:261|432:263,1,134.999995880127,0|0,3:0|3:0,0:0:0:0:
488,200,50860,1,8,0:0:0:0:
425,148,51032,2,0,L|427:63,2,67.4999979400635,0|0|0,3:0|0:0|3:0,0:0:0:0:
361,198,51550,1,0,0:0:0:0:
294,152,51722,6,0,P|169:131|137:144,1,134.999995880127,0|8,3:0|0:0,0:0:0:0:
100,181,52239,1,10,0:0:0:0:
156,245,52412,2,0,L|146:315,1,67.4999979400635,0|2,3:0|0:0,0:0:0:0:
239,248,52756,1,8,3:0:0:0:
297,313,52929,6,0,B|400:319|400:319|440:297,1,134.999995880127,12|0,0:0|0:0,0:0:0:0:
477,239,53446,2,0,P|475:154|435:124,1,134.999995880127,8|0,3:0|0:0,0:0:0:0:
361,143,53963,2,0,L|226:136,1,134.999995880127
145,129,54481,6,0,P|126:101|122:67,1,67.4999979400635,0|0,3:0|0:0,0:0:0:0:
182,14,54825,2,0,L|270:24,1,67.4999979400635,0|0,3:0|0:0,0:0:0:0:
304,81,55170,1,0,3:0:0:0:
384,68,55343,1,0,0:0:0:0:
447,119,55515,1,0,3:0:0:0:
427,197,55688,6,0,P|442:254|431:336,1,134.999995880127,4|8,0:0|0:3,0:0:0:0:
352,319,56205,2,0,L|210:317,1,134.999995880127,8|8,0:0|0:3,0:0:0:0:
137,332,56722,2,0,P|132:221|145:175,1,134.999995880127,8|8,0:0|0:0,0:0:0:0:
256,73,57412,5,2,0:0:0:0:
67,159,57756,1,2,0:0:0:0:
296,206,58101,2,0,L|356:200,2,33.7499989700318,2|0|8,0:0|0:0|0:0,0:0:0:0:
234,288,58446,2,0,L|200:291,2,33.7499989700318,2|0|4,0:0|0:0|0:0,0:0:0:0:
488,220,58963,6,0,P|480:119|443:92,1,150,8|10,0:0|0:3,0:0:0:0:
363,86,59481,1,8,0:3:0:0:
313,152,59653,1,8,0:0:0:0:
236,180,59825,6,0,P|163:200|95:230,1,150,10|8,0:3|0:3,0:0:0:0:
21,147,60343,2,0,P|74:142|117:136,1,75,8|0,0:0|0:0,0:0:0:0:
171,106,60688,2,0,P|190:55|188:18,1,75,10|8,0:3|0:3,0:0:0:0:
110,13,61032,1,8,0:0:0:0:
49,69,61205,1,0,0:0:0:0:
74,146,61377,6,0,P|60:220|56:295,1,150,4|8,0:0|0:0,0:0:0:0:
135,271,61894,2,0,P|220:272|269:311,1,150,2|8,0:0|0:3,0:0:0:0:
349,334,62412,1,8,0:0:0:0:
427,308,62584,6,0,B|451:273|451:273|456:166,1,150,10|8,0:3|0:3,0:0:0:0:
389,115,63101,1,8,0:0:0:0:
321,162,63274,2,0,P|256:184|180:144,1,150,10|8,0:3|0:3,0:0:0:0:
91,166,63791,2,0,L|109:94,1,75,8|0,0:0|0:0,0:0:0:0:
120,248,64136,6,0,L|102:320,1,75,4|0,0:0|0:0,0:0:0:0:
200,275,64481,1,8,0:0:0:0:
274,227,64653,2,0,B|391:228|391:228|435:256,1,150,2|8,0:0|0:3,0:0:0:0:
476,186,65170,1,8,0:0:0:0:
433,116,65343,6,0,P|372:129|286:77,1,150,10|8,0:3|0:3,0:0:0:0:
228,30,65860,2,0,P|259:9|296:3,1,75,8|0,0:0|0:0,0:0:0:0:
213,115,66205,2,0,L|124:107,1,75,10|8,0:3|0:3,0:0:0:0:
123,189,66550,1,8,0:0:0:0:
41,196,66722,6,0,P|18:251|48:341,1,150,4|10,0:0|0:3,0:0:0:0:
125,331,67239,1,8,0:0:0:0:
205,350,67412,1,2,0:0:0:0:
205,350,67498,1,0,0:0:0:0:
205,350,67584,2,0,L|279:339,1,75,8|2,0:0|0:0,0:0:0:0:
344,287,67929,2,0,P|343:247|328:216,1,75,0|2,0:0|0:0,0:0:0:0:
252,168,68274,6,0,L|258:93,1,75,8|2,0:0|0:0,0:0:0:0:
332,41,68619,2,0,L|343:-1,2,37.5,8|0|0,0:0|0:0|0:0,0:0:0:0:
398,106,68963,1,8,0:0:0:0:
420,193,69136,2,0,L|422:268,1,75,8|0,0:0|0:0,0:0:0:0:
359,333,69481,6,0,P|285:342|211:330,1,150,4|0,0:0|0:0,0:0:0:0:
136,280,69998,2,0,P|128:218|137:193,1,75,8|0,0:0|0:0,0:0:0:0:
210,163,70343,2,0,L|296:174,2,75,10|10|8,0:3|0:3|0:0,0:0:0:0:
192,76,70860,6,0,B|307:92|307:92|354:123,1,150,10|10,0:3|0:3,0:0:0:0:
358,200,71377,2,0,L|517:182,1,150,8|10,0:0|0:3,0:0:0:0:
463,104,71894,1,10,0:3:0:0:
376,128,72067,1,8,0:0:0:0:
333,207,72239,6,0,P|307:284|324:350,1,150,4|0,0:0|0:0,0:0:0:0:
416,189,72756,2,0,L|257:167,1,150,8|10,0:0|0:3,0:0:0:0:
176,164,73274,2,0,L|165:77,1,75,10|8,0:3|0:0,0:0:0:0:
238,35,73619,6,0,P|310:45|353:105,1,150,10|10,0:3|0:3,0:0:0:0:
432,61,74136,2,0,L|507:67,1,75,8|8,0:0|0:3,0:0:0:0:
499,157,74481,2,0,L|424:150,1,75,2|8,0:0|0:3,0:0:0:0:
391,233,74825,2,0,L|310:226,1,75,8|0,0:0|0:0,0:0:0:0:
263,300,75170,5,10,0:3:0:0:
176,277,75343,1,8,0:3:0:0:
87,289,75515,2,0,P|56:228|94:136,1,150,12|10,0:0|0:3,0:0:0:0:
163,125,76032,1,8,0:3:0:0:
245,162,76205,2,0,L|321:162,1,75,12|0,0:0|0:0,0:0:0:0:
460,98,76550,6,0,L|379:98,1,75,10|8,0:3|0:3,0:0:0:0:
298,74,76894,2,0,P|195:96|145:89,1,150,12|10,0:0|0:3,0:0:0:0:
86,153,77412,1,8,0:3:0:0:
161,202,77584,1,12,0:0:0:0:
136,288,77756,6,0,B|242:269|242:269|284:278,1,150,4|8,0:0|0:3,0:0:0:0:
354,335,78274,1,8,0:0:0:0:
430,288,78446,1,0,0:0:0:0:
504,339,78619,2,0,L|516:264,2,75,8|8|8,0:0|0:3|0:0,0:0:0:0:
430,288,79136,6,0,L|454:137,1,150,12|8,0:0|0:3,0:0:0:0:
333,74,79653,2,0,P|374:83|422:69,1,75,8|0,0:0|0:0,0:0:0:0:
272,13,79998,1,8,0:0:0:0:
193,49,80170,2,0,L|112:91,1,75,8|8,0:3|0:0,0:0:0:0:
42,152,80515,6,0,P|103:148|184:214,1,150,4|0,0:0|0:0,0:0:0:0:
219,274,81032,2,0,P|209:339|205:358,1,75,8|0,0:0|0:0,0:0:0:0:
294,322,81377,1,10,0:3:0:0:
375,340,81550,2,0,P|379:302|386:266,1,75,10|8,0:3|0:0,0:0:0:0:
348,186,81894,6,0,P|404:138|477:143,1,150,10|10,0:3|0:3,0:0:0:0:
365,73,82412,2,0,L|291:66,1,75,8|0,0:0|0:0,0:0:0:0:
216,29,82756,1,10,0:3:0:0:
156,89,82929,2,0,L|141:162,1,75,10|8,0:3|0:0,0:0:0:0:
220,170,83274,6,0,P|203:230|206:328,1,150,4|0,0:0|0:0,0:0:0:0:
281,356,83791,2,0,P|318:353|355:343,1,75,8|0,0:0|0:0,0:0:0:0:
370,262,84136,2,0,L|456:277,1,75,10|10,0:3|0:3,0:0:0:0:
460,363,84481,1,8,0:0:0:0:
444,275,84653,6,0,B|442:160|442:160|455:126,1,150,10|10,0:3|0:3,0:0:0:0:
504,52,85170,1,8,0:0:0:0:
240,195,85515,2,0,L|166:205,1,75,10|8,0:3|0:3,0:0:0:0:
123,126,85860,2,0,L|198:117,1,75,8|0,0:0|0:0,0:0:0:0:
287,119,86205,6,0,P|314:145|326:180,1,75,10|8,0:3|0:3,0:0:0:0:
315,270,86550,2,0,P|272:329|200:341,1,150,12|10,0:0|0:3,0:0:0:0:
119,300,87067,1,8,0:3:0:0:
119,210,87239,2,0,P|162:151|234:140,1,150,12|10,0:0|0:3,0:0:0:0:
314,181,87756,5,8,0:3:0:0:
366,255,87929,1,12,0:0:0:0:
261,108,88274,5,10,0:3:0:0:
316,37,88446,1,8,0:3:0:0:
406,42,88619,1,8,0:0:0:0:
466,108,88791,6,0,P|502:153|494:246,1,150,4|8,0:0|0:3,0:0:0:0:
447,318,89308,2,0,L|363:312,1,75,8|0,0:0|0:0,0:0:0:0:
261,230,89653,2,0,L|335:235,1,75,8|8,0:0|0:3,0:0:0:0:
282,322,89998,1,8,0:0:0:0:
190,296,90170,6,0,P|164:241|208:154,1,150,12|0,0:0|0:0,0:0:0:0:
276,120,90688,1,8,0:0:0:0:
352,169,90860,2,0,L|389:179,2,37.5,8|8|8,0:0|0:0|0:0,0:0:0:0:
443,108,91205,2,0,L|483:106,2,37.5,8|8|8,0:0|0:0|0:0,0:0:0:0:
348,78,91550,1,8,0:0:0:0:
348,78,91636,1,8,0:0:0:0:
348,78,91722,5,12,0:0:0:0:
256,192,91808,12,4,94481,0:0:0:0:
256,192,99998,12,4,101377,0:0:0:0:
140,147,101722,5,4,0:0:0:0:
202,200,101894,2,0,L|197:237,2,37.5,8|8|8,0:0|0:0|0:0,0:0:0:0:
275,160,102239,1,8,0:0:0:0:
336,216,102412,1,4,0:0:0:0:
311,294,102584,1,8,0:3:0:0:
385,329,102756,6,0,P|415:224|428:186,1,150,4|8,0:0|0:0,0:0:0:0:
460,109,103274,1,0,0:0:0:0:
395,57,103446,2,0,L|312:86,1,75,8|0,0:3|0:0,0:0:0:0:
242,81,103791,2,0,P|207:84|158:71,1,75,8|0,0:0|0:0,0:0:0:0:
87,90,104136,6,0,P|72:125|70:162,1,75,8|0,0:3|0:0,0:0:0:0:
151,178,104481,1,8,0:0:0:0:
149,260,104653,2,0,L|154:334,1,75,0|8,0:0|0:3,0:0:0:0:
238,339,104998,1,0,0:0:0:0:
303,289,105170,1,8,0:0:0:0:
381,317,105343,6,0,P|425:288|430:195,1,150,4|0,0:0|0:0,0:0:0:0:
377,134,105860,2,0,L|383:55,1,75,8|0,0:0|0:0,0:0:0:0:
247,122,106205,2,0,L|304:173,1,75,8|0,0:3|0:0,0:0:0:0:
287,251,106550,2,0,L|201:271,1,75,8|0,0:0|0:0,0:0:0:0:
132,277,106894,6,0,P|97:200|124:133,1,150,8|8,0:3|0:0,0:0:0:0:
183,92,107412,2,0,B|284:113|284:113|337:104,1,150,2|2,0:0|0:0,0:0:0:0:
394,157,107929,1,8,0:0:0:0:
476,154,108101,6,0,P|511:104|477:19,1,150,4|0,0:0|0:0,0:0:0:0:
403,42,108619,2,0,L|311:54,1,75,8|0,0:0|0:0,0:0:0:0:
261,99,108963,2,0,P|161:107|112:86,1,150,8|8,0:3|0:0,0:0:0:0:
64,154,109481,1,0,0:0:0:0:
107,224,109653,6,0,L|92:302,1,75,8|0,0:3|0:0,0:0:0:0:
176,291,109998,1,8,0:0:0:0:
248,253,110170,1,0,0:0:0:0:
309,309,110343,2,0,P|374:314|395:308,1,75,8|0,0:3|0:0,0:0:0:0:
457,275,110688,1,8,0:0:0:0:
410,207,110860,6,0,P|381:138|399:60,1,150,4|0,0:0|0:0,0:0:0:0:
312,68,111377,2,0,L|161:71,1,150,8|8,0:0|0:3,0:0:0:0:
86,103,111894,1,0,0:0:0:0:
56,180,112067,1,8,0:0:0:0:
122,229,112239,6,0,L|105:314,1,75,4|0,0:0|0:0,0:0:0:0:
194,183,112584,2,0,L|213:264,1,75,12|0,0:0|0:0,0:0:0:0:
226,101,112929,2,0,L|288:151,1,75,12|0,0:0|0:0,0:0:0:0:
359,103,113274,2,0,L|369:61,2,37.5,8|8|8,0:0|0:0|0:0,0:0:0:0:
399,177,113619,1,0,0:0:0:0:
399,177,113705,1,0,0:0:0:0:
399,177,113791,6,0,P|372:249|390:333,1,150,4|8,0:0|0:0,0:0:0:0:
306,349,114308,1,0,0:0:0:0:
259,281,114481,2,0,B|202:251|166:303|104:270,1,150,8|8,0:3|0:0,0:0:0:0:
67,204,114998,1,0,0:0:0:0:
32,130,115170,6,0,P|21:82|38:46,1,75,8|0,0:3|0:0,0:0:0:0:
107,33,115515,1,8,0:0:0:0:
179,74,115688,2,0,L|330:64,1,150
410,75,116205,1,8,0:0:0:0:
463,138,116377,6,0,P|420:151|364:258,1,150,4|0,0:0|0:0,0:0:0:0:
282,243,116894,2,0,L|298:335,1,75,8|0,0:0|0:0,0:0:0:0:
377,309,117239,2,0,L|364:235,1,75,8|0,0:3|0:0,0:0:0:0:
318,166,117584,1,8,0:0:0:0:
246,205,117756,1,0,0:0:0:0:
209,278,117929,6,0,P|114:279|74:230,1,150,8|8,0:3|0:0,0:0:0:0:
27,180,118446,2,0,B|47:70|47:70|36:34,1,150,2|2,0:0|0:0,0:0:0:0:
118,24,118963,1,8,0:0:0:0:
163,93,119136,6,0,P|243:69|317:98,1,150,4|0,0:0|0:0,0:0:0:0:
343,161,119653,1,8,0:0:0:0:
411,205,119825,2,0,P|428:276|407:355,1,150
328,331,120343,2,0,P|269:325|250:330,1,75,8|0,0:0|0:0,0:0:0:0:
180,293,120688,6,0,P|106:313|29:292,1,150,8|8,0:3|0:0,0:0:0:0:
31,213,121205,1,0,0:0:0:0:
78,145,121377,2,0,L|66:53,1,75,8|0,0:3|0:0,0:0:0:0:
151,72,121722,1,8,0:0:0:0:
182,147,121894,6,0,P|161:217|157:299,1,150,4|0,0:0|0:0,0:0:0:0:
239,283,122412,2,0,L|252:366,1,75,8|0,0:0|0:0,0:0:0:0:
314,228,122756,2,0,L|325:302,1,75,8|0,0:3|0:0,0:0:0:0:
413,245,123101,1,8,0:0:0:0:
421,343,123274,5,4,0:0:0:0:
416,71,123619,1,12,0:0:0:0:
177,205,123963,1,12,0:0:0:0:
495,217,124308,1,8,0:0:0:0:
495,217,124394,1,8,0:0:0:0:
495,217,124481,2,0,L|494:171,3,37.5,8|8|8|8,0:0|0:0|0:0|0:0,0:0:0:0:
491,138,124825,6,0,P|427:159|333:130,2,150,4|8|10,0:0|0:0|0:3,0:0:0:0:
478,55,125688,1,8,0:3:0:0:
409,9,125860,1,8,0:0:0:0:
333,40,126032,6,0,B|230:58|230:58|166:49,1,150,10|8,0:3|0:3,0:0:0:0:
105,84,126550,2,0,P|96:36|120:-2,1,75,8|0,0:0|0:0,0:0:0:0:
171,130,126894,2,0,L|154:210,1,75,10|8,0:3|0:3,0:0:0:0:
89,253,127239,2,0,L|95:334,1,75,8|8,0:0|0:3,0:0:0:0:
176,314,127584,6,0,P|258:296|326:314,1,150,4|8,0:0|0:0,0:0:0:0:
402,326,128101,2,0,P|424:232|415:178,1,150,2|8,0:0|0:3,0:0:0:0:
334,162,128619,1,8,0:0:0:0:
302,87,128791,6,0,B|267:63|267:63|160:58,1,150,10|8,0:3|0:3,0:0:0:0:
100,115,129308,1,8,0:0:0:0:
145,185,129481,2,0,P|167:250|127:326,1,150,10|8,0:3|0:3,0:0:0:0:
242,303,129998,2,0,L|224:375,1,75,8|0,0:0|0:0,0:0:0:0:
306,375,130343,6,0,L|324:303,1,75,4|0,0:0|0:0,0:0:0:0:
301,223,130688,1,8,0:0:0:0:
335,148,130860,2,0,B|218:147|218:147|174:119,1,150,2|8,0:0|0:3,0:0:0:0:
212,49,131377,1,8,0:0:0:0:
293,35,131550,6,0,P|354:22|436:80,1,150,10|8,0:3|0:3,0:0:0:0:
458,142,132067,2,0,P|427:163|390:169,1,75,8|0,0:0|0:0,0:0:0:0:
242,115,132412,2,0,L|331:123,1,75,10|8,0:3|0:3,0:0:0:0:
316,204,132756,1,8,0:0:0:0:
372,264,132929,6,0,P|327:316|232:322,1,150,4|8,0:0|0:3,0:0:0:0:
195,265,133446,1,8,0:0:0:0:
131,318,133619,2,0,L|133:357,2,37.5,10|8|8,0:0|0:0|0:0,0:0:0:0:
65,268,133963,2,0,P|50:234|49:197,1,75,2|8,0:0|0:0,0:0:0:0:
110,140,134308,6,0,L|116:65,1,75,2|8,0:0|0:0,0:0:0:0:
194,36,134653,1,2,0:0:0:0:
239,104,134825,2,0,L|228:146,2,37.5,8|8|0,0:0|0:0|0:0,0:0:0:0:
318,130,135170,1,8,0:0:0:0:
399,147,135343,2,0,L|397:72,1,75,8|0,0:0|0:0,0:0:0:0:
479,70,135688,6,0,P|488:144|476:218,1,150,4|0,0:0|0:0,0:0:0:0:
432,288,136205,2,0,P|440:350|431:375,1,75,8|0,0:0|0:0,0:0:0:0:
356,377,136550,2,0,L|270:366,2,75,10|10|8,0:3|0:3|0:0,0:0:0:0:
334,297,137067,6,0,B|219:277|219:277|172:246,1,150,10|10,0:3|0:3,0:0:0:0:
154,184,137584,2,0,L|-5:202,1,150,8|10,0:0|0:3,0:0:0:0:
10,118,138101,1,10,0:3:0:0:
82,77,138274,1,8,0:0:0:0:
164,88,138446,6,0,P|290:89|323:117,1,150,4|0,0:0|0:0,0:0:0:0:
283,179,138963,2,0,L|442:201,1,150,8|10,0:0|0:3,0:0:0:0:
471,126,139481,2,0,L|462:52,1,75,10|8,0:3|0:0,0:0:0:0:
379,49,139825,6,0,P|307:39|233:80,1,150,10|10,0:3|0:3,0:0:0:0:
202,146,140343,2,0,L|127:140,1,75,8|0,0:0|0:0,0:0:0:0:
142,221,140688,2,0,L|217:228,1,75,10|8,0:3|0:3,0:0:0:0:
274,287,141032,2,0,L|355:294,1,75,8|0,0:0|0:0,0:0:0:0:
428,318,141377,5,10,0:3:0:0:
500,276,141550,1,8,0:3:0:0:
478,197,141722,2,0,L|470:113,1,75,12|0,0:0|0:0,0:0:0:0:
399,80,142067,5,10,0:3:0:0:
334,131,142239,1,8,0:3:0:0:
336,214,142412,2,0,L|343:288,1,75,12|0,0:0|0:0,0:0:0:0:
164,218,142756,6,0,L|245:218,1,75,10|8,0:3|0:3,0:0:0:0:
336,215,143101,1,12,0:0:0:0:
65,77,143446,6,0,L|145:89,1,75,10|8,0:3|0:3,0:0:0:0:
230,110,143791,1,8,0:0:0:0:
269,190,143963,6,0,B|311:199|311:199|417:180,1,150,4|8,0:0|0:3,0:0:0:0:
499,217,144481,1,8,0:0:0:0:
512,118,144653,1,0,0:0:0:0:
490,30,144825,2,0,L|408:51,1,75,8|8,0:0|0:3,0:3:0:0:
327,60,145170,1,8,0:0:0:0:
382,131,145343,6,0,L|359:283,1,150,8|8,0:0|0:3,0:0:0:0:
320,360,145860,1,8,0:0:0:0:
271,284,146032,1,0,0:0:0:0:
218,357,146205,2,0,L|133:367,1,75,8|8,0:0|0:3,0:0:0:0:
140,283,146550,1,8,0:0:0:0:
59,299,146722,6,0,P|39:228|95:149,1,150,4|0,0:0|0:0,0:0:0:0:
31,91,147239,2,0,P|109:79|185:69,1,150,8|10,0:0|0:3,0:0:0:0:
249,26,147756,2,0,P|283:71|298:95,1,75,10|8,0:3|0:0,0:0:0:0:
252,158,148101,6,0,P|247:231|294:287,1,150,10|10,0:3|0:3,0:0:0:0:
376,290,148619,2,0,L|450:297,1,75,8|0,0:0|0:0,0:0:0:0:
497,229,148963,1,10,0:3:0:0:
450,162,149136,2,0,L|438:85,1,75,10|8,0:3|0:0,0:0:0:0:
358,109,149481,6,0,P|298:92|200:95,1,150,4|0,0:0|0:0,0:0:0:0:
190,173,149998,2,0,P|152:176|116:185,1,75,8|0,0:0|0:0,0:0:0:0:
74,114,150343,2,0,L|-11:99,1,75,10|10,0:3|0:3,0:0:0:0:
35,29,150688,1,8,0:0:0:0:
120,42,150860,6,0,B|216:64|216:64|256:104,1,150,10|10,0:3|0:3,0:0:0:0:
213,177,151377,2,0,L|195:264,1,75,8|0,0:0|0:0,0:0:0:0:
299,168,151722,2,0,L|322:239,1,75,10|8,0:3|0:3,0:0:0:0:
339,87,152067,2,0,L|405:146,1,75,8|0,0:0|0:0,0:0:0:0:
431,288,152412,6,0,P|421:251|428:215,1,75,10|8,0:3|0:3,0:0:0:0:
395,138,152756,2,0,P|322:149|279:208,1,150,12|10,0:0|0:3,0:0:0:0:
197,201,153274,1,8,0:3:0:0:
209,120,153446,2,0,P|166:179|94:190,1,150,12|10,0:0|0:3,0:0:0:0:
50,119,153963,5,8,0:3:0:0:
0,275,154136,2,0,P|64:260|139:318,1,150,12|10,0:0|0:3,0:0:0:0:
204,263,154653,1,8,0:3:0:0:
285,276,154825,1,8,0:0:0:0:
381,184,154998,6,0,P|371:256|412:317,1,150,4|8,0:0|0:3,0:0:0:0:
341,360,155515,2,0,L|266:354,1,75,8|0,0:0|0:0,0:0:0:0:
273,271,155860,2,0,L|199:266,1,75,8|8,0:0|0:3,0:0:0:0:
124,302,156205,1,8,0:0:0:0:
55,257,156377,6,0,B|38:147|38:147|42:109,1,150,12|8,0:0|0:3,0:0:0:0:
143,63,156894,2,0,L|123:151,1,75,8|8,0:3|0:0,0:0:0:0:
195,182,157239,2,0,L|176:271,1,75,8|8,0:3|0:3,0:0:0:0:
250,298,157584,2,0,L|231:387,1,75,8|0,0:0|0:0,0:0:0:0:
276,205,157929,5,4,0:0:0:0:
324,92,167584,5,4,0:0:0:0:
356,188,167756,2,0,L|440:164,1,75,10|0,0:0|0:0,0:0:0:0:
256,184,168101,2,0,L|340:208,1,75,10|0,0:0|0:0,0:0:0:0:
148,216,168446,2,0,L|232:192,1,75,10|0,0:0|0:0,0:0:0:0:
324,91,168791,6,0,P|362:156|343:230,1,150,4|2,0:0|0:0,0:0:0:0:
289,285,169308,2,0,P|247:283|213:285,1,75,8|2,0:0|0:0,0:0:0:0:
126,205,169653,2,0,P|167:207|201:205,1,75,8|8,0:3|0:3,0:0:0:0:
283,198,169998,1,8,0:0:0:0:
321,125,170170,1,2,0:0:0:0:
283,50,170343,6,0,P|220:21|141:49,1,150,8|8,0:3|0:0,0:0:0:0:
188,181,170860,2,0,P|206:123|210:105,1,75,10|8,0:3|0:3,0:0:0:0:
100,163,171205,2,0,P|103:208|111:238,1,75,8|8,0:3|0:0,0:0:0:0:
108,319,171550,1,10,0:3:0:0:
186,349,171722,6,0,P|268:326|334:332,1,150,10|8,0:3|0:0,0:0:0:0:
384,258,172239,1,2,0:0:0:0:
467,222,172412,2,0,L|471:308,1,75,10|8,0:3|0:3,0:0:0:0:
392,173,172756,2,0,L|388:98,1,75,8|2,0:0|0:0,0:0:0:0:
305,62,173101,5,10,0:3:0:0:
232,116,173274,1,10,0:3:0:0:
232,116,173360,1,2,0:0:0:0:
232,116,173446,2,0,P|184:120|147:111,1,75,8|8,0:0|0:3,0:0:0:0:
67,114,173791,2,0,L|83:34,1,75,10|8,0:3|0:3,0:0:0:0:
158,115,174136,2,0,L|143:188,1,75,8|0,0:0|0:0,0:0:0:0:
100,268,174481,5,10,0:3:0:0:
163,333,174653,1,8,0:3:0:0:
243,304,174825,2,0,P|330:312|382:279,1,150,12|10,0:0|0:3,0:0:0:0:
471,285,175343,1,8,0:3:0:0:
499,200,175515,2,0,P|509:74|499:37,1,150,12|10,0:0|0:3,0:0:0:0:
414,45,176032,5,8,0:3:0:0:
332,82,176205,2,0,B|271:85|271:85|243:74|243:74|184:78,2,150,12|10|8,0:0|0:3|0:0,0:0:0:0:
403,137,177067,6,0,P|438:214|419:282,1,150,4|8,0:0|0:3,0:0:0:0:
334,290,177584,2,0,P|314:330|311:364,1,75,8|0,0:0|0:0,0:0:0:0:
189,224,177929,2,0,L|273:230,1,75,8|0,0:0|0:0,0:0:0:0:
306,149,178274,2,0,P|286:109|283:75,1,75,8|8,0:0|0:0,0:0:0:0:
193,75,178619,6,0,L|120:97,1,75,8|0,0:0|0:0,0:0:0:0:
148,255,178963,2,0,L|164:181,1,75,8|0,0:0|0:0,0:0:0:0:
16,126,179308,2,0,L|71:178,1,75,8|0,0:0|0:0,0:0:0:0:
165,182,179653,1,8,0:0:0:0:
235,240,179825,6,0,P|305:255|390:213,1,150,4|0,0:0|0:0,0:0:0:0:
425,150,180343,2,0,P|420:77|414:63,1,75,8|2,0:0|0:0,0:0:0:0:
376,2,180688,2,0,L|309:42,1,75,8|8,0:3|0:3,0:0:0:0:
231,81,181032,1,8,0:0:0:0:
155,31,181205,1,2,0:0:0:0:
79,78,181377,6,0,P|61:115|68:156,1,75,8|10,0:3|0:3,0:0:0:0:
129,210,181722,1,8,0:0:0:0:
164,293,181894,2,0,B|217:313|271:272|325:298,1,150,2|10,0:0|0:3,0:0:0:0:
398,264,182412,2,0,L|392:184,1,75,8|10,0:0|0:3,0:0:0:0:
319,136,182756,5,0,0:0:0:0:
237,173,182929,1,10,0:3:0:0:
148,163,183101,2,0,L|58:156,1,75,8|2,0:0|0:0,0:0:0:0:
40,73,183446,1,8,0:3:0:0:
119,30,183619,1,10,0:3:0:0:
196,76,183791,2,0,L|271:82,1,75,8|2,0:0|0:0,0:0:0:0:
358,106,184136,6,0,L|356:147,3,37.5,8|0|10|0,0:3|0:0|0:3|0:0,0:0:0:0:
387,172,184481,2,0,L|392:214,3,37.5,8|0|2|0,0:0|0:0|0:0|0:0,0:0:0:0:
366,242,184825,2,0,P|365:277|366:327,1,75,8|2,0:3|0:0,0:0:0:0:
454,293,185170,1,8,0:0:0:0:
196,313,185515,6,0,L|272:299,1,75,10|8,0:3|0:3,0:0:0:0:
366,241,185860,1,12,0:0:0:0:
99,161,186205,6,0,L|187:186,1,75,10|8,0:3|0:3,0:0:0:0:
271,216,186550,1,12,0:0:0:0:
50,310,186894,6,0,P|85:292|109:255,1,75,10|8,0:3|0:3,0:0:0:0:
99,161,187239,1,12,0:0:0:0:
355,144,187584,6,0,P|291:159|272:157,1,75,10|8,0:3|0:3,0:0:0:0:
189,107,187929,1,12,0:0:0:0:
79,102,188101,6,0,P|33:146|40:246,1,150,4|8,0:0|0:3,0:0:0:0:
191,267,188619,2,0,L|104:265,1,75,8|0,0:0|0:0,0:0:0:0:
239,343,188963,2,0,L|313:344,1,75,8|8,0:0|0:3,0:0:0:0:
345,228,189308,1,8,0:0:0:0:
288,160,189481,6,0,L|131:144,1,150,4|8,0:0|0:3,0:0:0:0:
83,216,189998,2,0,P|29:199|7:185,1,75,8|8,0:0|0:0,0:0:0:0:
138,279,190343,2,0,L|148:360,1,75,8|8,0:3|0:0,0:0:0:0:
147,353,190601,1,0,0:0:0:0:
147,353,190688,1,8,0:0:0:0:
229,318,190860,6,0,P|356:296|381:295,1,150,4|0,0:0|0:0,0:0:0:0:
449,210,191377,2,0,L|464:122,1,75,8|0,0:0|0:0,0:0:0:0:
349,190,191722,2,0,L|336:263,1,75,10|10,0:3|0:3,0:0:0:0:
391,105,192067,1,8,0:0:0:0:
323,39,192239,6,0,P|248:31|174:41,1,150,10|10,0:3|0:3,0:0:0:0:
102,96,192756,2,0,P|89:123|92:170,1,75,8|0,0:0|0:0,0:0:0:0:
155,231,193101,2,0,L|134:305,1,75,10|10,0:3|0:3,0:0:0:0:
178,147,193446,1,8,0:0:0:0:
221,298,193619,6,0,P|295:305|369:295,1,150,4|0,0:0|0:0,0:0:0:0:
464,195,194136,2,0,L|373:214,1,75,8|0,0:0|0:0,0:0:0:0:
383,65,194481,2,0,L|347:144,1,75,10|10,0:3|0:3,0:0:0:0:
250,52,194825,1,8,0:0:0:0:
252,187,194998,6,0,P|183:196|103:210,1,150,10|10,0:3|0:3,0:0:0:0:
56,359,195515,2,0,P|95:309|104:293,1,75,8|0,0:0|0:0,0:0:0:0:
7,186,195860,2,0,P|6:223|8:260,1,75,2|8,0:0|0:3,0:0:0:0:
82,134,196205,1,8,0:0:0:0:
82,134,196550,5,10,0:3:0:0:
171,123,196722,1,8,0:3:0:0:
260,113,196894,1,12,0:0:0:0:
260,113,197239,6,0,L|259:191,1,75,10|8,0:3|0:3,0:0:0:0:
252,291,197584,1,12,0:0:0:0:
252,291,197929,5,8,0:3:0:0:
178,239,198101,1,8,0:3:0:0:
109,179,198274,1,12,0:0:0:0:
109,179,198619,6,0,L|178:137,1,75,10|8,0:3|0:3,0:0:0:0:
262,146,198963,1,12,0:0:0:0:
237,234,199136,6,0,P|318:258|387:233,1,150,4|8,0:0|0:3,0:0:0:0:
472,138,199653,1,8,0:0:0:0:
472,138,199825,1,0,0:0:0:0:
381,145,199998,1,8,0:0:0:0:
381,145,200170,1,8,0:3:0:0:
313,86,200343,1,8,0:0:0:0:
225,68,200515,6,0,P|116:52|67:85,1,150,12|8,0:0|0:3,0:0:0:0:
40,180,201032,1,8,0:0:0:0:
40,180,201205,1,0,0:0:0:0:
122,144,201377,1,8,0:0:0:0:
122,144,201550,1,8,0:3:0:0:
200,189,201722,1,8,0:0:0:0:
281,151,201894,6,0,P|325:187|335:294,1,150,4|8,0:0|0:3,0:0:0:0:
263,321,202412,2,0,P|210:329|164:323,1,75,8|0,0:0|0:0,0:0:0:0:
103,304,202756,2,0,P|54:284|17:256,1,75,10|10,0:3|0:3,0:0:0:0:
46,183,203101,1,8,0:0:0:0:
134,201,203274,6,0,B|179:209|179:209|292:184,1,150,10|10,0:3|0:3,0:0:0:0:
371,189,203791,2,0,L|459:202,1,75,8|0,0:0|0:0,0:0:0:0:
329,108,204136,2,0,L|417:120,1,75,10|10,0:3|0:3,0:0:0:0:
287,35,204481,1,8,0:0:0:0:
202,65,204653,6,0,P|127:72|52:70,1,150,4|0,0:0|0:0,0:0:0:0:
59,225,205170,2,0,P|31:194|28:148,1,75,8|0,0:0|0:0,0:0:0:0:
141,198,205515,2,0,L|141:283,1,75,10|10,0:3|0:3,0:0:0:0:
59,313,205860,1,8,0:0:0:0:
139,363,206032,6,0,P|210:338|284:342,1,150,10|10,0:3|0:3,0:0:0:0:
317,257,206550,2,0,P|384:297|461:313,1,150,8|8,0:0|0:3,0:0:0:0:
490,229,207067,1,8,0:3:0:0:
465,143,207239,1,8,0:0:0:0:
465,143,207584,6,0,L|383:138,1,75,10|8,0:3|0:3,0:0:0:0:
302,154,207929,2,0,P|264:155|228:144,1,75,12|0,0:0|0:0,0:0:0:0:
177,239,208274,6,0,L|252:243,1,75,10|8,0:3|0:3,0:0:0:0:
125,170,208619,2,0,P|120:133|144:88,1,75,12|0,0:0|0:0,0:0:0:0:
254,30,208963,6,0,L|226:111,1,75,10|8,0:3|0:3,0:0:0:0:
344,78,209308,2,0,L|442:70,1,75,12|0,0:0|0:0,0:0:0:0:
483,188,209653,6,0,L|405:175,1,75,10|8,0:3|0:3,0:0:0:0:
342,254,209998,1,8,0:0:0:0:
428,311,210170,6,0,P|374:351|276:336,1,150,4|8,0:0|0:3,0:0:0:0:
222,289,210688,2,0,L|135:268,1,75,8|0,0:0|0:0,0:0:0:0:
96,200,211032,1,8,0:0:0:0:
96,200,211205,1,8,0:3:0:0:
122,114,211377,1,8,0:0:0:0:
207,145,211550,6,0,P|268:109|357:119,1,150,12|8,0:3|0:3,0:0:0:0:
434,101,212067,1,8,0:0:0:0:
475,180,212239,2,0,L|463:230,2,37.5,8|8|8,0:0|0:0|0:0,0:0:0:0:
397,262,212584,2,0,L|404:311,2,37.5,8|8|8,0:0|0:0|0:0,0:0:0:0:
369,165,212929,1,8,0:0:0:0:
369,165,213015,1,8,0:0:0:0:
369,165,213101,6,0,P|297:151|229:179,1,150,10|12,0:3|0:0,0:0:0:0:
462,64,213791,2,0,L|467:213,1,150,10|12,0:3|0:0,0:0:0:0:
154,367,214481,2,0,L|148:217,1,150,10|12,0:3|0:0,0:0:0:0:
256,312,215170,2,0,P|328:326|396:298,1,150,10|12,0:3|0:0,0:0:0:0:
431,214,215688,6,0,P|404:154|429:66,1,150,12|8,0:3|0:3,0:0:0:0:
332,79,216205,2,0,B|272:86|272:86|258:81,1,75,8|0,0:0|0:0,0:0:0:0:
108,144,216550,2,0,B|168:137|168:137|181:141,1,75,8|8,0:0|0:3,0:0:0:0:
177,57,216894,1,8,0:0:0:0:
264,166,217067,1,0,0:0:0:0:
209,237,217239,6,0,P|190:282|192:320,1,75,8|0,0:0|0:0,0:0:0:0:
261,362,217584,2,0,L|365:348,1,75,8|0,0:0|0:0,0:0:0:0:
410,302,217929,2,0,L|494:342,1,75,8|8,0:0|0:3,0:0:0:0:
420,219,218274,1,8,0:0:0:0:
112,294,218619,5,4,0:0:0:0:
