osu file format v13

[General]
AudioFilename: 06 aiiro.mp3
AudioLeadIn: 1500
PreviewTime: 68619
Countdown: 0
SampleSet: Soft
StackLeniency: 0.7
Mode: 0
LetterboxInBreaks: 0
WidescreenStoryboard: 0

[Editor]
DistanceSpacing: 1.3
BeatDivisor: 4
GridSize: 4
TimelineZoom: 1.4

[Metadata]
Title:Aiiro
TitleUnicode:二藍 -あいいろ-
Artist:Rita
ArtistUnicode:Rita
Creator:Fycho
Version:Easy
Source:恋神 -ラブカミ-
Tags:love kami Best Album Kibbleru visual novel
BeatmapID:460361
BeatmapSetID:180684

[Difficulty]
HPDrainRate:2
CircleSize:3
OverallDifficulty:2
ApproachRate:3
SliderMultiplier:0.7
SliderTickRate:1

[Events]
//Background and Video events
0,0,"bg.jpg",0,0
//Break Periods
2,94681,101316
2,158129,166316
//Storyboard Layer 0 (Background)
//Storyboard Layer 1 (Fail)
//Storyboard Layer 2 (Pass)
//Storyboard Layer 3 (Foreground)
//Storyboard Sound Samples
//Background Colour Transformations
3,100,163,162,255

[TimingPoints]
688,344.827586206897,4,2,1,50,1,0
36550,-100,4,2,2,50,0,0
47584,-100,4,2,2,60,0,0
58619,-100,4,2,1,60,0,0
69481,-100,4,2,1,70,0,1
91722,-100,4,2,1,50,0,0
102756,-100,4,2,1,60,0,0
135688,-100,4,2,1,70,0,1
157929,-100,4,2,1,60,0,0
190860,-100,4,2,1,70,0,1
218619,-100,4,2,1,60,0,0

[Colours]
Combo1 : 36,255,91
Combo2 : 21,255,255
Combo3 : 255,89,172
Combo4 : 128,128,192

[HitObjects]
85,177,688,6,0,P|44:104|47:81,2,105,8|8|8,0:3|0:3|0:0,0:0:0:0:
174,159,2067,5,4,0:0:0:0:
253,204,2412,2,0,L|435:193,1,175,8|12,0:0|0:3,0:0:0:0:
449,328,3791,1,8,0:0:0:0:
358,319,4136,2,0,L|282:322,1,70,8|8,0:3|0:0,0:0:0:0:
199,341,4825,6,0,P|142:307|58:312,1,140,12|8,0:3|0:3,0:0:0:0:
0,189,6032,2,0,P|13:131|23:85,1,105,12|8,0:3|0:0,0:0:0:0:
200,45,7239,1,8,0:0:0:0:
174,132,7584,6,0,L|188:279,1,140,4|8,0:0|0:3,0:0:0:0:
309,331,8791,2,0,P|352:279|327:172,1,175,12|8,0:3|0:3,0:0:0:0:
319,89,9998,1,8,0:0:0:0:
228,97,10343,6,0,L|226:23,2,70,4|8|8,0:0|0:0|0:3,0:0:0:0:
237,187,11377,1,8,0:0:0:0:
181,259,11722,2,0,P|150:288|57:276,2,140,12|12|12,0:3|0:3|0:3,0:0:0:0:
269,281,13446,6,0,P|330:233|393:243,1,140,8|8,0:0|0:0,0:0:0:0:
428,158,14481,2,0,L|429:53,2,105,8|8|8,0:3|0:3|0:0,0:0:0:0:
337,150,15860,6,0,L|333:76,2,70,4|8|0,0:0|0:0|0:0,0:0:0:0:
279,220,16894,2,0,P|205:219|134:220,1,140,8|8,0:0|0:0,2:0:0:0:
82,148,17929,1,8,0:3:0:0:
138,76,18274,1,8,0:0:0:0:
228,86,18619,6,0,L|346:78,2,105,4|8|8,0:0|0:3|0:0,0:0:0:0:
169,155,19998,2,0,L|172:236,1,70,8|8,0:3|0:0,0:0:0:0:
258,195,20688,2,0,L|259:268,1,70,0|8,0:0|0:0,0:0:0:0:
340,306,21377,6,0,P|399:301|437:275,2,105,4|8|8,0:0|0:3|0:0,0:0:0:0:
260,350,22756,1,4,0:0:0:0:
146,274,23274,2,0,P|160:223|153:172,1,105,8|8,0:0|0:0,0:0:0:0:
209,100,24136,5,4,0:0:0:0:
289,57,24481,2,0,L|439:47,2,140,8|8|8,0:0|0:0|0:0,0:0:0:0:
277,147,26205,2,0,P|270:177|272:220,1,70,8|8,0:3|0:0,0:0:0:0:
277,307,26894,5,4,0:0:0:0:
186,316,27239,2,0,P|190:247|181:167,1,140,8|8,0:0|0:0,0:0:0:0:
60,73,28619,1,8,0:0:0:0:
150,71,28963,2,0,L|227:56,1,70,8|8,0:3|0:0,0:0:0:0:
292,111,29653,6,0,L|408:109,2,105,4|8|8,0:0|0:3|0:0,0:0:0:0:
256,194,31032,2,0,L|257:278,1,70,8|8,0:3|0:0,0:0:0:0:
348,267,31722,1,0,0:0:0:0:
301,346,32067,1,8,0:0:0:0:
209,344,32412,6,0,P|144:317|119:288,2,105,4|8|8,0:0|0:3|0:0,0:0:0:0:
300,346,33791,2,0,L|308:235,1,105,4|8,0:0|0:0,0:0:0:0:
173,216,34825,1,8,0:0:0:0:
151,127,35170,6,0,L|362:128,1,210,2|2,0:0|0:0,0:0:0:0:
444,90,36550,5,4,0:0:0:0:
481,172,36894,2,0,L|495:248,2,70,8|0|0,0:0|0:0|0:0,0:0:0:0:
396,205,37929,2,0,P|406:270|410:318,2,105,0|0|4,0:0|0:0|0:0,0:0:0:0:
406,114,39308,5,0,0:0:0:0:
317,90,39653,2,0,P|237:84|190:125,1,140,0|0,0:0|0:0,0:0:0:0:
157,203,40688,1,4,0:0:0:0:
71,232,41032,2,0,L|71:127,1,105,8|0,0:0|0:0,0:0:0:0:
38,41,41894,6,0,P|91:42|147:40,1,105,2|8,0:1|0:0,0:0:0:0:
226,76,42756,1,0,0:0:0:0:
311,106,43101,1,0,0:0:0:0:
376,41,43446,2,0,P|459:75|475:164,1,175,2|2,1:0|1:0,0:0:0:0:
430,229,44653,6,0,P|426:288|429:347,1,105,2|8,1:0|0:0,0:0:0:0:
338,317,45515,2,0,P|340:240|337:202,1,105,8|4,0:0|0:0,0:0:0:0:
247,220,46377,1,2,1:1:0:0:
155,220,46722,2,0,P|144:158|175:113,1,105,2|8,0:1|0:0,0:0:0:0:
226,57,47584,6,0,L|311:52,2,70,4|8|0,0:0|3:0|3:0,0:0:0:0:
136,40,48619,1,0,3:0:0:0:
53,78,48963,2,0,L|54:158,1,70,0|8,3:0|3:0,0:0:0:0:
68,238,49653,2,0,P|115:231|146:224,1,70,0|0,3:0|3:0,0:0:0:0:
216,271,50343,6,0,L|216:355,2,70,0|0|0,3:0|3:0|3:0,0:0:0:0:
272,199,51377,1,0,3:0:0:0:
311,281,51722,2,0,L|450:274,1,140,0|0,3:0|3:0,0:0:0:0:
487,142,52929,6,0,P|498:74|486:33,1,105,0|0,3:0|3:0,0:0:0:0:
399,25,53791,2,0,L|316:45,1,70,0|0,3:0|3:0,0:0:0:0:
248,79,54481,2,0,P|226:140|266:209,1,140,0|0,3:0|3:0,0:0:0:0:
276,339,55688,6,0,L|385:319,2,105,4|8|8,0:0|0:0|0:0,0:0:0:0:
185,333,57067,2,0,P|148:256|176:197,1,140,8|2,0:0|0:0,0:0:0:0:
253,187,58101,2,0,L|271:69,1,105,0|4,3:0|0:0,0:0:0:0:
345,34,58963,6,0,P|420:46|456:102,1,140,8|8,0:0|0:0,0:0:0:0:
463,186,59998,2,0,L|467:265,2,70,8|8|10,0:3|0:0|0:3,0:0:0:0:
379,150,61032,1,8,0:0:0:0:
325,223,61377,6,0,P|256:266|201:247,1,140,4|8,0:0|0:3,0:0:0:0:
83,313,62584,2,0,L|114:170,1,140,8|8,0:3|0:3,0:0:0:0:
206,77,63791,1,8,0:0:0:0:
276,136,64136,5,4,0:0:0:0:
360,103,64481,2,0,L|365:27,1,70,8|8,0:0|0:3,0:0:0:0:
488,91,65343,2,0,L|490:199,1,105,8|8,0:3|0:0,0:0:0:0:
421,255,66205,2,0,L|441:331,1,70,8|8,0:3|0:0,0:0:0:0:
256,192,66722,12,2,68101,0:0:0:0:
138,154,69481,6,0,P|130:205|153:254,1,105,4|8,0:0|0:0,0:0:0:0:
229,299,70343,2,0,P|287:284|337:271,2,105,2|8|8,0:3|0:3|0:0,0:0:0:0:
234,208,71722,2,0,L|336:184,1,105,10|12,0:3|0:3,0:0:0:0:
469,214,72756,6,0,P|481:158|407:64,1,175,8|10,0:0|0:3,0:0:0:0:
281,49,74136,1,8,0:0:0:0:
194,77,74481,2,0,P|186:107|183:149,1,70,2|8,0:0|0:0,0:0:0:0:
200,235,75170,5,10,0:3:0:0:
277,281,75515,2,0,L|276:354,2,70,12|10|12,0:0|0:3|0:0,0:0:0:0:
347,222,76550,1,10,0:3:0:0:
430,257,76894,1,8,0:0:0:0:
492,190,77239,6,0,P|517:254|510:296,2,105,10|4|8,0:3|0:0|0:0,0:0:0:0:
401,179,78619,1,8,0:0:0:0:
315,73,79136,2,0,P|372:44|417:47,2,105,12|8|8,0:0|0:0|0:3,0:0:0:0:
230,106,80515,6,0,L|112:104,1,105,4|8,0:0|0:0,0:0:0:0:
107,193,81377,2,0,L|219:195,1,105,10|10,0:3|0:3,0:0:0:0:
298,300,82412,2,0,P|374:311|434:238,1,175,8|4,0:0|0:0,0:0:0:0:
461,108,83791,5,8,0:0:0:0:
379,148,84136,2,0,P|373:96|367:38,1,105,10|10,0:3|0:3,0:0:0:0:
231,45,85170,1,8,0:0:0:0:
175,117,85515,2,0,L|105:115,1,70,10|8,0:3|0:0,0:0:0:0:
24,158,86205,5,10,0:3:0:0:
17,248,86550,2,0,P|78:294|142:283,1,140,12|12,0:0|0:0,0:0:0:0:
218,326,87584,1,8,0:3:0:0:
308,336,87929,2,0,P|364:305|384:194,1,175,12|12,0:0|0:3,0:0:0:0:
366,67,89308,6,0,L|193:135,1,175,8|12,0:0|0:3,0:0:0:0:
81,192,90688,2,0,L|86:114,2,70,8|8|8,0:0|0:0|0:0,0:0:0:0:
256,192,91722,12,4,94481,0:0:0:0:
173,76,102756,5,4,0:0:0:0:
100,131,103101,2,0,P|77:180|90:267,1,140,8|8,0:0|0:0,0:0:0:0:
143,335,104136,2,0,P|177:352|220:357,1,70,8|8,0:3|0:0,0:0:0:0:
284,306,104825,2,0,L|393:286,1,105,8|4,0:3|0:0,0:0:0:0:
438,160,105860,5,8,0:0:0:0:
365,104,106205,2,0,P|367:56|369:19,1,70,8|8,0:3|0:0,0:0:0:0:
281,5,106894,2,0,L|278:78,1,70,8|8,0:3|0:0,0:0:0:0:
256,115,107412,2,0,P|172:150|118:130,1,140,2|4,0:0|0:0,0:0:0:0:
82,265,108619,5,8,0:0:0:0:
172,258,108963,2,0,L|197:338,1,70,8|8,0:3|0:0,0:0:0:0:
279,296,109653,2,0,P|336:278|417:297,1,140,8|8,0:3|0:3,0:0:0:0:
461,166,110860,6,0,L|449:55,1,105,4|8,0:0|0:0,0:0:0:0:
368,102,111722,2,0,P|276:128|257:120,1,105,8|4,0:3|0:0,0:0:0:0:
182,141,112584,2,0,L|174:222,2,70,12|12|8,0:0|0:0|0:0,0:0:0:0:
313,178,113791,6,0,L|300:325,1,140,4|8,0:0|0:3,0:0:0:0:
217,354,114825,1,8,0:0:0:0:
126,351,115170,2,0,P|93:309|110:226,1,140,8|8,0:3|0:3,0:0:0:0:
221,151,116377,6,0,L|323:178,1,105,4|8,0:0|0:0,0:0:0:0:
411,195,117239,2,0,L|481:183,1,70,8|8,0:3|0:0,0:0:0:0:
483,91,117929,2,0,L|414:103,1,70,8|8,0:3|0:0,0:0:0:0:
368,106,118446,2,0,P|332:84|235:119,1,140,2|4,0:0|0:0,0:0:0:0:
187,233,119653,5,8,0:0:0:0:
97,218,119998,2,0,L|94:149,1,70,0|8,0:0|0:0,0:0:0:0:
165,91,120688,2,0,L|243:124,1,70,8|8,0:3|0:0,0:0:0:0:
306,166,121377,2,0,P|368:175|419:162,1,105,8|4,0:3|0:0,0:0:0:0:
359,38,122412,5,8,0:0:0:0:
269,27,122756,2,0,L|154:46,1,105,8|4,0:3|0:0,0:0:0:0:
89,94,123619,1,12,0:0:0:0:
57,179,123963,1,12,0:0:0:0:
135,225,124308,2,0,L|118:340,1,105,8|4,0:0|0:0,0:0:0:0:
209,313,125170,6,0,P|296:297|383:321,1,175,8|10,0:0|0:3,0:0:0:0:
428,191,126550,2,0,L|355:188,2,70,8|10|8,0:0|0:3|0:0,0:0:0:0:
413,101,127584,6,0,L|342:96,1,70,4|8,0:0|0:0,0:0:0:0:
259,133,128274,2,0,L|155:149,1,105,0|10,0:0|0:3,0:0:0:0:
25,276,129481,2,0,P|71:336|100:334,1,105,10|8,0:3|0:0,0:0:0:0:
182,318,130343,6,0,P|248:286|319:288,1,140,4|8,0:0|0:3,0:0:0:0:
435,347,131550,2,0,P|427:268|425:233,1,105,10|8,0:3|0:0,0:0:0:0:
419,151,132412,2,0,P|337:161|308:166,1,105,10|4,0:3|0:0,0:0:0:0:
256,192,133101,12,2,134308,0:0:0:0:
127,143,135688,6,0,L|230:125,1,105,4|8,0:0|0:0,0:0:0:0:
297,186,136550,2,0,L|372:188,1,70,10|8,0:3|0:0,0:0:0:0:
347,277,137239,2,0,L|277:275,1,70,0|8,0:0|0:0,0:0:0:0:
186,277,137929,1,10,0:3:0:0:
92,178,138446,6,0,P|155:175|195:142,1,105,4|8,0:0|0:0,0:0:0:0:
273,119,139308,2,0,L|264:44,1,70,10|8,0:3|0:0,0:0:0:0:
355,52,139998,2,0,L|364:121,1,70,0|8,0:0|0:0,0:0:0:0:
339,209,140688,2,0,P|335:244|329:291,1,70,10|8,0:3|0:0,0:0:0:0:
402,335,141377,6,0,P|417:274|423:185,1,140,10|10,0:3|0:3,0:0:0:0:
430,106,142412,1,12,0:0:0:0:
340,120,142756,2,0,P|305:126|272:138,1,70,10|12,0:3|0:0,0:0:0:0:
208,203,143446,2,0,P|165:179|104:166,1,105,10|4,0:3|0:0,0:0:0:0:
134,31,144481,5,8,0:0:0:0:
223,47,144825,2,0,P|276:55|331:63,1,105,8|8,0:0|0:0,0:0:0:0:
462,48,145860,2,0,L|461:159,1,105,8|8,0:0|0:3,0:0:0:0:
449,243,146722,6,0,P|364:223|345:230,1,105,4|8,0:0|0:0,0:0:0:0:
263,253,147584,2,0,L|252:330,1,70,10|8,0:3|0:0,0:0:0:0:
163,305,148274,1,0,0:0:0:0:
96,243,148619,2,0,P|74:191|85:136,1,105,8|10,0:0|0:3,0:0:0:0:
146,80,149481,6,0,P|196:83|247:103,1,105,4|8,0:0|0:0,0:0:0:0:
408,189,150688,1,8,0:0:0:0:
264,300,151377,1,8,0:0:0:0:
181,260,151722,2,0,L|169:189,1,70,10|8,0:3|0:0,0:0:0:0:
202,105,152412,6,0,L|270:118,1,70,10|12,0:3|0:0,0:0:0:0:
344,171,153101,2,0,L|345:246,1,70,10|12,0:3|0:0,0:0:0:0:
432,208,153791,2,0,L|431:138,1,70,10|12,0:3|0:0,0:0:0:0:
363,76,154481,2,0,L|257:59,2,105,10|4|8,0:3|0:0|0:0,0:0:0:0:
366,168,155860,6,0,L|359:278,2,105,8|12|8,0:0|0:0|0:3,0:0:0:0:
277,145,157239,2,0,L|194:146,1,70,8|8,0:3|0:0,0:0:0:0:
115,143,157929,1,4,0:0:0:0:
256,160,167756,6,0,L|256:256,2,70,10|10|10,0:0|0:0|0:0,0:0:0:0:
164,167,168791,6,0,P|163:117|162:49,1,105,4|8,0:0|0:0,0:0:0:0:
253,62,169653,2,0,P|287:63|322:64,1,70,8|8,0:3|0:0,0:0:0:0:
414,68,170343,2,0,P|430:117|421:178,2,105,8|10|8,0:3|0:3|0:0,0:0:0:0:
322,70,171722,6,0,L|173:58,1,140,10|10,0:3|0:3,0:0:0:0:
22,145,173101,2,0,L|22:241,2,70,10|8|10,0:3|0:0|0:3,0:0:0:0:
126,294,174481,6,0,L|137:219,1,70,10|12,0:3|0:0,0:0:0:0:
305,158,175515,1,12,0:0:0:0:
371,327,176205,1,12,0:0:0:0:
174,212,177067,6,0,L|179:101,1,105,4|8,0:0|0:0,0:0:0:0:
224,28,177929,1,8,0:0:0:0:
356,62,178446,2,0,L|368:172,1,105,12|8,0:0|0:0,0:0:0:0:
361,257,179308,2,0,P|420:243|471:251,2,105,8|4|8,0:0|0:0|0:0,0:0:0:0:
293,318,180688,5,8,0:3:0:0:
214,277,181032,1,8,0:0:0:0:
132,318,181377,2,0,L|124:197,2,105,8|8|8,0:3|0:3|0:0,0:0:0:0:
211,362,182756,6,0,B|283:360|283:360|353:318,1,140,8|8,0:3|0:3,0:0:0:0:
327,234,183791,1,8,0:0:0:0:
405,187,184136,2,0,P|480:246|479:297,1,140,8|8,0:3|0:3,0:0:0:0:
415,345,185170,1,8,0:0:0:0:
274,228,185860,6,0,L|268:367,1,140,12|12,0:0|0:0,0:0:0:0:
162,219,187239,1,12,0:0:0:0:
386,256,188101,6,0,L|373:146,1,105,4|8,0:0|0:0,0:0:0:0:
325,74,188963,2,0,P|256:63|207:86,1,105,8|4,0:0|0:0,0:0:0:0:
96,121,189998,2,0,L|96:217,1,70,8|8,0:0|0:3,0:0:0:0:
138,320,190860,6,0,P|194:311|254:329,1,105,4|8,0:0|0:0,0:0:0:0:
331,326,191722,2,0,L|322:211,2,105,10|8|8,0:3|0:3|0:0,0:0:0:0:
418,349,193101,1,10,0:3:0:0:
495,236,193619,6,0,P|515:179|504:126,1,105,4|8,0:0|0:0,0:0:0:0:
439,76,194481,2,0,L|334:94,2,105,10|10|8,0:3|0:3|0:0,0:0:0:0:
422,165,195860,1,2,0:0:0:0:
336,195,196205,1,8,0:0:0:0:
288,272,196550,6,0,P|250:283|213:277,1,70,10|12,0:3|0:0,0:0:0:0:
146,226,197239,2,0,P|136:181|144:145,1,70,8|12,0:3|0:0,0:0:0:0:
182,77,197929,2,0,P|227:67|263:75,1,70,8|12,0:3|0:0,0:0:0:0:
318,131,198619,6,0,P|376:126|408:95,2,105,8|4|8,0:3|0:0|0:0,0:0:0:0:
235,92,199998,2,0,B|173:73|173:73|132:72,1,105,8|12,0:0|0:0,0:0:0:0:
26,157,201032,2,0,P|16:199|29:260,1,105,8|10,0:0|0:3,0:0:0:0:
66,341,201894,6,0,P|141:332|180:328,1,105,4|8,0:0|0:0,0:0:0:0:
251,287,202756,2,0,L|366:295,1,105,10|10,0:3|0:3,0:0:0:0:
449,194,203791,2,0,P|468:140|436:89,1,105,8|8,0:0|0:3,0:0:0:0:
365,61,204653,6,0,L|257:91,1,105,4|8,0:0|0:0,0:0:0:0:
203,156,205515,2,0,P|151:161|108:133,2,105,10|10|8,0:3|0:3|0:0,0:0:0:0:
268,219,206894,1,8,0:3:0:0:
184,255,207239,1,8,0:0:0:0:
224,336,207584,6,0,L|306:325,1,70,10|12,0:3|0:0,0:0:0:0:
380,299,208274,2,0,L|402:232,1,70,10|12,0:3|0:0,0:0:0:0:
409,141,208963,2,0,L|386:68,1,70,8|12,0:3|0:0,0:0:0:0:
302,41,209653,2,0,P|250:45|201:74,2,105,10|4|8,0:3|0:0|0:0,0:0:0:0:
344,121,211032,6,0,L|322:233,1,105,8|4,0:0|0:0,0:0:0:0:
240,332,212067,2,0,L|218:261,2,70,8|8|8,0:0|0:0|0:0,0:0:0:0:
150,346,213101,6,0,L|125:268,1,70,10|12,0:3|0:0,0:0:0:0:
48,323,213791,2,0,L|29:255,1,70,10|12,0:3|0:0,0:0:0:0:
5,167,214481,2,0,L|71:145,1,70,10|12,0:3|0:0,0:0:0:0:
147,96,215170,2,0,L|176:208,1,105,10|4,0:3|0:0,0:0:0:0:
232,320,216205,6,0,B|321:337|321:337|384:326,1,140,8|8,0:0|0:0,0:0:0:0:
430,260,217239,1,8,0:0:0:0:
468,177,217584,2,0,L|474:92,2,70,8|8|8,0:0|0:0|0:0,0:0:0:0:
377,185,218619,5,4,0:0:0:0:
