osu file format v14

[General]
AudioFilename: Adenium.mp3
AudioLeadIn: 0
PreviewTime: 80314
Countdown: 1
SampleSet: Soft
StackLeniency: 0.3
Mode: 0
LetterboxInBreaks: 1
WidescreenStoryboard: 1

[Editor]
Bookmarks: 11942,34267,56593,78918,81011,114500,125663,136825,159151,181477,183570,217058,225430,250546
DistanceSpacing: 2
BeatDivisor: 4
GridSize: 4
TimelineZoom: 1.5

[Metadata]
Title:Adenium
TitleUnicode:Adenium
Artist:Rita
ArtistUnicode:Rita
Creator:Philosophy2
Version:People
Source:赫炎のインガノック 〜What a beautiful people〜
Tags:Liar-soft Blueberry&Yogurt
BeatmapID:639115
BeatmapSetID:282651

[Difficulty]
HPDrainRate:7
CircleSize:5
OverallDifficulty:7.5
ApproachRate:8.7
SliderMultiplier:1.6
SliderTickRate:1

[Events]
//Background and Video events
0,0,"BG.jpg",0,0
//Break Periods
//Storyboard Layer 0 (Background)
//Storyboard Layer 1 (Fail)
//Storyboard Layer 2 (Pass)
//Storyboard Layer 3 (Foreground)
//Storyboard Sound Samples

[TimingPoints]
780,697.674418604651,4,2,1,30,1,0
780,-100,4,2,1,30,0,0
78919,348.837209302326,6,2,1,30,1,0
78919,-133.333333333333,6,2,1,30,0,0
81012,348.837209302326,3,2,1,30,1,0
81012,-200,3,2,1,30,0,0
81360,-133.333333333333,3,2,1,30,0,0
83105,-200,3,2,1,30,0,0
83453,-133.333333333333,3,2,1,30,0,0
85198,-200,3,2,1,30,0,0
85546,-133.333333333333,3,2,1,30,0,0
89384,-200,3,2,1,30,0,0
89732,-133.333333333333,3,2,1,30,0,0
91477,-200,3,2,1,30,0,0
91825,-133.333333333333,3,2,1,30,0,0
93570,-200,3,2,1,30,0,0
93918,-133.333333333333,3,2,1,30,0,0
97756,-200,3,2,1,30,0,0
98105,-133.333333333333,3,2,1,30,0,0
99849,-200,3,2,1,30,0,0
100198,-133.333333333333,3,2,1,30,0,0
101942,-200,3,2,1,30,0,0
102291,-133.333333333333,3,2,1,30,0,0
106128,-200,3,2,1,30,0,0
106477,-133.333333333333,3,2,1,30,0,0
108221,-200,3,2,1,30,0,0
108570,-133.333333333333,3,2,1,30,0,0
110314,-200,3,2,1,30,0,0
110663,-133.333333333333,3,2,1,30,0,0
114500,697.674418604651,4,2,1,30,1,0
181476,348.837209302326,6,2,1,30,1,0
183569,348.837209302326,3,2,1,30,1,0

[HitObjects]
136,261,780,6,0,L|256:256,1,120
256,256,1826,1,0,0:0:0:0:
256,256,2524,5,0,0:0:0:0:
287,315,2698,1,0,0:0:0:0:
346,284,2873,1,0,0:0:0:0:
376,224,3047,1,0,0:0:0:0:
366,157,3221,2,0,L|303:163,1,40
186,160,3570,6,0,P|144:120|151:62,1,120
360,62,6361,2,0,P|367:120|326:160,1,120
128,120,8105,5,0,0:0:0:0:
197,104,8280,1,0,0:0:0:0:
261,131,8454,1,0,0:0:0:0:
299,190,8628,1,0,0:0:0:0:
295,258,8803,2,0,L|256:256,1,40
256,256,9152,6,0,L|375:261,1,120
375,261,10198,1,0,0:0:0:0:
375,261,10547,6,0,L|295:258,1,80
304,325,11070,2,0,L|224:321,1,80
164,354,11593,2,0,P|145:328|159:269,1,80
68,107,12291,5,0,0:0:0:0:
61,146,12465,1,0,0:0:0:0:
53,185,12640,1,0,0:0:0:0:
53,185,12989,2,0,P|91:172|158:188,1,80
165,193,13512,1,0,0:0:0:0:
191,223,13686,2,0,L|184:277,1,40
256,324,14035,5,0,0:0:0:0:
296,321,14210,1,0,0:0:0:0:
336,318,14384,2,0,L|375:315,1,40
287,241,14733,5,0,0:0:0:0:
354,236,14907,1,0,0:0:0:0:
421,231,15082,2,0,L|460:228,2,40
256,324,15779,5,0,0:0:0:0:
216,321,15954,1,0,0:0:0:0:
176,318,16128,2,0,L|173:357,1,40
173,357,16652,6,0,L|176:318,1,40
180,269,17000,1,0,0:0:0:0:
158,224,17175,1,0,0:0:0:0:
116,196,17349,1,0,0:0:0:0:
65,192,17524,6,0,P|46:162|57:104,1,80
78,92,18047,1,0,0:0:0:0:
107,65,18221,2,0,P|137:46|195:57,1,80
207,78,18744,1,0,0:0:0:0:
234,107,18919,2,0,P|253:137|242:195,1,80
221,207,19442,1,0,0:0:0:0:
192,234,19617,2,0,L|181:313,1,80
152,340,20140,1,0,0:0:0:0:
123,367,20314,6,0,P|83:370|49:350,1,80
32,313,20838,2,0,L|35:274,1,40
125,241,21186,1,0,0:0:0:0:
125,241,21361,2,0,L|122:202,1,40
64,162,21710,2,0,L|83:128,1,40
60,62,22059,2,0,L|95:45,1,40
162,59,22407,5,0,0:0:0:0:
208,109,22582,1,0,0:0:0:0:
287,103,22756,1,0,0:0:0:0:
371,56,22931,1,0,0:0:0:0:
470,123,23105,2,0,P|489:154|475:219,2,80
349,186,24152,5,0,0:0:0:0:
347,225,24326,1,0,0:0:0:0:
345,264,24500,2,0,P|313:245|246:256,1,80
235,263,25024,2,0,L|246:321,1,40
252,341,25373,5,0,0:0:0:0:
204,335,25547,1,0,0:0:0:0:
156,329,25721,1,0,0:0:0:0:
108,323,25896,2,0,P|91:300|98:248,1,80
125,223,26419,2,0,L|164:226,1,40
224,144,26768,5,0,0:0:0:0:
224,144,26942,2,0,L|185:148,1,40
157,85,27291,2,0,L|117:88,1,40
49,92,27640,2,0,P|30:122|53:194,1,80
52,199,28163,2,0,B|106:226|107:168|182:205,1,120
192,230,28861,5,0,0:0:0:0:
229,241,29035,1,0,0:0:0:0:
265,228,29210,1,0,0:0:0:0:
287,196,29384,2,0,L|291:150,1,40
361,122,29733,2,0,L|358:162,1,40
422,199,30082,2,0,L|396:229,1,40
427,296,30431,1,0,0:0:0:0:
427,296,30605,2,0,L|388:306,1,40
322,325,30954,5,0,0:0:0:0:
256,280,31128,1,0,0:0:0:0:
177,335,31303,1,0,0:0:0:0:
81,262,31477,1,0,0:0:0:0:
204,68,31826,6,0,L|278:75,2,40
144,99,32349,2,0,L|137:173,1,40
91,186,32698,1,0,0:0:0:0:
91,186,32785,1,0,0:0:0:0:
91,186,32873,2,0,L|51:182,2,40
148,223,33396,2,0,L|155:297,1,40
208,320,33745,5,0,0:0:0:0:
300,297,33919,1,0,0:0:0:0:
392,274,34093,1,0,0:0:0:0:
479,356,34268,1,0,0:0:0:0:
479,356,34617,2,0,P|445:369|385:358,1,80
229,242,35314,5,0,0:0:0:0:
219,281,35489,1,0,0:0:0:0:
208,320,35663,2,0,L|212:372,2,40
192,170,36361,2,0,P|231:166|268:179,1,80
294,210,36884,1,0,0:0:0:0:
294,210,37059,5,0,0:0:0:0:
323,342,37407,1,0,0:0:0:0:
422,250,37756,1,0,0:0:0:0:
294,210,38105,1,0,0:0:0:0:
294,210,38279,2,0,L|274:315,1,80
271,328,38803,1,0,0:0:0:0:
163,244,39152,2,0,P|127:231|67:245,1,80
51,255,39675,1,0,0:0:0:0:
51,255,39849,5,0,0:0:0:0:
143,354,40198,1,0,0:0:0:0:
242,262,40547,2,0,L|249:168,1,80
251,142,41070,2,0,P|290:137|327:150,1,80
355,179,41593,1,0,0:0:0:0:
481,229,41942,2,0,L|474:135,1,80
472,108,42466,1,0,0:0:0:0:
472,108,42640,6,0,L|422:103,1,40
397,162,42989,2,0,L|347:157,1,40
289,151,43338,2,0,L|296:57,1,80
298,31,43861,2,0,P|263:46|216:40,1,80
184,28,44384,1,0,0:0:0:0:
144,34,44559,1,0,0:0:0:0:
112,58,44733,2,0,L|117:137,1,80
121,177,45256,1,0,0:0:0:0:
121,177,45431,2,0,B|57:174|57:174|67:194,2,80
235,249,46477,5,0,0:0:0:0:
245,288,46652,1,0,0:0:0:0:
256,327,46826,2,0,L|252:379,2,40
264,187,47524,2,0,P|296:173|347:179,1,80
375,194,48047,1,0,0:0:0:0:
375,194,48222,5,0,0:0:0:0:
415,323,48570,1,0,0:0:0:0:
507,224,48919,1,0,0:0:0:0:
467,94,49268,1,0,0:0:0:0:
467,94,49442,2,0,L|358:87,1,80
346,86,49966,5,0,0:0:0:0:
249,182,50314,1,0,0:0:0:0:
152,86,50663,1,0,0:0:0:0:
152,86,50838,1,0,0:0:0:0:
152,86,51012,1,0,0:0:0:0:
117,218,51361,1,0,0:0:0:0:
212,314,51710,2,0,L|321:307,1,80
301,269,52233,2,0,L|410:262,1,80
420,262,52756,2,0,L|425:206,1,40
427,182,53105,2,0,P|405:166|325:174,1,80
315,173,53628,1,0,0:0:0:0:
315,173,53802,6,0,L|311:212,1,40
243,223,54152,2,0,L|239:262,1,40
171,273,54500,2,0,P|156:241|172:180,1,80
186,134,55024,1,0,0:0:0:0:
186,134,55111,1,0,0:0:0:0:
186,134,55198,1,0,0:0:0:0:
186,134,55373,2,0,L|77:127,1,80
47,164,55896,6,0,B|52:211|52:211|39:239|39:239|46:303,1,120
50,319,56593,6,0,P|82:334|147:323,1,80
225,238,57291,2,0,P|257:223|322:234,1,80
335,244,57814,1,0,0:0:0:0:
335,244,57989,2,0,L|339:126,1,80
339,123,58512,1,0,0:0:0:0:
339,123,58686,1,0,0:0:0:0:
194,20,59035,2,0,L|197:75,1,40
199,99,59384,6,0,P|238:91|288:98,1,80
291,132,59907,1,0,0:0:0:0:
282,171,60082,2,0,P|243:179|193:172,1,80
163,171,60605,2,0,L|160:226,1,40
106,252,60954,2,0,L|66:249,2,40
162,290,61477,2,0,L|165:345,1,40
166,369,61826,6,0,L|260:366,1,80
431,223,62524,2,0,L|428:278,1,40
427,302,62873,2,0,L|333:299,1,80
307,296,63396,2,0,L|310:351,1,40
210,164,63919,2,0,L|207:219,1,40
207,203,64268,1,0,0:0:0:0:
299,31,64617,2,0,L|302:86,1,40
304,110,64966,6,0,L|405:114,1,80
423,117,65489,1,0,0:0:0:0:
423,117,65663,2,0,P|446:148|434:203,1,80
429,225,66186,2,0,L|437:280,1,40
373,294,66535,2,0,L|381:349,2,40
350,260,67059,5,0,0:0:0:0:
307,251,67233,1,0,0:0:0:0:
259,258,67407,1,0,0:0:0:0:
215,293,67582,1,0,0:0:0:0:
201,359,67756,1,0,0:0:0:0:
201,359,68105,2,0,P|161:362|124:349,1,80
106,38,68803,6,0,L|146:42,1,40
186,48,69152,2,0,P|202:83|200:123,1,80
193,163,69675,2,0,L|232:159,1,40
240,206,70023,1,0,0:0:0:0:
218,248,70198,1,0,0:0:0:0:
177,270,70372,1,0,0:0:0:0:
130,263,70547,6,0,P|146:227|144:187,1,80
112,166,71070,1,0,0:0:0:0:
72,173,71245,2,0,P|55:208|57:248,1,80
81,282,71768,2,0,L|120:286,1,40
165,340,72117,2,0,L|160:379,2,40
208,286,72640,2,0,L|247:281,1,40
288,278,72989,6,0,P|299:316|296:380,1,80
389,186,73686,2,0,L|386:131,1,40
384,107,74035,2,0,L|305:110,1,80
301,70,74559,2,0,L|299:31,1,40
299,30,74907,1,0,0:0:0:0:
210,164,75082,6,0,L|207:203,1,40
207,203,75431,1,0,0:0:0:0:
309,335,75780,2,0,L|307:296,1,40
305,256,76128,2,0,P|343:268|403:251,1,80
417,248,76651,1,0,0:0:0:0:
417,248,76826,2,0,L|422:144,1,80
425,100,77349,1,0,0:0:0:0:
425,100,77436,1,0,0:0:0:0:
425,100,77524,1,0,0:0:0:0:
425,100,77697,6,0,L|483:106,1,40
478,171,78047,2,0,L|472:229,1,40
417,248,78396,2,0,L|359:242,1,40
376,257,78657,1,0,0:0:0:0:
374,270,78745,1,0,0:0:0:0:
372,283,78832,1,0,0:0:0:0:
370,296,78919,1,0,0:0:0:0:
221,325,79267,5,0,0:0:0:0:
221,325,79442,1,0,0:0:0:0:
176,113,79791,5,0,0:0:0:0:
176,113,79965,2,0,P|236:105|288:142,1,120.000004577637
283,136,80488,1,0,0:0:0:0:
298,224,80663,1,0,0:0:0:0:
182,253,80837,1,0,0:0:0:0:
118,151,81012,6,0,P|103:113|111:68,1,80
185,45,81535,2,0,L|254:49,1,60.0000022888184
283,136,81884,1,0,0:0:0:0:
416,194,82058,6,0,P|427:166|425:136,1,60.0000022888184
308,222,82407,2,0,P|325:245|352:258,1,60.0000022888184
337,115,82756,2,0,P|307:119|283:136,1,60.0000022888184
182,253,83105,5,0,0:0:0:0:
182,253,83279,2,0,L|136:251,1,40
77,204,83628,2,0,P|65:176|67:146,1,60.0000022888184
121,74,83977,1,0,0:0:0:0:
223,130,84151,6,0,L|283:136,1,60.0000022888184
343,202,84500,2,0,L|348:261,1,60.0000022888184
269,326,84849,2,0,L|263:266,1,60.0000022888184
408,327,85198,6,0,P|378:352|336:351,1,80
269,326,85721,2,0,L|263:266,1,60.0000022888184
210,193,86070,1,0,0:0:0:0:
111,300,86244,5,0,0:0:0:0:
66,223,86418,1,0,0:0:0:0:
200,282,86593,1,0,0:0:0:0:
21,300,86767,1,0,0:0:0:0:
94,136,86942,2,0,P|124:127|173:137,1,60.0000022888184
299,184,87291,6,0,L|304:243,1,60.0000022888184
307,273,87552,1,0,0:0:0:0:
307,273,87639,1,0,0:0:0:0:
458,318,87814,2,0,P|473:292|473:262,1,60.0000022888184
416,160,88163,1,0,0:0:0:0:
299,184,88337,6,0,P|256:198|195:181,1,90.0000034332277
179,169,88686,1,0,0:0:0:0:
267,54,88860,1,0,0:0:0:0:
402,102,89035,2,0,P|417:144|410:180,1,60.0000022888184
307,273,89384,6,0,P|260:277|217:263,1,80
177,216,89907,2,0,L|181:149,1,60.0000022888184
235,83,90256,1,0,0:0:0:0:
254,170,90430,5,0,0:0:0:0:
111,154,90605,1,0,0:0:0:0:
168,285,90779,2,0,P|191:309|236:317,1,60.0000022888184
376,242,91128,2,0,P|385:210|369:167,1,60.0000022888184
235,83,91477,6,0,P|220:121|229:173,1,80
250,227,92000,2,0,L|327:222,1,60.0000022888184
386,270,92349,1,0,0:0:0:0:
304,345,92523,6,0,P|293:317|295:288,1,60.0000022888184
378,121,92872,2,0,P|389:149|387:179,1,60.0000022888184
309,223,93221,2,0,L|249:219,1,60.0000022888184
148,301,93570,6,0,P|187:306|224:293,1,80
249,219,94093,2,0,L|252:159,1,60.0000022888184
298,81,94442,1,0,0:0:0:0:
458,161,94616,6,0,P|469:188|467:218,1,60.0000022888184
347,255,94965,2,0,L|287:258,1,60.0000022888184
148,301,95314,2,0,P|118:302|90:291,1,60.0000022888184
90,92,95663,6,0,P|118:81|148:83,1,60.0000022888184
176,91,95924,1,0,0:0:0:0:
176,91,96012,1,0,0:0:0:0:
256,128,96186,2,0,L|261:214,1,60.0000022888184
347,255,96535,1,0,0:0:0:0:
445,104,96709,6,0,P|393:77|335:86,1,120.000004577637
256,128,97232,1,0,0:0:0:0:
347,255,97407,1,0,0:0:0:0:
428,241,97581,1,0,0:0:0:0:
428,241,97756,6,0,P|447:283|435:326,1,80
372,345,98279,2,0,L|294:340,1,60.0000022888184
238,288,98628,1,0,0:0:0:0:
152,314,98802,6,0,P|148:280|177:240,1,60.0000022888184
250,196,99151,2,0,L|309:199,1,60.0000022888184
400,141,99500,2,0,P|404:107|375:67,1,60.0000022888184
256,32,99849,5,0,0:0:0:0:
256,32,100023,2,0,L|251:87,1,40
195,123,100372,2,0,L|134:117,1,60.0000022888184
58,163,100721,1,0,0:0:0:0:
135,238,100895,6,0,L|194:244,1,60.0000022888184
237,186,101244,2,0,L|282:225,1,60.0000022888184
350,201,101593,2,0,L|364:259,1,60.0000022888184
458,250,101942,6,0,P|478:220|467:167,1,80
446,114,102465,2,0,L|387:119,1,60.0000022888184
350,201,102814,1,0,0:0:0:0:
383,328,102988,6,0,P|356:342|306:342,1,60.0000022888184
185,345,103337,2,0,P|155:341|129:328,1,60.0000022888184
63,241,103686,2,0,L|68:181,1,60.0000022888184
123,74,104035,6,0,L|183:79,1,60.0000022888184
212,83,104296,1,0,0:0:0:0:
212,83,104384,1,0,0:0:0:0:
256,192,104558,2,0,L|261:252,1,60.0000022888184
309,328,104907,1,0,0:0:0:0:
436,273,105081,6,0,B|439:228|439:228|421:189|443:137,1,120.000004577637
501,188,105605,1,0,0:0:0:0:
370,211,105779,1,0,0:0:0:0:
347,80,105953,1,0,0:0:0:0:
347,80,106128,6,0,P|315:67|265:72,1,80
203,107,106651,2,0,L|199:186,1,60.0000022888184
195,257,107000,1,0,0:0:0:0:
139,327,107174,6,0,P|111:340|57:332,1,60.0000022888184
106,243,107523,2,0,L|109:183,1,60.0000022888184
282,237,107872,2,0,P|311:238|338:250,1,60.0000022888184
403,355,108221,5,0,0:0:0:0:
403,355,108395,2,0,L|400:316,1,40
338,250,108744,2,0,P|311:238|282:237,1,60.0000022888184
195,257,109093,1,0,0:0:0:0:
109,183,109267,6,0,L|106:243,1,60.0000022888184
85,354,109616,2,0,L|139:327,1,60.0000022888184
245,289,109965,2,0,L|195:257,1,60.0000022888184
201,166,110314,6,0,P|236:147|291:158,1,80
347,178,110837,2,0,L|342:253,1,60.0000022888184
403,303,111186,1,0,0:0:0:0:
484,192,111360,5,0,0:0:0:0:
484,192,111535,1,0,0:0:0:0:
357,28,111709,2,0,L|354:88,1,60.0000022888184
484,192,112058,2,0,L|487:132,1,60.0000022888184
347,178,112407,6,0,P|320:190|279:186,1,60.0000022888184
261,180,112668,1,0,0:0:0:0:
232,170,112756,1,0,0:0:0:0:
203,160,112843,1,0,0:0:0:0:
174,150,112930,2,0,L|170:90,1,60.0000022888184
50,68,113279,1,0,0:0:0:0:
46,91,113366,1,0,0:0:0:0:
43,115,113453,2,0,P|40:148|49:181,1,60.0000022888184
99,297,113802,6,0,L|177:291,1,60.0000022888184
248,285,114151,1,0,0:0:0:0:
343,357,114325,1,0,0:0:0:0:
474,265,114500,1,0,0:0:0:0:
