osu file format v12

[General]
AudioFilename: uni.mp3
AudioLeadIn: 1000
PreviewTime: 52701
Countdown: 0
SampleSet: Soft
StackLeniency: 0.7
Mode: 3
LetterboxInBreaks: 0

[Editor]
DistanceSpacing: 1
BeatDivisor: 4
GridSize: 8

[Metadata]
Title:uni
TitleUnicode:うに
Artist:Rissyu
ArtistUnicode:立秋
Creator:HanzeR
Version:Normal
Source:
Tags:hatsune miku vocaloid
BeatmapID:232356
BeatmapSetID:84156

[Difficulty]
HPDrainRate:6
CircleSize:7
OverallDifficulty:7
ApproachRate:5
SliderMultiplier:1.4
SliderTickRate:1

[Events]
//Background and Video events
0,0,"uni2.jpg",0,0
//Break Periods
//Storyboard Layer 0 (Background)
//Storyboard Layer 1 (Fail)
//Storyboard Layer 2 (Pass)
//Storyboard Layer 3 (Foreground)
//Storyboard Sound Samples
//Background Colour Transformations
3,100,163,162,255

[TimingPoints]
18,458.015267175573,4,2,1,50,1,0
53147,-100,4,2,1,60,0,1
82460,-100,4,2,1,60,0,0
111773,-100,4,2,1,60,0,1
125972,-100,4,2,1,60,0,0
126430,-100,4,2,1,60,0,1
155285,-100,4,2,1,60,0,0

[HitObjects]
475,192,1621,5,0,0:0:0:0:
36,192,1850,1,8,0:0:0:0:
402,192,2079,1,0,0:0:0:0:
36,192,2308,1,8,0:0:0:0:
329,192,2537,1,0,0:0:0:0:
36,192,2766,1,8,0:0:0:0:
475,192,2995,1,0,0:0:0:0:
36,192,3224,128,8,3682:0:0:0:0:
475,192,3682,1,8,0:0:0:0:
402,192,3911,1,0,0:0:0:0:
36,192,4140,1,8,0:0:0:0:
329,192,4369,1,0,0:0:0:0:
475,192,4598,128,8,5056:0:0:0:0:
36,192,5056,1,8,0:0:0:0:
475,192,5285,1,0,0:0:0:0:
36,192,5514,1,8,0:0:0:0:
402,192,5743,1,0,0:0:0:0:
36,192,5972,1,8,0:0:0:0:
329,192,6201,1,0,0:0:0:0:
36,192,6430,1,8,0:0:0:0:
109,192,6659,1,0,0:0:0:0:
475,192,6888,128,8,7346:0:0:0:0:
36,192,7346,1,8,0:0:0:0:
109,192,7575,1,0,0:0:0:0:
475,192,7804,1,8,0:0:0:0:
182,192,8033,1,0,0:0:0:0:
36,192,8262,128,8,8720:0:0:0:0:
402,192,8720,1,8,0:0:0:0:
475,192,8949,1,0,0:0:0:0:
36,192,9178,1,8,0:0:0:0:
402,192,9407,1,0,0:0:0:0:
36,192,9636,1,8,0:0:0:0:
329,192,9865,1,0,0:0:0:0:
36,192,10094,1,8,0:0:0:0:
402,192,10323,1,0,0:0:0:0:
36,192,10552,128,8,11010:0:0:0:0:
475,192,11010,1,8,0:0:0:0:
402,192,11239,1,0,0:0:0:0:
36,192,11468,1,8,0:0:0:0:
329,192,11697,1,0,0:0:0:0:
475,192,11926,128,8,12384:0:0:0:0:
36,192,12384,1,8,0:0:0:0:
475,192,12613,1,0,0:0:0:0:
36,192,12842,1,8,0:0:0:0:
402,192,13071,1,0,0:0:0:0:
36,192,13300,1,8,0:0:0:0:
329,192,13529,1,0,0:0:0:0:
36,192,13758,1,8,0:0:0:0:
329,192,13987,1,0,0:0:0:0:
256,192,14216,1,0,0:0:0:0:
182,192,14674,1,0,0:0:0:0:
329,192,14674,1,0,0:0:0:0:
109,192,14903,1,0,0:0:0:0:
402,192,14903,1,0,0:0:0:0:
475,192,15132,1,0,0:0:0:0:
36,192,15132,1,0,0:0:0:0:
256,192,15361,1,0,0:0:0:0:
36,192,15590,1,0,0:0:0:0:
475,192,15590,1,0,0:0:0:0:
182,192,15590,1,0,0:0:0:0:
256,192,16048,1,0,0:0:0:0:
329,192,16277,1,0,0:0:0:0:
182,192,16506,1,6,0:0:0:0:
329,192,16735,1,0,0:0:0:0:
36,192,16964,1,8,0:0:0:0:
256,192,17193,1,0,0:0:0:0:
475,192,17422,1,2,0:0:0:0:
36,192,17651,1,0,0:0:0:0:
475,192,17880,128,8,18338:0:0:0:0:
36,192,18338,1,2,0:0:0:0:
182,192,18567,1,0,0:0:0:0:
475,192,18796,1,8,0:0:0:0:
182,192,19025,1,0,0:0:0:0:
36,192,19254,1,2,0:0:0:0:
109,192,19483,1,8,0:0:0:0:
475,192,19712,1,8,0:0:0:0:
402,192,19941,1,0,0:0:0:0:
36,192,20170,1,2,0:0:0:0:
329,192,20399,1,0,0:0:0:0:
36,192,20628,1,8,0:0:0:0:
182,192,20857,1,0,0:0:0:0:
475,192,21086,1,2,0:0:0:0:
36,192,21315,1,0,0:0:0:0:
475,192,21544,128,8,22002:0:0:0:0:
329,192,22002,1,2,0:0:0:0:
182,192,22231,1,0,0:0:0:0:
475,192,22460,1,8,0:0:0:0:
109,192,22689,1,0,0:0:0:0:
182,192,22918,1,2,0:0:0:0:
475,192,23147,1,8,0:0:0:0:
329,192,23376,1,8,0:0:0:0:
402,192,23605,1,0,0:0:0:0:
36,192,23834,1,6,0:0:0:0:
182,192,24063,1,0,0:0:0:0:
475,192,24292,1,8,0:0:0:0:
329,192,24521,1,0,0:0:0:0:
36,192,24750,1,2,0:0:0:0:
475,192,24979,1,0,0:0:0:0:
36,192,25208,128,8,25666:0:0:0:0:
475,192,25666,1,2,0:0:0:0:
329,192,25895,1,0,0:0:0:0:
36,192,26124,1,8,0:0:0:0:
475,192,26353,1,0,0:0:0:0:
109,192,26582,1,2,0:0:0:0:
182,192,26811,1,8,0:0:0:0:
475,192,27040,1,8,0:0:0:0:
402,192,27269,1,0,0:0:0:0:
109,192,27498,1,2,0:0:0:0:
329,192,27727,1,0,0:0:0:0:
36,192,27956,1,8,0:0:0:0:
182,192,28185,1,0,0:0:0:0:
475,192,28414,1,2,0:0:0:0:
182,192,28643,1,0,0:0:0:0:
36,192,28872,1,8,0:0:0:0:
109,192,29330,1,2,0:0:0:0:
475,192,29559,1,0,0:0:0:0:
182,192,29788,1,8,0:0:0:0:
402,192,30018,1,0,0:0:0:0:
36,192,30247,1,2,0:0:0:0:
402,192,30476,1,8,0:0:0:0:
36,192,30705,128,8,31163:0:0:0:0:
475,192,31163,1,6,0:0:0:0:
36,192,31621,1,8,0:0:0:0:
475,192,32079,1,2,0:0:0:0:
36,192,32537,1,8,0:0:0:0:
402,192,32995,1,2,0:0:0:0:
109,192,33453,1,8,0:0:0:0:
402,192,33911,1,2,0:0:0:0:
109,192,34369,1,8,0:0:0:0:
475,192,34827,1,2,0:0:0:0:
36,192,35285,1,8,0:0:0:0:
475,192,35743,1,2,0:0:0:0:
36,192,36201,1,8,0:0:0:0:
402,192,36659,1,2,0:0:0:0:
109,192,37117,1,8,0:0:0:0:
402,192,37575,1,2,0:0:0:0:
109,192,38033,1,8,0:0:0:0:
475,192,38491,128,6,38949:0:0:0:0:
182,192,38949,128,8,39407:0:0:0:0:
402,192,39407,128,2,39865:0:0:0:0:
109,192,39865,128,8,40323:0:0:0:0:
329,192,40323,128,2,40781:0:0:0:0:
36,192,40781,128,8,41239:0:0:0:0:
182,192,41239,128,2,41697:0:0:0:0:
329,192,41697,128,8,42155:0:0:0:0:
475,192,42155,128,2,42613:0:0:0:0:
182,192,42613,128,8,43071:0:0:0:0:
329,192,43071,128,2,43529:0:0:0:0:
36,192,43529,128,8,43987:0:0:0:0:
402,192,43987,128,2,44445:0:0:0:0:
109,192,44445,128,8,44903:0:0:0:0:
182,192,44903,128,2,45361:0:0:0:0:
329,192,45361,128,8,45819:0:0:0:0:
36,192,45819,1,4,0:0:0:0:
475,192,45819,1,2,0:0:0:0:
402,192,46048,1,0,0:0:0:0:
109,192,46048,1,0,0:0:0:0:
256,192,46277,1,2,0:0:0:0:
256,192,46735,1,2,0:0:0:0:
402,192,46964,1,0,0:0:0:0:
109,192,46964,1,0,0:0:0:0:
256,192,47193,1,2,0:0:0:0:
256,192,47651,1,2,0:0:0:0:
329,192,47880,1,0,0:0:0:0:
182,192,47880,1,0,0:0:0:0:
256,192,48109,1,2,0:0:0:0:
256,192,48567,1,2,0:0:0:0:
109,192,48796,1,0,0:0:0:0:
402,192,48796,1,0,0:0:0:0:
256,192,49025,1,2,0:0:0:0:
36,192,49254,1,0,0:0:0:0:
475,192,49254,1,0,0:0:0:0:
329,192,49483,1,2,0:0:0:0:
182,192,49712,1,0,0:0:0:0:
402,192,49941,1,2,0:0:0:0:
36,192,50399,1,2,0:0:0:0:
182,192,50628,1,0,0:0:0:0:
402,192,50857,1,2,0:0:0:0:
256,192,51315,1,2,0:0:0:0:
256,192,51544,1,2,0:0:0:0:
109,192,51773,1,10,0:0:0:0:
256,192,52002,1,10,0:0:0:0:
36,192,52231,1,0,0:0:0:0:
402,192,52689,128,0,53147:0:0:0:0:
182,192,53147,1,6,0:0:0:0:
475,192,53376,1,0,0:0:0:0:
109,192,53605,1,8,0:0:0:0:
475,192,53834,1,0,0:0:0:0:
109,192,54063,1,2,0:0:0:0:
329,192,54292,1,0,0:0:0:0:
36,192,54521,1,8,0:0:0:0:
182,192,54750,1,0,0:0:0:0:
329,192,54979,1,2,0:0:0:0:
475,192,55208,1,0,0:0:0:0:
36,192,55437,1,8,0:0:0:0:
402,192,55666,1,0,0:0:0:0:
182,192,55895,1,2,0:0:0:0:
36,192,56124,1,8,0:0:0:0:
182,192,56353,1,8,0:0:0:0:
329,192,56582,1,0,0:0:0:0:
402,192,56811,128,2,57269:0:0:0:0:
475,192,57269,1,8,0:0:0:0:
256,192,57498,1,0,0:0:0:0:
109,192,57727,1,2,0:0:0:0:
475,192,57956,1,0,0:0:0:0:
109,192,58185,1,8,0:0:0:0:
36,192,58414,1,0,0:0:0:0:
256,192,58643,1,2,0:0:0:0:
182,192,58872,1,0,0:0:0:0:
36,192,59101,1,8,0:0:0:0:
402,192,59330,1,0,0:0:0:0:
256,192,59559,1,2,0:0:0:0:
36,192,59788,1,8,0:0:0:0:
402,192,60018,128,8,60476:0:0:0:0:
109,192,60476,128,6,60934:0:0:0:0:
402,192,60934,1,8,0:0:0:0:
36,192,61163,1,0,0:0:0:0:
329,192,61392,1,2,0:0:0:0:
109,192,61621,1,0,0:0:0:0:
475,192,61850,1,8,0:0:0:0:
329,192,62079,1,0,0:0:0:0:
182,192,62308,1,2,0:0:0:0:
36,192,62537,1,0,0:0:0:0:
402,192,62766,1,8,0:0:0:0:
256,192,62995,1,0,0:0:0:0:
109,192,63224,1,2,0:0:0:0:
475,192,63453,1,8,0:0:0:0:
329,192,63682,1,8,0:0:0:0:
182,192,63911,1,0,0:0:0:0:
109,192,64140,128,2,64598:0:0:0:0:
182,192,64598,1,8,0:0:0:0:
402,192,64827,1,0,0:0:0:0:
256,192,65056,1,2,0:0:0:0:
329,192,65285,1,0,0:0:0:0:
109,192,65514,1,8,0:0:0:0:
475,192,65743,1,0,0:0:0:0:
329,192,65972,1,2,0:0:0:0:
475,192,66201,1,0,0:0:0:0:
109,192,66430,1,8,0:0:0:0:
475,192,66659,1,0,0:0:0:0:
36,192,66888,1,2,0:0:0:0:
182,192,67117,1,8,0:0:0:0:
402,192,67346,1,8,0:0:0:0:
329,192,67575,1,0,0:0:0:0:
475,192,67804,1,6,0:0:0:0:
182,192,68033,1,0,0:0:0:0:
475,192,68262,1,8,0:0:0:0:
329,192,68491,1,0,0:0:0:0:
36,192,68720,1,2,0:0:0:0:
475,192,68949,1,0,0:0:0:0:
256,192,69178,128,8,69636:0:0:0:0:
402,192,69636,1,2,0:0:0:0:
109,192,69865,1,0,0:0:0:0:
329,192,70094,1,8,0:0:0:0:
475,192,70323,1,0,0:0:0:0:
36,192,70552,1,2,0:0:0:0:
182,192,70781,1,8,0:0:0:0:
475,192,71010,1,8,0:0:0:0:
402,192,71239,1,0,0:0:0:0:
36,192,71468,1,2,0:0:0:0:
182,192,71697,1,0,0:0:0:0:
475,192,71926,1,8,0:0:0:0:
329,192,72155,1,0,0:0:0:0:
36,192,72384,1,2,0:0:0:0:
475,192,72613,1,0,0:0:0:0:
256,192,72842,128,8,73300:0:0:0:0:
329,192,73300,1,2,0:0:0:0:
182,192,73529,1,0,0:0:0:0:
36,192,73758,1,8,0:0:0:0:
475,192,73987,1,0,0:0:0:0:
182,192,74216,1,2,0:0:0:0:
36,192,74445,1,8,0:0:0:0:
329,192,74674,1,8,0:0:0:0:
402,192,74903,1,0,0:0:0:0:
36,192,75132,1,6,0:0:0:0:
329,192,75361,1,0,0:0:0:0:
36,192,75590,1,8,0:0:0:0:
182,192,75819,1,0,0:0:0:0:
475,192,76048,1,2,0:0:0:0:
36,192,76277,1,0,0:0:0:0:
256,192,76506,128,8,76964:0:0:0:0:
182,192,76964,1,2,0:0:0:0:
36,192,77193,1,0,0:0:0:0:
182,192,77422,1,8,0:0:0:0:
402,192,77651,1,0,0:0:0:0:
109,192,77880,1,2,0:0:0:0:
402,192,78109,1,8,0:0:0:0:
36,192,78338,1,8,0:0:0:0:
109,192,78567,1,0,0:0:0:0:
256,192,78796,1,2,0:0:0:0:
402,192,79025,1,0,0:0:0:0:
36,192,79254,1,8,0:0:0:0:
329,192,79483,1,0,0:0:0:0:
36,192,79712,1,2,0:0:0:0:
475,192,79941,1,0,0:0:0:0:
36,192,80170,1,8,0:0:0:0:
402,192,80628,1,2,0:0:0:0:
109,192,80857,1,0,0:0:0:0:
329,192,81086,1,8,0:0:0:0:
182,192,81315,1,0,0:0:0:0:
256,192,81544,1,2,0:0:0:0:
109,192,81773,1,8,0:0:0:0:
475,192,82002,1,8,0:0:0:0:
402,192,82231,1,0,0:0:0:0:
36,192,82460,1,4,0:0:0:0:
475,192,82918,1,0,0:0:0:0:
36,192,83376,1,0,0:0:0:0:
475,192,83834,1,0,0:0:0:0:
109,192,84292,1,0,0:0:0:0:
402,192,84750,1,0,0:0:0:0:
109,192,85208,1,0,0:0:0:0:
329,192,85666,1,0,0:0:0:0:
36,192,86124,1,0,0:0:0:0:
475,192,86353,1,0,0:0:0:0:
182,192,86582,1,8,0:0:0:0:
475,192,86811,1,0,0:0:0:0:
109,192,87040,1,0,0:0:0:0:
475,192,87269,1,0,0:0:0:0:
182,192,87498,1,8,0:0:0:0:
475,192,87727,1,0,0:0:0:0:
109,192,87956,1,0,0:0:0:0:
475,192,88185,1,0,0:0:0:0:
182,192,88414,1,8,0:0:0:0:
475,192,88643,1,0,0:0:0:0:
109,192,88872,1,0,0:0:0:0:
475,192,89101,1,0,0:0:0:0:
36,192,89330,1,10,0:0:0:0:
36,192,89559,1,2,0:0:0:0:
475,192,89788,128,4,90247:0:0:0:0:
182,192,90247,128,8,90705:0:0:0:0:
329,192,90705,128,2,91163:0:0:0:0:
182,192,91163,128,8,91621:0:0:0:0:
402,192,91621,128,2,92079:0:0:0:0:
109,192,92079,128,8,92537:0:0:0:0:
329,192,92537,128,2,92995:0:0:0:0:
475,192,92995,128,8,93453:0:0:0:0:
109,192,93453,128,2,93911:0:0:0:0:
329,192,93911,128,8,94369:0:0:0:0:
109,192,94369,128,2,94827:0:0:0:0:
402,192,94827,128,8,95285:0:0:0:0:
36,192,95285,128,2,95743:0:0:0:0:
329,192,95743,128,8,96201:0:0:0:0:
182,192,96201,128,2,96659:0:0:0:0:
109,192,96659,128,8,97117:0:0:0:0:
402,192,96659,128,0,97117:0:0:0:0:
36,192,97117,128,6,97575:0:0:0:0:
329,192,97575,128,0,98033:0:0:0:0:
402,192,98033,128,0,98491:0:0:0:0:
182,192,98491,128,0,98949:0:0:0:0:
402,192,98949,128,2,99407:0:0:0:0:
109,192,99407,128,0,99865:0:0:0:0:
475,192,99865,128,0,100323:0:0:0:0:
109,192,100323,1,2,0:0:0:0:
182,192,100552,1,2,0:0:0:0:
475,192,100781,1,2,0:0:0:0:
182,192,101010,1,0,0:0:0:0:
475,192,101239,1,2,0:0:0:0:
182,192,101468,1,0,0:0:0:0:
475,192,101697,1,2,0:0:0:0:
36,192,101926,1,2,0:0:0:0:
475,192,102155,1,2,0:0:0:0:
36,192,102384,1,2,0:0:0:0:
182,192,102613,1,2,0:0:0:0:
36,192,102842,1,2,0:0:0:0:
402,192,103071,1,2,0:0:0:0:
329,192,103300,1,2,0:0:0:0:
402,192,103529,1,2,0:0:0:0:
182,192,103758,1,2,0:0:0:0:
329,192,103987,1,2,0:0:0:0:
182,192,104216,1,2,0:0:0:0:
475,192,104445,128,6,104674:0:0:0:0:
402,192,104674,128,0,104903:0:0:0:0:
329,192,104903,128,2,105132:0:0:0:0:
182,192,105132,128,0,105361:0:0:0:0:
109,192,105361,128,2,105590:0:0:0:0:
329,192,105590,128,0,105819:0:0:0:0:
402,192,105819,128,2,106048:0:0:0:0:
475,192,106048,128,0,106277:0:0:0:0:
109,192,106277,128,2,106506:0:0:0:0:
182,192,106506,128,0,106735:0:0:0:0:
402,192,106735,128,2,106964:0:0:0:0:
329,192,106964,128,0,107193:0:0:0:0:
402,192,107193,128,2,107422:0:0:0:0:
475,192,107422,128,0,107651:0:0:0:0:
402,192,107651,128,2,107880:0:0:0:0:
182,192,107880,128,0,108109:0:0:0:0:
402,192,108109,128,2,108338:0:0:0:0:
36,192,108338,128,0,108567:0:0:0:0:
109,192,108567,128,2,108796:0:0:0:0:
475,192,108796,128,0,109025:0:0:0:0:
256,192,109025,128,2,109483:0:0:0:0:
402,192,109483,128,2,109712:0:0:0:0:
36,192,109712,128,0,109941:0:0:0:0:
256,192,109941,1,2,0:0:0:0:
182,192,110170,1,0,0:0:0:0:
329,192,110170,1,2,0:0:0:0:
36,192,110399,1,0,0:0:0:0:
475,192,110399,1,2,0:0:0:0:
109,192,110628,1,0,0:0:0:0:
402,192,110628,1,2,0:0:0:0:
36,192,110857,1,0,0:0:0:0:
475,192,110857,1,2,0:0:0:0:
256,192,111315,128,0,111773:0:0:0:0:
402,192,111773,1,6,0:0:0:0:
329,192,112002,1,0,0:0:0:0:
402,192,112231,1,8,0:0:0:0:
36,192,112460,1,0,0:0:0:0:
475,192,112689,1,2,0:0:0:0:
109,192,112918,1,0,0:0:0:0:
475,192,113147,1,8,0:0:0:0:
329,192,113376,1,0,0:0:0:0:
182,192,113605,1,2,0:0:0:0:
329,192,113834,1,0,0:0:0:0:
475,192,114063,1,8,0:0:0:0:
109,192,114292,1,0,0:0:0:0:
329,192,114521,1,2,0:0:0:0:
475,192,114750,1,8,0:0:0:0:
329,192,114979,1,8,0:0:0:0:
182,192,115208,1,0,0:0:0:0:
109,192,115437,128,2,115895:0:0:0:0:
329,192,115895,1,8,0:0:0:0:
36,192,116124,1,0,0:0:0:0:
402,192,116353,1,2,0:0:0:0:
36,192,116582,1,0,0:0:0:0:
402,192,116811,1,8,0:0:0:0:
475,192,117040,1,0,0:0:0:0:
256,192,117269,1,2,0:0:0:0:
329,192,117498,1,0,0:0:0:0:
109,192,117727,1,8,0:0:0:0:
256,192,117956,1,0,0:0:0:0:
182,192,118185,1,2,0:0:0:0:
402,192,118414,1,8,0:0:0:0:
109,192,118643,128,8,119101:0:0:0:0:
475,192,119101,128,6,119559:0:0:0:0:
109,192,119559,1,8,0:0:0:0:
329,192,119788,1,0,0:0:0:0:
36,192,120018,1,2,0:0:0:0:
402,192,120247,1,0,0:0:0:0:
36,192,120476,1,8,0:0:0:0:
182,192,120705,1,0,0:0:0:0:
329,192,120934,1,2,0:0:0:0:
475,192,121163,1,0,0:0:0:0:
36,192,121392,1,8,0:0:0:0:
329,192,121621,1,0,0:0:0:0:
475,192,121850,1,2,0:0:0:0:
402,192,122079,1,8,0:0:0:0:
182,192,122308,1,8,0:0:0:0:
329,192,122537,1,0,0:0:0:0:
402,192,122766,128,2,123224:0:0:0:0:
182,192,123224,1,8,0:0:0:0:
109,192,123453,1,0,0:0:0:0:
402,192,123682,1,2,0:0:0:0:
182,192,123911,1,0,0:0:0:0:
402,192,124140,1,8,0:0:0:0:
36,192,124369,1,0,0:0:0:0:
182,192,124598,1,2,0:0:0:0:
36,192,124827,1,0,0:0:0:0:
182,192,125056,1,8,0:0:0:0:
475,192,125285,1,0,0:0:0:0:
109,192,125514,1,2,0:0:0:0:
182,192,125743,1,8,0:0:0:0:
475,192,125972,1,8,0:0:0:0:
109,192,126201,1,0,0:0:0:0:
475,192,126430,1,6,0:0:0:0:
182,192,126659,1,0,0:0:0:0:
475,192,126888,1,8,0:0:0:0:
256,192,127117,1,0,0:0:0:0:
109,192,127346,1,2,0:0:0:0:
256,192,127575,1,0,0:0:0:0:
402,192,127804,1,8,0:0:0:0:
329,192,128033,1,0,0:0:0:0:
36,192,128262,1,2,0:0:0:0:
256,192,128491,1,0,0:0:0:0:
475,192,128720,1,8,0:0:0:0:
256,192,128949,1,0,0:0:0:0:
36,192,129178,1,2,0:0:0:0:
329,192,129407,1,0,0:0:0:0:
402,192,129636,1,8,0:0:0:0:
256,192,129865,1,0,0:0:0:0:
475,192,130094,1,2,0:0:0:0:
402,192,130323,1,0,0:0:0:0:
36,192,130552,1,8,0:0:0:0:
256,192,130781,1,0,0:0:0:0:
329,192,131010,1,2,0:0:0:0:
402,192,131239,1,0,0:0:0:0:
109,192,131468,1,8,0:0:0:0:
475,192,131697,1,0,0:0:0:0:
109,192,131926,1,2,0:0:0:0:
402,192,132155,1,0,0:0:0:0:
109,192,132384,1,8,0:0:0:0:
402,192,132613,1,0,0:0:0:0:
256,192,132842,1,2,0:0:0:0:
36,192,133071,1,8,0:0:0:0:
475,192,133300,128,8,133758:0:0:0:0:
182,192,133758,128,6,134216:0:0:0:0:
329,192,134216,1,8,0:0:0:0:
36,192,134445,1,0,0:0:0:0:
475,192,134674,1,2,0:0:0:0:
182,192,134903,1,0,0:0:0:0:
109,192,135132,1,8,0:0:0:0:
329,192,135361,1,0,0:0:0:0:
475,192,135590,1,2,0:0:0:0:
109,192,135819,1,0,0:0:0:0:
402,192,136048,1,8,0:0:0:0:
182,192,136277,1,0,0:0:0:0:
256,192,136506,1,2,0:0:0:0:
329,192,136735,1,8,0:0:0:0:
475,192,136964,1,8,0:0:0:0:
182,192,137193,1,0,0:0:0:0:
402,192,137422,1,2,0:0:0:0:
109,192,137651,1,0,0:0:0:0:
402,192,137880,1,8,0:0:0:0:
329,192,138109,1,0,0:0:0:0:
36,192,138338,1,2,0:0:0:0:
182,192,138567,1,0,0:0:0:0:
475,192,138796,1,8,0:0:0:0:
109,192,139025,1,0,0:0:0:0:
182,192,139254,1,2,0:0:0:0:
329,192,139483,1,0,0:0:0:0:
402,192,139712,1,2,0:0:0:0:
109,192,139941,1,0,0:0:0:0:
475,192,140170,128,2,140628:0:0:0:0:
256,192,140628,128,12,141086:0:0:0:0:
36,192,141086,1,6,0:0:0:0:
329,192,141315,1,0,0:0:0:0:
109,192,141544,1,8,0:0:0:0:
402,192,141773,1,0,0:0:0:0:
182,192,142002,1,2,0:0:0:0:
36,192,142231,1,0,0:0:0:0:
475,192,142460,128,8,142918:0:0:0:0:
109,192,142918,1,2,0:0:0:0:
475,192,143147,1,0,0:0:0:0:
36,192,143376,1,8,0:0:0:0:
475,192,143605,1,0,0:0:0:0:
109,192,143834,128,2,144292:0:0:0:0:
402,192,144292,1,8,0:0:0:0:
256,192,144521,1,0,0:0:0:0:
329,192,144750,1,2,0:0:0:0:
182,192,144979,1,0,0:0:0:0:
329,192,145208,1,8,0:0:0:0:
182,192,145437,1,0,0:0:0:0:
329,192,145666,1,2,0:0:0:0:
402,192,145895,1,0,0:0:0:0:
36,192,146124,1,8,0:0:0:0:
36,192,146582,1,2,0:0:0:0:
402,192,146811,1,0,0:0:0:0:
36,192,147040,1,8,0:0:0:0:
475,192,147269,1,0,0:0:0:0:
36,192,147498,128,2,147956:0:0:0:0:
402,192,148185,1,0,0:0:0:0:
182,192,148414,1,6,0:0:0:0:
329,192,148643,1,0,0:0:0:0:
36,192,148872,1,8,0:0:0:0:
182,192,149101,1,0,0:0:0:0:
475,192,149330,1,2,0:0:0:0:
36,192,149559,1,0,0:0:0:0:
475,192,149788,128,8,150247:0:0:0:0:
182,192,150247,1,2,0:0:0:0:
402,192,150476,1,0,0:0:0:0:
36,192,150705,1,8,0:0:0:0:
475,192,150934,1,0,0:0:0:0:
109,192,151163,1,2,0:0:0:0:
329,192,151392,1,8,0:0:0:0:
36,192,151621,1,8,0:0:0:0:
109,192,151850,1,0,0:0:0:0:
475,192,152079,128,2,153911:0:0:0:0:
256,192,152995,128,2,153911:0:0:0:0:
36,192,153911,1,0,0:0:0:0:
256,192,154140,1,0,0:0:0:0:
182,192,154369,1,0,0:0:0:0:
329,192,154369,1,0,0:0:0:0:
109,192,154598,1,0,0:0:0:0:
402,192,154598,1,0,0:0:0:0:
475,192,154827,1,0,0:0:0:0:
36,192,154827,1,0,0:0:0:0:
182,192,155056,1,0,0:0:0:0:
329,192,155056,1,0,0:0:0:0:
256,192,155285,128,6,156659:0:0:0:0:
