osu file format v12

[General]
AudioFilename: uni.mp3
AudioLeadIn: 1000
PreviewTime: 52701
Countdown: 0
SampleSet: Soft
StackLeniency: 0.7
Mode: 3
LetterboxInBreaks: 0

[Editor]
DistanceSpacing: 1
BeatDivisor: 4
GridSize: 8

[Metadata]
Title:uni
TitleUnicode:うに
Artist:Rissyu
ArtistUnicode:立秋
Creator:HanzeR
Version:Insane
Source:
Tags:hatsune miku vocaloid
BeatmapID:232025
BeatmapSetID:84156

[Difficulty]
HPDrainRate:7
CircleSize:7
OverallDifficulty:7
ApproachRate:5
SliderMultiplier:1.4
SliderTickRate:1

[Events]
//Background and Video events
0,0,"uni2.jpg",0,0
//Break Periods
//Storyboard Layer 0 (Background)
//Storyboard Layer 1 (Fail)
//Storyboard Layer 2 (Pass)
//Storyboard Layer 3 (Foreground)
//Storyboard Sound Samples
//Background Colour Transformations
3,100,163,162,255

[TimingPoints]
18,458.015267175573,4,2,1,50,1,0
53147,-100,4,2,1,60,0,1
82460,-100,4,2,1,50,0,0
111315,-41.6666666666667,4,2,1,50,0,0
111621,-142.857142857143,4,2,1,50,0,0
111773,-100,4,2,1,60,0,1
125972,-100,4,2,1,60,0,0
126430,-100,4,2,1,60,0,1
155285,-100,4,2,1,60,0,0

[HitObjects]
475,192,1621,5,0,0:0:0:0:
329,192,1735,1,0,0:0:0:0:
182,192,1850,1,0,0:0:0:0:
36,192,1850,1,8,0:0:0:0:
402,192,2079,1,0,0:0:0:0:
329,192,2193,1,0,0:0:0:0:
182,192,2308,1,0,0:0:0:0:
36,192,2308,1,8,0:0:0:0:
329,192,2537,1,0,0:0:0:0:
256,192,2651,1,0,0:0:0:0:
182,192,2766,1,0,0:0:0:0:
36,192,2766,1,8,0:0:0:0:
475,192,2995,1,0,0:0:0:0:
36,192,3224,128,0,3682:0:0:0:0:
182,192,3224,1,8,0:0:0:0:
475,192,3682,1,0,0:0:0:0:
182,192,3682,1,8,0:0:0:0:
402,192,3796,1,0,0:0:0:0:
475,192,3911,1,0,0:0:0:0:
402,192,4025,1,0,0:0:0:0:
182,192,4140,1,0,0:0:0:0:
36,192,4140,1,8,0:0:0:0:
329,192,4369,1,0,0:0:0:0:
475,192,4598,128,0,5056:0:0:0:0:
182,192,4598,1,8,0:0:0:0:
36,192,5056,1,8,0:0:0:0:
475,192,5285,1,0,0:0:0:0:
329,192,5399,1,0,0:0:0:0:
182,192,5514,1,0,0:0:0:0:
36,192,5514,1,8,0:0:0:0:
402,192,5743,1,0,0:0:0:0:
329,192,5857,1,0,0:0:0:0:
36,192,5972,1,8,0:0:0:0:
182,192,5972,1,0,0:0:0:0:
329,192,6201,1,0,0:0:0:0:
256,192,6315,1,0,0:0:0:0:
36,192,6430,1,8,0:0:0:0:
182,192,6430,1,0,0:0:0:0:
109,192,6659,1,0,0:0:0:0:
475,192,6888,128,0,7346:0:0:0:0:
329,192,6888,1,8,0:0:0:0:
36,192,7346,1,0,0:0:0:0:
329,192,7346,1,8,0:0:0:0:
109,192,7460,1,0,0:0:0:0:
36,192,7575,1,0,0:0:0:0:
109,192,7689,1,0,0:0:0:0:
475,192,7804,1,0,0:0:0:0:
329,192,7804,1,8,0:0:0:0:
182,192,8033,1,0,0:0:0:0:
36,192,8262,128,0,8720:0:0:0:0:
329,192,8262,1,8,0:0:0:0:
256,192,8720,1,8,0:0:0:0:
402,192,8720,1,0,0:0:0:0:
475,192,8949,1,0,0:0:0:0:
329,192,9063,1,0,0:0:0:0:
182,192,9178,1,0,0:0:0:0:
36,192,9178,1,8,0:0:0:0:
402,192,9407,1,0,0:0:0:0:
329,192,9521,1,0,0:0:0:0:
182,192,9636,1,0,0:0:0:0:
36,192,9636,1,8,0:0:0:0:
329,192,9865,1,0,0:0:0:0:
256,192,9979,1,0,0:0:0:0:
182,192,10094,1,0,0:0:0:0:
36,192,10094,1,8,0:0:0:0:
402,192,10323,1,0,0:0:0:0:
36,192,10552,128,0,11010:0:0:0:0:
182,192,10552,1,8,0:0:0:0:
475,192,11010,1,0,0:0:0:0:
182,192,11010,1,8,0:0:0:0:
402,192,11124,1,0,0:0:0:0:
475,192,11239,1,0,0:0:0:0:
402,192,11353,1,0,0:0:0:0:
182,192,11468,1,0,0:0:0:0:
36,192,11468,1,8,0:0:0:0:
329,192,11697,1,0,0:0:0:0:
475,192,11926,128,0,12384:0:0:0:0:
182,192,11926,1,8,0:0:0:0:
36,192,12384,1,8,0:0:0:0:
182,192,12384,1,0,0:0:0:0:
475,192,12613,1,0,0:0:0:0:
329,192,12727,1,0,0:0:0:0:
182,192,12842,1,0,0:0:0:0:
36,192,12842,1,8,0:0:0:0:
402,192,13071,1,0,0:0:0:0:
329,192,13185,1,0,0:0:0:0:
36,192,13300,1,8,0:0:0:0:
182,192,13300,1,0,0:0:0:0:
329,192,13529,1,0,0:0:0:0:
256,192,13643,1,0,0:0:0:0:
182,192,13758,1,0,0:0:0:0:
36,192,13758,1,8,0:0:0:0:
109,192,13987,1,0,0:0:0:0:
402,192,14216,1,0,0:0:0:0:
36,192,14674,1,0,0:0:0:0:
475,192,14674,1,0,0:0:0:0:
109,192,14788,1,0,0:0:0:0:
402,192,14788,1,0,0:0:0:0:
36,192,14903,1,0,0:0:0:0:
475,192,14903,1,0,0:0:0:0:
109,192,15018,1,0,0:0:0:0:
402,192,15018,1,0,0:0:0:0:
475,192,15132,1,0,0:0:0:0:
329,192,15132,1,0,0:0:0:0:
182,192,15132,1,0,0:0:0:0:
36,192,15132,1,0,0:0:0:0:
256,192,15361,1,0,0:0:0:0:
36,192,15590,1,0,0:0:0:0:
475,192,16048,128,0,16506:0:0:0:0:
256,192,16048,128,0,16506:0:0:0:0:
36,192,16048,128,0,16506:0:0:0:0:
182,192,16277,1,0,0:0:0:0:
329,192,16277,1,0,0:0:0:0:
109,192,16392,1,0,0:0:0:0:
402,192,16392,1,0,0:0:0:0:
182,192,16506,1,4,0:0:0:0:
329,192,16506,1,2,0:0:0:0:
329,192,16735,1,0,0:0:0:0:
109,192,16735,1,0,0:0:0:0:
256,192,16850,1,0,0:0:0:0:
182,192,16964,1,0,0:0:0:0:
36,192,16964,1,8,0:0:0:0:
475,192,16964,1,0,0:0:0:0:
182,192,17193,1,0,0:0:0:0:
402,192,17193,1,0,0:0:0:0:
256,192,17308,1,0,0:0:0:0:
475,192,17422,1,0,0:0:0:0:
329,192,17422,1,2,0:0:0:0:
109,192,17422,1,0,0:0:0:0:
36,192,17651,1,0,0:0:0:0:
182,192,17651,1,0,0:0:0:0:
475,192,17880,128,8,18338:0:0:0:0:
256,192,17880,1,0,0:0:0:0:
109,192,17880,1,0,0:0:0:0:
36,192,18109,1,0,0:0:0:0:
329,192,18109,1,0,0:0:0:0:
402,192,18338,128,0,18567:0:0:0:0:
109,192,18338,1,2,0:0:0:0:
182,192,18453,1,0,0:0:0:0:
329,192,18567,128,0,18796:0:0:0:0:
36,192,18567,1,0,0:0:0:0:
109,192,18682,1,0,0:0:0:0:
182,192,18796,1,0,0:0:0:0:
402,192,18796,1,8,0:0:0:0:
36,192,19025,1,0,0:0:0:0:
182,192,19025,1,0,0:0:0:0:
329,192,19025,1,0,0:0:0:0:
475,192,19025,1,0,0:0:0:0:
475,192,19254,128,0,19712:0:0:0:0:
36,192,19254,1,0,0:0:0:0:
182,192,19254,1,2,0:0:0:0:
109,192,19483,1,8,0:0:0:0:
402,192,19483,1,0,0:0:0:0:
329,192,19712,1,0,0:0:0:0:
182,192,19712,1,8,0:0:0:0:
109,192,19941,1,0,0:0:0:0:
402,192,19941,1,0,0:0:0:0:
182,192,20056,1,0,0:0:0:0:
329,192,20056,1,0,0:0:0:0:
36,192,20170,1,0,0:0:0:0:
475,192,20170,1,0,0:0:0:0:
256,192,20170,1,2,0:0:0:0:
329,192,20399,1,0,0:0:0:0:
109,192,20399,1,0,0:0:0:0:
256,192,20514,1,0,0:0:0:0:
182,192,20628,1,0,0:0:0:0:
36,192,20628,1,8,0:0:0:0:
475,192,20628,1,0,0:0:0:0:
182,192,20857,1,0,0:0:0:0:
402,192,20857,1,0,0:0:0:0:
256,192,20972,1,0,0:0:0:0:
475,192,21086,1,0,0:0:0:0:
329,192,21086,1,2,0:0:0:0:
109,192,21086,1,0,0:0:0:0:
36,192,21315,1,0,0:0:0:0:
182,192,21315,1,0,0:0:0:0:
256,192,21544,1,0,0:0:0:0:
475,192,21544,128,8,22002:0:0:0:0:
109,192,21544,1,0,0:0:0:0:
36,192,21773,1,0,0:0:0:0:
329,192,21773,1,0,0:0:0:0:
402,192,22002,128,0,22231:0:0:0:0:
182,192,22002,1,2,0:0:0:0:
109,192,22117,1,0,0:0:0:0:
182,192,22231,1,0,0:0:0:0:
329,192,22231,128,0,22460:0:0:0:0:
36,192,22346,1,0,0:0:0:0:
402,192,22460,1,8,0:0:0:0:
182,192,22460,1,0,0:0:0:0:
36,192,22689,1,0,0:0:0:0:
475,192,22689,1,0,0:0:0:0:
329,192,22689,1,0,0:0:0:0:
182,192,22689,1,0,0:0:0:0:
475,192,22918,128,0,23376:0:0:0:0:
182,192,22918,1,0,0:0:0:0:
36,192,22918,1,2,0:0:0:0:
109,192,23147,1,0,0:0:0:0:
402,192,23147,1,8,0:0:0:0:
329,192,23376,1,8,0:0:0:0:
182,192,23376,1,0,0:0:0:0:
36,192,23376,1,0,0:0:0:0:
109,192,23605,1,0,0:0:0:0:
402,192,23605,1,0,0:0:0:0:
329,192,23720,1,0,0:0:0:0:
182,192,23720,1,0,0:0:0:0:
475,192,23834,1,0,0:0:0:0:
36,192,23834,1,4,0:0:0:0:
256,192,23834,1,2,0:0:0:0:
402,192,24063,1,0,0:0:0:0:
182,192,24063,1,0,0:0:0:0:
256,192,24178,1,0,0:0:0:0:
36,192,24292,1,0,0:0:0:0:
329,192,24292,1,0,0:0:0:0:
475,192,24292,1,8,0:0:0:0:
109,192,24521,1,0,0:0:0:0:
329,192,24521,1,0,0:0:0:0:
256,192,24636,1,0,0:0:0:0:
36,192,24750,1,2,0:0:0:0:
402,192,24750,1,0,0:0:0:0:
182,192,24750,1,0,0:0:0:0:
329,192,24979,1,0,0:0:0:0:
475,192,24979,1,0,0:0:0:0:
256,192,25208,1,0,0:0:0:0:
402,192,25208,1,0,0:0:0:0:
36,192,25208,128,8,25666:0:0:0:0:
475,192,25437,1,0,0:0:0:0:
182,192,25437,1,0,0:0:0:0:
109,192,25666,128,0,25895:0:0:0:0:
475,192,25666,1,2,0:0:0:0:
402,192,25781,1,0,0:0:0:0:
182,192,25895,128,0,26124:0:0:0:0:
329,192,25895,1,0,0:0:0:0:
256,192,26010,1,0,0:0:0:0:
402,192,26124,1,0,0:0:0:0:
329,192,26124,1,0,0:0:0:0:
36,192,26124,1,8,0:0:0:0:
475,192,26353,1,0,0:0:0:0:
109,192,26353,1,0,0:0:0:0:
182,192,26353,1,0,0:0:0:0:
329,192,26353,1,0,0:0:0:0:
182,192,26582,1,0,0:0:0:0:
475,192,26582,1,2,0:0:0:0:
36,192,26582,128,0,27269:0:0:0:0:
402,192,26811,1,0,0:0:0:0:
256,192,26811,1,8,0:0:0:0:
109,192,27040,128,0,27269:0:0:0:0:
329,192,27040,1,0,0:0:0:0:
182,192,27040,1,0,0:0:0:0:
475,192,27040,1,8,0:0:0:0:
402,192,27269,1,0,0:0:0:0:
256,192,27269,1,0,0:0:0:0:
182,192,27384,1,0,0:0:0:0:
329,192,27384,1,0,0:0:0:0:
36,192,27498,1,0,0:0:0:0:
256,192,27498,1,2,0:0:0:0:
475,192,27498,1,0,0:0:0:0:
329,192,27727,1,0,0:0:0:0:
109,192,27727,1,0,0:0:0:0:
182,192,27842,1,0,0:0:0:0:
256,192,27956,1,0,0:0:0:0:
475,192,27956,1,8,0:0:0:0:
36,192,27956,1,0,0:0:0:0:
402,192,28185,1,0,0:0:0:0:
182,192,28185,1,0,0:0:0:0:
256,192,28300,1,0,0:0:0:0:
329,192,28414,1,2,0:0:0:0:
109,192,28414,1,0,0:0:0:0:
475,192,28414,1,0,0:0:0:0:
36,192,28643,1,0,0:0:0:0:
182,192,28643,1,0,0:0:0:0:
256,192,28872,1,8,0:0:0:0:
109,192,28872,1,0,0:0:0:0:
402,192,28872,1,0,0:0:0:0:
256,192,29330,128,2,29788:0:0:0:0:
109,192,29330,1,0,0:0:0:0:
402,192,29330,1,0,0:0:0:0:
182,192,29445,1,0,0:0:0:0:
329,192,29445,1,0,0:0:0:0:
475,192,29559,1,0,0:0:0:0:
36,192,29559,1,0,0:0:0:0:
402,192,29674,1,0,0:0:0:0:
109,192,29674,1,0,0:0:0:0:
182,192,29788,1,0,0:0:0:0:
329,192,29788,1,8,0:0:0:0:
109,192,30018,1,0,0:0:0:0:
402,192,30018,1,0,0:0:0:0:
256,192,30018,1,0,0:0:0:0:
36,192,30247,1,0,0:0:0:0:
475,192,30247,1,0,0:0:0:0:
256,192,30247,1,0,0:0:0:0:
402,192,30476,1,8,0:0:0:0:
182,192,30476,1,0,0:0:0:0:
182,192,30705,1,0,0:0:0:0:
36,192,30705,128,8,31163:0:0:0:0:
475,192,31163,1,6,0:0:0:0:
475,192,31392,1,0,0:0:0:0:
329,192,31621,1,0,0:0:0:0:
182,192,31621,1,0,0:0:0:0:
36,192,31621,1,8,0:0:0:0:
36,192,31850,1,0,0:0:0:0:
182,192,32079,1,0,0:0:0:0:
329,192,32079,1,2,0:0:0:0:
475,192,32079,1,0,0:0:0:0:
475,192,32308,1,0,0:0:0:0:
329,192,32537,1,0,0:0:0:0:
182,192,32537,1,0,0:0:0:0:
36,192,32537,1,8,0:0:0:0:
36,192,32766,1,0,0:0:0:0:
402,192,32995,1,0,0:0:0:0:
329,192,32995,1,2,0:0:0:0:
402,192,33224,1,0,0:0:0:0:
256,192,33453,1,0,0:0:0:0:
182,192,33453,1,0,0:0:0:0:
109,192,33453,1,8,0:0:0:0:
109,192,33682,1,0,0:0:0:0:
402,192,33911,1,2,0:0:0:0:
475,192,33911,1,0,0:0:0:0:
256,192,33911,1,0,0:0:0:0:
402,192,34140,1,0,0:0:0:0:
109,192,34369,1,0,0:0:0:0:
36,192,34369,1,8,0:0:0:0:
256,192,34369,1,0,0:0:0:0:
109,192,34598,1,0,0:0:0:0:
182,192,34827,1,0,0:0:0:0:
475,192,34827,1,0,0:0:0:0:
329,192,34827,1,2,0:0:0:0:
475,192,35056,1,0,0:0:0:0:
36,192,35285,1,8,0:0:0:0:
182,192,35285,1,0,0:0:0:0:
329,192,35285,1,0,0:0:0:0:
36,192,35514,1,0,0:0:0:0:
182,192,35743,1,0,0:0:0:0:
329,192,35743,1,2,0:0:0:0:
475,192,35743,1,0,0:0:0:0:
475,192,35972,1,0,0:0:0:0:
329,192,36201,1,0,0:0:0:0:
182,192,36201,1,0,0:0:0:0:
36,192,36201,1,8,0:0:0:0:
36,192,36430,1,0,0:0:0:0:
182,192,36659,1,0,0:0:0:0:
329,192,36659,1,2,0:0:0:0:
402,192,36659,1,0,0:0:0:0:
402,192,36888,1,0,0:0:0:0:
329,192,37117,1,0,0:0:0:0:
182,192,37117,1,8,0:0:0:0:
109,192,37117,1,0,0:0:0:0:
109,192,37346,1,0,0:0:0:0:
256,192,37575,1,0,0:0:0:0:
475,192,37575,1,0,0:0:0:0:
402,192,37575,1,2,0:0:0:0:
475,192,37804,1,0,0:0:0:0:
256,192,38033,1,0,0:0:0:0:
36,192,38033,1,8,0:0:0:0:
109,192,38033,1,0,0:0:0:0:
36,192,38262,1,0,0:0:0:0:
475,192,38491,128,2,38949:0:0:0:0:
402,192,38491,1,4,0:0:0:0:
256,192,38720,1,0,0:0:0:0:
402,192,38949,1,8,0:0:0:0:
182,192,38949,128,0,39407:0:0:0:0:
475,192,39178,1,0,0:0:0:0:
256,192,39407,1,2,0:0:0:0:
402,192,39407,128,0,39865:0:0:0:0:
109,192,39636,1,0,0:0:0:0:
256,192,39865,128,0,40323:0:0:0:0:
182,192,39865,1,8,0:0:0:0:
475,192,40094,1,0,0:0:0:0:
182,192,40323,128,0,40781:0:0:0:0:
36,192,40323,1,2,0:0:0:0:
329,192,40552,1,0,0:0:0:0:
109,192,40781,1,8,0:0:0:0:
475,192,40781,128,0,41239:0:0:0:0:
402,192,41010,1,0,0:0:0:0:
329,192,41239,128,0,41697:0:0:0:0:
109,192,41239,1,2,0:0:0:0:
402,192,41468,1,0,0:0:0:0:
109,192,41697,128,0,42155:0:0:0:0:
182,192,41697,1,8,0:0:0:0:
402,192,41926,1,0,0:0:0:0:
475,192,42155,128,0,42613:0:0:0:0:
36,192,42155,1,2,0:0:0:0:
256,192,42384,1,0,0:0:0:0:
109,192,42613,1,8,0:0:0:0:
182,192,42613,128,0,43071:0:0:0:0:
402,192,42842,1,0,0:0:0:0:
475,192,43071,128,0,43529:0:0:0:0:
256,192,43071,1,2,0:0:0:0:
36,192,43300,1,0,0:0:0:0:
256,192,43529,128,0,43987:0:0:0:0:
402,192,43529,1,8,0:0:0:0:
475,192,43758,1,0,0:0:0:0:
109,192,43987,1,2,0:0:0:0:
402,192,43987,128,0,44445:0:0:0:0:
36,192,44216,1,0,0:0:0:0:
475,192,44445,128,0,44903:0:0:0:0:
182,192,44445,1,8,0:0:0:0:
329,192,44674,1,0,0:0:0:0:
109,192,44903,1,2,0:0:0:0:
182,192,44903,128,0,45361:0:0:0:0:
329,192,45361,128,0,45819:0:0:0:0:
36,192,45361,1,8,0:0:0:0:
36,192,45819,1,2,0:0:0:0:
182,192,45819,1,4,0:0:0:0:
402,192,45819,128,0,47651:0:0:0:0:
36,192,46048,1,0,0:0:0:0:
182,192,46048,1,0,0:0:0:0:
109,192,46163,1,0,0:0:0:0:
256,192,46163,1,0,0:0:0:0:
475,192,46392,1,0,0:0:0:0:
329,192,46392,1,0,0:0:0:0:
36,192,46621,1,0,0:0:0:0:
182,192,46621,1,0,0:0:0:0:
36,192,46735,1,0,0:0:0:0:
182,192,46735,1,2,0:0:0:0:
36,192,46964,1,0,0:0:0:0:
182,192,46964,1,0,0:0:0:0:
109,192,47079,1,0,0:0:0:0:
256,192,47079,1,0,0:0:0:0:
329,192,47308,1,0,0:0:0:0:
475,192,47308,1,0,0:0:0:0:
109,192,47537,1,0,0:0:0:0:
256,192,47537,1,0,0:0:0:0:
36,192,47651,128,0,49483:0:0:0:0:
329,192,47651,1,0,0:0:0:0:
182,192,47651,1,2,0:0:0:0:
109,192,47880,1,0,0:0:0:0:
329,192,47880,1,0,0:0:0:0:
182,192,47995,1,0,0:0:0:0:
402,192,47995,1,0,0:0:0:0:
475,192,48109,1,0,0:0:0:0:
256,192,48109,1,2,0:0:0:0:
402,192,48224,1,0,0:0:0:0:
182,192,48224,1,0,0:0:0:0:
182,192,48453,1,0,0:0:0:0:
402,192,48453,1,0,0:0:0:0:
109,192,48567,1,0,0:0:0:0:
256,192,48567,1,2,0:0:0:0:
182,192,48796,1,0,0:0:0:0:
329,192,48796,1,0,0:0:0:0:
256,192,49025,1,2,0:0:0:0:
402,192,49025,1,0,0:0:0:0:
329,192,49254,1,0,0:0:0:0:
182,192,49254,1,0,0:0:0:0:
109,192,49483,1,0,0:0:0:0:
256,192,49483,1,2,0:0:0:0:
475,192,49483,128,0,51315:0:0:0:0:
256,192,49712,1,0,0:0:0:0:
402,192,49712,1,0,0:0:0:0:
329,192,49827,1,0,0:0:0:0:
182,192,49827,1,0,0:0:0:0:
256,192,49941,1,2,0:0:0:0:
109,192,49941,1,0,0:0:0:0:
36,192,50056,1,0,0:0:0:0:
182,192,50056,1,0,0:0:0:0:
109,192,50285,1,0,0:0:0:0:
256,192,50285,1,0,0:0:0:0:
182,192,50399,1,0,0:0:0:0:
329,192,50399,1,2,0:0:0:0:
182,192,50628,1,0,0:0:0:0:
329,192,50628,1,0,0:0:0:0:
109,192,50743,1,0,0:0:0:0:
256,192,50743,1,0,0:0:0:0:
36,192,50857,1,0,0:0:0:0:
182,192,50857,1,2,0:0:0:0:
109,192,50972,1,0,0:0:0:0:
256,192,50972,1,0,0:0:0:0:
182,192,51201,1,0,0:0:0:0:
329,192,51201,1,0,0:0:0:0:
109,192,51315,1,0,0:0:0:0:
256,192,51315,1,2,0:0:0:0:
36,192,51315,128,0,52231:0:0:0:0:
182,192,51544,1,2,0:0:0:0:
329,192,51544,1,0,0:0:0:0:
109,192,51544,128,0,52231:0:0:0:0:
182,192,51773,128,0,52231:0:0:0:0:
256,192,51773,1,2,0:0:0:0:
402,192,51773,1,8,0:0:0:0:
329,192,51888,1,8,0:0:0:0:
256,192,52002,128,2,52231:0:0:0:0:
402,192,52002,1,8,0:0:0:0:
475,192,52002,1,0,0:0:0:0:
329,192,52117,1,8,0:0:0:0:
475,192,52231,1,8,0:0:0:0:
402,192,52231,1,2,0:0:0:0:
402,192,52689,128,0,53147:0:0:0:0:
182,192,53147,1,2,0:0:0:0:
475,192,53147,1,4,0:0:0:0:
475,192,53376,1,0,0:0:0:0:
256,192,53376,1,0,0:0:0:0:
109,192,53605,128,8,53949:0:0:0:0:
402,192,53605,128,0,53949:0:0:0:0:
36,192,53949,1,0,0:0:0:0:
329,192,53949,1,0,0:0:0:0:
475,192,54178,1,0,0:0:0:0:
182,192,54178,1,0,0:0:0:0:
402,192,54407,1,0,0:0:0:0:
109,192,54407,1,0,0:0:0:0:
256,192,54521,1,8,0:0:0:0:
36,192,54521,1,0,0:0:0:0:
182,192,54750,1,0,0:0:0:0:
475,192,54750,1,0,0:0:0:0:
329,192,54979,1,2,0:0:0:0:
182,192,54979,1,0,0:0:0:0:
256,192,55094,1,0,0:0:0:0:
402,192,55094,1,0,0:0:0:0:
182,192,55208,1,0,0:0:0:0:
475,192,55208,1,0,0:0:0:0:
109,192,55323,1,0,0:0:0:0:
329,192,55323,1,0,0:0:0:0:
36,192,55437,1,0,0:0:0:0:
402,192,55437,1,8,0:0:0:0:
182,192,55552,1,0,0:0:0:0:
475,192,55552,1,0,0:0:0:0:
109,192,55666,1,0,0:0:0:0:
329,192,55666,1,0,0:0:0:0:
36,192,55781,1,0,0:0:0:0:
402,192,55781,1,0,0:0:0:0:
329,192,56010,128,0,56353:0:0:0:0:
36,192,56010,128,0,56353:0:0:0:0:
475,192,56124,1,8,0:0:0:0:
402,192,56353,1,0,0:0:0:0:
182,192,56353,1,8,0:0:0:0:
109,192,56468,1,0,0:0:0:0:
256,192,56468,1,0,0:0:0:0:
402,192,56811,128,0,57269:0:0:0:0:
36,192,56811,1,2,0:0:0:0:
109,192,57040,1,0,0:0:0:0:
475,192,57269,1,0,0:0:0:0:
182,192,57269,1,8,0:0:0:0:
256,192,57498,1,0,0:0:0:0:
182,192,57613,1,0,0:0:0:0:
402,192,57613,1,0,0:0:0:0:
256,192,57727,1,2,0:0:0:0:
329,192,57842,1,0,0:0:0:0:
36,192,57842,1,0,0:0:0:0:
475,192,58071,1,0,0:0:0:0:
182,192,58071,1,0,0:0:0:0:
109,192,58185,128,8,58414:0:0:0:0:
182,192,58414,1,0,0:0:0:0:
475,192,58414,128,0,59559:0:0:0:0:
256,192,58643,1,2,0:0:0:0:
402,192,58758,1,0,0:0:0:0:
182,192,58872,1,0,0:0:0:0:
329,192,58987,1,0,0:0:0:0:
402,192,59101,1,0,0:0:0:0:
36,192,59101,1,8,0:0:0:0:
109,192,59216,1,0,0:0:0:0:
256,192,59330,1,0,0:0:0:0:
402,192,59445,1,0,0:0:0:0:
36,192,59559,128,0,60018:0:0:0:0:
182,192,59559,1,2,0:0:0:0:
329,192,59788,1,8,0:0:0:0:
402,192,60018,128,8,60476:0:0:0:0:
475,192,60018,1,8,0:0:0:0:
182,192,60247,1,0,0:0:0:0:
329,192,60476,1,4,0:0:0:0:
36,192,60476,1,2,0:0:0:0:
256,192,60705,1,0,0:0:0:0:
109,192,60705,1,0,0:0:0:0:
182,192,60934,1,0,0:0:0:0:
402,192,60934,1,8,0:0:0:0:
329,192,61163,1,0,0:0:0:0:
36,192,61163,1,0,0:0:0:0:
182,192,61277,1,0,0:0:0:0:
475,192,61277,1,0,0:0:0:0:
256,192,61392,1,2,0:0:0:0:
402,192,61506,1,0,0:0:0:0:
109,192,61506,1,0,0:0:0:0:
182,192,61735,1,0,0:0:0:0:
402,192,61735,1,0,0:0:0:0:
256,192,61850,1,8,0:0:0:0:
475,192,61850,1,0,0:0:0:0:
329,192,62079,128,0,62308:0:0:0:0:
36,192,62079,1,0,0:0:0:0:
182,192,62308,1,2,0:0:0:0:
109,192,62422,1,0,0:0:0:0:
256,192,62422,1,0,0:0:0:0:
329,192,62537,1,0,0:0:0:0:
36,192,62537,1,0,0:0:0:0:
182,192,62651,1,0,0:0:0:0:
402,192,62651,1,0,0:0:0:0:
475,192,62766,1,8,0:0:0:0:
109,192,62766,1,0,0:0:0:0:
329,192,62880,1,0,0:0:0:0:
36,192,62880,1,0,0:0:0:0:
182,192,62995,1,0,0:0:0:0:
402,192,62995,1,0,0:0:0:0:
475,192,63109,1,0,0:0:0:0:
109,192,63109,1,0,0:0:0:0:
36,192,63224,1,2,0:0:0:0:
329,192,63224,1,0,0:0:0:0:
402,192,63338,1,0,0:0:0:0:
182,192,63338,1,0,0:0:0:0:
109,192,63453,128,0,63682:0:0:0:0:
475,192,63453,128,0,63682:0:0:0:0:
329,192,63682,1,8,0:0:0:0:
182,192,63796,1,0,0:0:0:0:
109,192,64140,128,0,64598:0:0:0:0:
329,192,64140,1,2,0:0:0:0:
402,192,64369,1,0,0:0:0:0:
182,192,64598,1,0,0:0:0:0:
36,192,64598,1,8,0:0:0:0:
109,192,64941,1,0,0:0:0:0:
402,192,64941,1,0,0:0:0:0:
256,192,65170,1,0,0:0:0:0:
182,192,65399,1,0,0:0:0:0:
109,192,65514,1,0,0:0:0:0:
329,192,65514,1,8,0:0:0:0:
475,192,65743,1,0,0:0:0:0:
109,192,65743,1,0,0:0:0:0:
402,192,65857,1,0,0:0:0:0:
182,192,65857,1,0,0:0:0:0:
256,192,65972,1,0,0:0:0:0:
329,192,65972,1,2,0:0:0:0:
182,192,66086,1,0,0:0:0:0:
402,192,66086,1,0,0:0:0:0:
109,192,66201,1,0,0:0:0:0:
475,192,66201,1,0,0:0:0:0:
36,192,66315,1,0,0:0:0:0:
329,192,66315,1,0,0:0:0:0:
402,192,66430,1,8,0:0:0:0:
475,192,66544,1,0,0:0:0:0:
36,192,66659,1,0,0:0:0:0:
402,192,66773,1,0,0:0:0:0:
182,192,66888,128,2,67346:0:0:0:0:
329,192,67117,1,0,0:0:0:0:
256,192,67346,128,0,67804:0:0:0:0:
475,192,67346,1,8,0:0:0:0:
36,192,67346,1,0,0:0:0:0:
182,192,67575,1,0,0:0:0:0:
329,192,67575,1,0,0:0:0:0:
402,192,67689,1,0,0:0:0:0:
109,192,67689,1,0,0:0:0:0:
36,192,67804,1,4,0:0:0:0:
475,192,67804,1,2,0:0:0:0:
402,192,68033,1,0,0:0:0:0:
182,192,68033,1,0,0:0:0:0:
256,192,68147,1,0,0:0:0:0:
36,192,68262,1,0,0:0:0:0:
475,192,68262,1,8,0:0:0:0:
329,192,68262,1,0,0:0:0:0:
329,192,68491,1,0,0:0:0:0:
109,192,68491,1,0,0:0:0:0:
256,192,68605,1,0,0:0:0:0:
36,192,68720,1,2,0:0:0:0:
182,192,68720,1,0,0:0:0:0:
402,192,68720,1,0,0:0:0:0:
329,192,68949,1,0,0:0:0:0:
475,192,68949,1,0,0:0:0:0:
36,192,69178,128,0,69636:0:0:0:0:
402,192,69178,1,0,0:0:0:0:
256,192,69178,1,8,0:0:0:0:
475,192,69407,1,0,0:0:0:0:
182,192,69407,1,0,0:0:0:0:
109,192,69636,128,0,69865:0:0:0:0:
475,192,69636,1,2,0:0:0:0:
329,192,69750,1,0,0:0:0:0:
182,192,69865,128,0,70094:0:0:0:0:
402,192,69865,1,0,0:0:0:0:
475,192,69979,1,0,0:0:0:0:
329,192,70094,1,0,0:0:0:0:
36,192,70094,1,8,0:0:0:0:
182,192,70323,1,0,0:0:0:0:
329,192,70323,1,0,0:0:0:0:
475,192,70323,1,0,0:0:0:0:
36,192,70323,1,0,0:0:0:0:
475,192,70552,1,2,0:0:0:0:
36,192,70552,128,0,71010:0:0:0:0:
329,192,70552,1,0,0:0:0:0:
109,192,70781,1,0,0:0:0:0:
402,192,70781,1,8,0:0:0:0:
329,192,71010,1,0,0:0:0:0:
182,192,71010,1,8,0:0:0:0:
402,192,71239,1,0,0:0:0:0:
109,192,71239,1,0,0:0:0:0:
329,192,71353,1,0,0:0:0:0:
182,192,71353,1,0,0:0:0:0:
475,192,71468,1,2,0:0:0:0:
36,192,71468,1,0,0:0:0:0:
256,192,71468,1,0,0:0:0:0:
182,192,71697,1,0,0:0:0:0:
402,192,71697,1,0,0:0:0:0:
256,192,71811,1,0,0:0:0:0:
329,192,71926,1,8,0:0:0:0:
475,192,71926,1,0,0:0:0:0:
36,192,71926,1,0,0:0:0:0:
329,192,72155,1,0,0:0:0:0:
109,192,72155,1,0,0:0:0:0:
256,192,72269,1,0,0:0:0:0:
182,192,72384,1,0,0:0:0:0:
36,192,72384,1,2,0:0:0:0:
402,192,72384,1,0,0:0:0:0:
329,192,72613,1,0,0:0:0:0:
475,192,72613,1,0,0:0:0:0:
256,192,72842,1,0,0:0:0:0:
402,192,72842,1,8,0:0:0:0:
36,192,72842,128,0,73300:0:0:0:0:
182,192,73071,1,0,0:0:0:0:
475,192,73071,1,0,0:0:0:0:
329,192,73300,1,2,0:0:0:0:
109,192,73300,128,0,73529:0:0:0:0:
402,192,73414,1,0,0:0:0:0:
329,192,73529,1,0,0:0:0:0:
182,192,73529,128,0,73758:0:0:0:0:
402,192,73643,1,0,0:0:0:0:
36,192,73758,1,0,0:0:0:0:
329,192,73758,1,8,0:0:0:0:
475,192,73987,1,0,0:0:0:0:
329,192,73987,1,0,0:0:0:0:
36,192,73987,1,0,0:0:0:0:
182,192,73987,1,0,0:0:0:0:
475,192,74216,1,0,0:0:0:0:
36,192,74216,128,0,74674:0:0:0:0:
109,192,74216,1,2,0:0:0:0:
402,192,74445,1,0,0:0:0:0:
256,192,74445,1,8,0:0:0:0:
475,192,74674,1,8,0:0:0:0:
182,192,74674,1,0,0:0:0:0:
402,192,74903,1,0,0:0:0:0:
109,192,74903,1,0,0:0:0:0:
329,192,75018,1,0,0:0:0:0:
182,192,75018,1,0,0:0:0:0:
475,192,75132,1,4,0:0:0:0:
36,192,75132,1,0,0:0:0:0:
256,192,75132,1,2,0:0:0:0:
109,192,75361,1,0,0:0:0:0:
329,192,75361,1,0,0:0:0:0:
256,192,75476,1,0,0:0:0:0:
475,192,75590,1,0,0:0:0:0:
36,192,75590,1,8,0:0:0:0:
182,192,75590,1,0,0:0:0:0:
402,192,75819,1,0,0:0:0:0:
182,192,75819,1,0,0:0:0:0:
256,192,75934,1,0,0:0:0:0:
329,192,76048,1,0,0:0:0:0:
109,192,76048,1,0,0:0:0:0:
475,192,76048,1,2,0:0:0:0:
182,192,76277,1,0,0:0:0:0:
36,192,76277,1,0,0:0:0:0:
256,192,76506,1,0,0:0:0:0:
109,192,76506,1,0,0:0:0:0:
475,192,76506,128,8,76964:0:0:0:0:
36,192,76735,1,0,0:0:0:0:
329,192,76735,1,0,0:0:0:0:
402,192,76964,128,0,77193:0:0:0:0:
36,192,76964,1,2,0:0:0:0:
109,192,77079,1,0,0:0:0:0:
36,192,77193,1,0,0:0:0:0:
329,192,77193,128,0,77422:0:0:0:0:
109,192,77308,1,0,0:0:0:0:
36,192,77422,1,8,0:0:0:0:
475,192,77422,1,0,0:0:0:0:
329,192,77651,1,0,0:0:0:0:
36,192,77651,1,0,0:0:0:0:
182,192,77651,1,0,0:0:0:0:
475,192,77651,1,0,0:0:0:0:
329,192,77880,1,2,0:0:0:0:
475,192,77880,128,0,78567:0:0:0:0:
36,192,77880,1,0,0:0:0:0:
109,192,78109,1,0,0:0:0:0:
256,192,78109,1,8,0:0:0:0:
182,192,78338,1,8,0:0:0:0:
329,192,78338,1,0,0:0:0:0:
36,192,78338,1,0,0:0:0:0:
402,192,78338,128,0,78567:0:0:0:0:
109,192,78567,1,0,0:0:0:0:
256,192,78567,1,0,0:0:0:0:
329,192,78682,1,0,0:0:0:0:
182,192,78682,1,0,0:0:0:0:
256,192,78796,1,2,0:0:0:0:
36,192,78796,1,0,0:0:0:0:
475,192,78796,1,0,0:0:0:0:
402,192,79025,1,0,0:0:0:0:
182,192,79025,1,0,0:0:0:0:
329,192,79140,1,0,0:0:0:0:
475,192,79254,1,0,0:0:0:0:
256,192,79254,1,0,0:0:0:0:
36,192,79254,1,8,0:0:0:0:
329,192,79483,1,0,0:0:0:0:
109,192,79483,1,0,0:0:0:0:
256,192,79598,1,0,0:0:0:0:
36,192,79712,1,0,0:0:0:0:
402,192,79712,1,2,0:0:0:0:
182,192,79712,1,0,0:0:0:0:
329,192,79941,1,0,0:0:0:0:
475,192,79941,1,0,0:0:0:0:
109,192,80170,1,8,0:0:0:0:
256,192,80170,1,0,0:0:0:0:
402,192,80170,1,0,0:0:0:0:
256,192,80628,128,0,81086:0:0:0:0:
109,192,80628,1,2,0:0:0:0:
402,192,80628,1,0,0:0:0:0:
329,192,80743,1,0,0:0:0:0:
182,192,80743,1,0,0:0:0:0:
36,192,80857,1,0,0:0:0:0:
475,192,80857,1,0,0:0:0:0:
109,192,80972,1,0,0:0:0:0:
402,192,80972,1,0,0:0:0:0:
182,192,81086,1,0,0:0:0:0:
329,192,81086,1,8,0:0:0:0:
256,192,81315,1,0,0:0:0:0:
109,192,81315,1,0,0:0:0:0:
402,192,81315,1,0,0:0:0:0:
36,192,81544,1,0,0:0:0:0:
475,192,81544,1,0,0:0:0:0:
256,192,81544,1,2,0:0:0:0:
256,192,81773,1,8,0:0:0:0:
402,192,82002,128,8,82460:0:0:0:0:
475,192,82460,1,0,0:0:0:0:
329,192,82460,1,4,0:0:0:0:
36,192,82689,1,0,0:0:0:0:
475,192,82918,1,0,0:0:0:0:
402,192,82918,1,0,0:0:0:0:
109,192,83147,1,0,0:0:0:0:
329,192,83376,1,0,0:0:0:0:
475,192,83376,1,0,0:0:0:0:
36,192,83605,1,0,0:0:0:0:
402,192,83834,1,0,0:0:0:0:
475,192,83834,1,0,0:0:0:0:
109,192,84063,1,0,0:0:0:0:
329,192,84292,1,0,0:0:0:0:
475,192,84292,1,0,0:0:0:0:
36,192,84521,1,0,0:0:0:0:
402,192,84750,1,0,0:0:0:0:
475,192,84750,1,0,0:0:0:0:
109,192,84979,1,0,0:0:0:0:
329,192,85208,1,0,0:0:0:0:
475,192,85208,1,0,0:0:0:0:
109,192,85437,1,0,0:0:0:0:
329,192,85666,1,0,0:0:0:0:
475,192,85666,1,0,0:0:0:0:
36,192,85895,1,0,0:0:0:0:
402,192,86124,1,0,0:0:0:0:
475,192,86124,1,0,0:0:0:0:
109,192,86353,1,0,0:0:0:0:
182,192,86353,1,0,0:0:0:0:
329,192,86582,1,8,0:0:0:0:
475,192,86582,1,0,0:0:0:0:
36,192,86811,1,0,0:0:0:0:
109,192,86811,1,0,0:0:0:0:
402,192,87040,1,0,0:0:0:0:
475,192,87040,1,0,0:0:0:0:
109,192,87269,1,0,0:0:0:0:
182,192,87269,1,0,0:0:0:0:
329,192,87498,1,8,0:0:0:0:
475,192,87498,1,0,0:0:0:0:
36,192,87727,1,0,0:0:0:0:
109,192,87727,1,0,0:0:0:0:
402,192,87956,1,0,0:0:0:0:
475,192,87956,1,0,0:0:0:0:
109,192,88185,1,0,0:0:0:0:
182,192,88185,1,0,0:0:0:0:
329,192,88414,1,8,0:0:0:0:
475,192,88414,1,0,0:0:0:0:
36,192,88643,1,0,0:0:0:0:
109,192,88643,1,0,0:0:0:0:
402,192,88872,1,0,0:0:0:0:
475,192,88872,1,0,0:0:0:0:
182,192,89101,1,0,0:0:0:0:
109,192,89101,1,0,0:0:0:0:
36,192,89216,1,2,0:0:0:0:
36,192,89330,1,2,0:0:0:0:
256,192,89330,1,8,0:0:0:0:
36,192,89559,1,2,0:0:0:0:
475,192,89788,128,0,90247:0:0:0:0:
402,192,89788,1,4,0:0:0:0:
256,192,90018,1,0,0:0:0:0:
329,192,90247,128,0,90705:0:0:0:0:
109,192,90247,1,8,0:0:0:0:
36,192,90476,1,0,0:0:0:0:
109,192,90705,128,0,91163:0:0:0:0:
256,192,90705,1,2,0:0:0:0:
402,192,90934,1,0,0:0:0:0:
256,192,91163,128,0,91621:0:0:0:0:
329,192,91163,1,8,0:0:0:0:
36,192,91392,1,0,0:0:0:0:
109,192,91621,1,2,0:0:0:0:
329,192,91621,128,0,92079:0:0:0:0:
182,192,91850,1,0,0:0:0:0:
402,192,92079,1,0,0:0:0:0:
36,192,92079,1,8,0:0:0:0:
475,192,92079,128,0,92537:0:0:0:0:
109,192,92308,1,0,0:0:0:0:
329,192,92537,1,2,0:0:0:0:
182,192,92537,128,0,92995:0:0:0:0:
109,192,92766,1,0,0:0:0:0:
329,192,92995,1,8,0:0:0:0:
402,192,92995,128,0,93453:0:0:0:0:
109,192,93224,1,0,0:0:0:0:
36,192,93453,1,2,0:0:0:0:
182,192,93453,128,0,93911:0:0:0:0:
256,192,93682,1,0,0:0:0:0:
402,192,93911,1,8,0:0:0:0:
329,192,93911,128,0,94369:0:0:0:0:
36,192,94140,1,0,0:0:0:0:
182,192,94369,1,2,0:0:0:0:
475,192,94369,128,0,94827:0:0:0:0:
402,192,94598,1,0,0:0:0:0:
109,192,94827,1,8,0:0:0:0:
256,192,94827,128,0,95285:0:0:0:0:
36,192,95056,1,0,0:0:0:0:
402,192,95285,1,2,0:0:0:0:
109,192,95285,128,0,95743:0:0:0:0:
475,192,95514,1,0,0:0:0:0:
329,192,95743,1,8,0:0:0:0:
36,192,95743,1,0,0:0:0:0:
182,192,95972,1,0,0:0:0:0:
402,192,96201,128,0,96659:0:0:0:0:
182,192,96659,128,0,97117:0:0:0:0:
475,192,96659,1,8,0:0:0:0:
36,192,96888,1,2,0:0:0:0:
475,192,97117,128,4,97346:0:0:0:0:
329,192,97117,1,2,0:0:0:0:
402,192,97346,128,0,97575:0:0:0:0:
109,192,97346,128,0,97575:0:0:0:0:
182,192,97575,128,0,97804:0:0:0:0:
329,192,97804,128,0,98033:0:0:0:0:
475,192,98033,128,0,98262:0:0:0:0:
36,192,98033,128,0,98262:0:0:0:0:
402,192,98262,128,0,98491:0:0:0:0:
182,192,98491,128,0,98720:0:0:0:0:
402,192,98720,128,0,98949:0:0:0:0:
256,192,98949,128,0,100094:0:0:0:0:
36,192,98949,1,0,0:0:0:0:
182,192,98949,1,2,0:0:0:0:
329,192,98949,1,0,0:0:0:0:
475,192,98949,1,0,0:0:0:0:
402,192,99178,128,0,99407:0:0:0:0:
109,192,99407,128,0,99636:0:0:0:0:
36,192,99636,128,0,99865:0:0:0:0:
109,192,99865,128,0,100094:0:0:0:0:
402,192,99865,128,0,100094:0:0:0:0:
329,192,100094,1,0,0:0:0:0:
475,192,100094,1,2,0:0:0:0:
182,192,100208,1,2,0:0:0:0:
329,192,100323,1,2,0:0:0:0:
182,192,100437,1,2,0:0:0:0:
329,192,100552,1,2,0:0:0:0:
182,192,100666,1,2,0:0:0:0:
256,192,100781,128,0,101697:0:0:0:0:
475,192,100781,1,2,0:0:0:0:
402,192,101010,1,0,0:0:0:0:
475,192,101239,1,0,0:0:0:0:
36,192,101239,1,0,0:0:0:0:
182,192,101239,1,2,0:0:0:0:
109,192,101468,1,0,0:0:0:0:
475,192,101697,1,0,0:0:0:0:
329,192,101697,1,2,0:0:0:0:
36,192,101697,1,0,0:0:0:0:
36,192,101926,1,0,0:0:0:0:
182,192,101926,1,2,0:0:0:0:
475,192,101926,1,0,0:0:0:0:
329,192,102155,1,2,0:0:0:0:
475,192,102155,1,0,0:0:0:0:
36,192,102155,1,0,0:0:0:0:
36,192,102384,1,0,0:0:0:0:
182,192,102384,1,2,0:0:0:0:
475,192,102384,1,0,0:0:0:0:
109,192,102613,1,2,0:0:0:0:
182,192,102613,1,0,0:0:0:0:
402,192,102727,1,2,0:0:0:0:
329,192,102727,1,0,0:0:0:0:
36,192,102842,1,0,0:0:0:0:
109,192,102842,1,2,0:0:0:0:
475,192,102956,1,0,0:0:0:0:
402,192,102956,1,2,0:0:0:0:
182,192,103071,1,0,0:0:0:0:
36,192,103071,1,2,0:0:0:0:
256,192,103185,1,0,0:0:0:0:
329,192,103185,1,2,0:0:0:0:
109,192,103300,1,2,0:0:0:0:
182,192,103300,1,0,0:0:0:0:
329,192,103414,1,0,0:0:0:0:
475,192,103414,1,2,0:0:0:0:
36,192,103529,1,2,0:0:0:0:
109,192,103586,1,2,0:0:0:0:
182,192,103643,1,2,0:0:0:0:
256,192,103701,1,2,0:0:0:0:
402,192,103758,1,2,0:0:0:0:
329,192,103815,1,2,0:0:0:0:
256,192,103872,1,2,0:0:0:0:
182,192,103930,1,2,0:0:0:0:
329,192,103987,1,2,0:0:0:0:
256,192,104044,1,2,0:0:0:0:
182,192,104101,1,2,0:0:0:0:
109,192,104159,1,2,0:0:0:0:
256,192,104216,1,2,0:0:0:0:
329,192,104273,1,2,0:0:0:0:
402,192,104330,1,2,0:0:0:0:
475,192,104388,1,2,0:0:0:0:
256,192,104445,1,2,0:0:0:0:
36,192,104445,128,4,104674:0:0:0:0:
329,192,104445,128,0,104674:0:0:0:0:
402,192,104674,128,0,104903:0:0:0:0:
182,192,104674,128,0,104903:0:0:0:0:
109,192,104903,128,0,105132:0:0:0:0:
329,192,104903,128,2,105132:0:0:0:0:
256,192,104903,1,0,0:0:0:0:
475,192,105132,128,0,105361:0:0:0:0:
182,192,105132,128,0,105361:0:0:0:0:
109,192,105361,128,0,105590:0:0:0:0:
402,192,105361,128,0,105590:0:0:0:0:
256,192,105361,1,2,0:0:0:0:
36,192,105590,128,0,105819:0:0:0:0:
329,192,105590,128,0,105819:0:0:0:0:
256,192,105819,1,2,0:0:0:0:
109,192,105819,128,0,106048:0:0:0:0:
402,192,105819,128,0,106048:0:0:0:0:
475,192,106048,128,0,106277:0:0:0:0:
36,192,106048,128,0,106277:0:0:0:0:
109,192,106277,128,0,106506:0:0:0:0:
402,192,106277,128,0,106506:0:0:0:0:
256,192,106277,1,2,0:0:0:0:
182,192,106506,128,0,106735:0:0:0:0:
475,192,106506,128,0,106735:0:0:0:0:
256,192,106735,1,2,0:0:0:0:
109,192,106735,128,0,106964:0:0:0:0:
402,192,106735,128,0,106964:0:0:0:0:
36,192,106964,128,0,107193:0:0:0:0:
329,192,106964,128,0,107193:0:0:0:0:
256,192,107193,1,2,0:0:0:0:
109,192,107193,128,0,107422:0:0:0:0:
402,192,107193,128,0,107422:0:0:0:0:
475,192,107422,128,0,107651:0:0:0:0:
182,192,107422,128,0,107651:0:0:0:0:
256,192,107651,1,2,0:0:0:0:
109,192,107651,128,0,107880:0:0:0:0:
402,192,107651,128,0,107880:0:0:0:0:
475,192,107880,128,0,108109:0:0:0:0:
182,192,107880,128,0,108109:0:0:0:0:
256,192,108109,128,2,108338:0:0:0:0:
109,192,108109,128,0,108338:0:0:0:0:
402,192,108109,128,0,108338:0:0:0:0:
36,192,108338,128,0,108567:0:0:0:0:
329,192,108338,128,0,108567:0:0:0:0:
109,192,108567,128,0,108796:0:0:0:0:
256,192,108567,128,2,108796:0:0:0:0:
402,192,108567,128,0,108796:0:0:0:0:
475,192,108796,128,0,109025:0:0:0:0:
36,192,108796,128,0,109025:0:0:0:0:
256,192,109025,128,2,109254:0:0:0:0:
182,192,109025,128,0,109254:0:0:0:0:
329,192,109025,128,0,109254:0:0:0:0:
36,192,109254,128,0,109483:0:0:0:0:
475,192,109254,128,0,109483:0:0:0:0:
109,192,109483,128,0,109712:0:0:0:0:
402,192,109483,128,0,109712:0:0:0:0:
256,192,109483,128,2,109712:0:0:0:0:
36,192,109712,128,0,109941:0:0:0:0:
475,192,109712,128,0,109941:0:0:0:0:
109,192,109941,1,0,0:0:0:0:
256,192,109941,1,2,0:0:0:0:
402,192,109941,1,0,0:0:0:0:
109,192,110170,1,0,0:0:0:0:
182,192,110170,1,0,0:0:0:0:
256,192,110170,1,2,0:0:0:0:
329,192,110170,1,8,0:0:0:0:
402,192,110170,1,0,0:0:0:0:
36,192,110399,1,0,0:0:0:0:
182,192,110399,1,0,0:0:0:0:
256,192,110399,1,2,0:0:0:0:
329,192,110399,1,8,0:0:0:0:
475,192,110399,1,0,0:0:0:0:
109,192,110628,1,0,0:0:0:0:
182,192,110628,1,2,0:0:0:0:
402,192,110628,1,0,0:0:0:0:
329,192,110628,1,8,0:0:0:0:
36,192,110857,1,0,0:0:0:0:
109,192,110857,1,0,0:0:0:0:
475,192,110857,1,2,0:0:0:0:
402,192,110857,1,0,0:0:0:0:
256,192,111315,1,0,0:0:0:0:
109,192,111773,1,4,0:0:0:0:
402,192,111773,1,0,0:0:0:0:
475,192,111773,1,2,0:0:0:0:
36,192,111773,1,0,0:0:0:0:
329,192,112002,1,0,0:0:0:0:
109,192,112002,1,0,0:0:0:0:
36,192,112231,1,8,0:0:0:0:
402,192,112231,1,0,0:0:0:0:
36,192,112460,1,0,0:0:0:0:
329,192,112460,1,0,0:0:0:0:
475,192,112575,1,0,0:0:0:0:
109,192,112689,1,2,0:0:0:0:
256,192,112689,1,0,0:0:0:0:
36,192,112804,1,0,0:0:0:0:
329,192,112804,1,0,0:0:0:0:
109,192,113033,1,0,0:0:0:0:
402,192,113033,1,0,0:0:0:0:
256,192,113147,1,0,0:0:0:0:
475,192,113147,1,8,0:0:0:0:
329,192,113376,1,0,0:0:0:0:
182,192,113605,1,2,0:0:0:0:
109,192,113720,1,0,0:0:0:0:
256,192,113720,1,0,0:0:0:0:
36,192,113834,1,0,0:0:0:0:
329,192,113834,1,0,0:0:0:0:
402,192,113949,1,0,0:0:0:0:
182,192,113949,1,0,0:0:0:0:
475,192,114063,1,8,0:0:0:0:
109,192,114063,1,0,0:0:0:0:
329,192,114178,1,0,0:0:0:0:
36,192,114178,1,0,0:0:0:0:
402,192,114292,1,0,0:0:0:0:
182,192,114292,1,0,0:0:0:0:
475,192,114407,1,0,0:0:0:0:
109,192,114407,1,0,0:0:0:0:
36,192,114521,1,2,0:0:0:0:
329,192,114521,1,0,0:0:0:0:
109,192,114636,128,0,114979:0:0:0:0:
402,192,114636,128,0,114979:0:0:0:0:
182,192,114750,1,8,0:0:0:0:
329,192,114979,1,8,0:0:0:0:
256,192,115094,1,0,0:0:0:0:
475,192,115437,1,2,0:0:0:0:
109,192,115437,128,0,115895:0:0:0:0:
402,192,115666,1,0,0:0:0:0:
329,192,115895,1,0,0:0:0:0:
36,192,115895,1,8,0:0:0:0:
256,192,116124,1,0,0:0:0:0:
36,192,116124,1,0,0:0:0:0:
109,192,116239,1,0,0:0:0:0:
475,192,116239,1,0,0:0:0:0:
329,192,116353,1,2,0:0:0:0:
256,192,116468,1,0,0:0:0:0:
36,192,116468,1,0,0:0:0:0:
475,192,116697,1,0,0:0:0:0:
182,192,116697,1,0,0:0:0:0:
402,192,116811,128,8,117040:0:0:0:0:
475,192,117040,1,0,0:0:0:0:
36,192,117040,128,0,118185:0:0:0:0:
256,192,117269,1,2,0:0:0:0:
109,192,117269,1,0,0:0:0:0:
402,192,117384,1,0,0:0:0:0:
329,192,117498,1,0,0:0:0:0:
182,192,117613,1,0,0:0:0:0:
109,192,117727,1,0,0:0:0:0:
475,192,117727,1,8,0:0:0:0:
402,192,117842,1,0,0:0:0:0:
256,192,117956,1,0,0:0:0:0:
109,192,118071,1,0,0:0:0:0:
256,192,118185,1,0,0:0:0:0:
475,192,118185,128,2,118643:0:0:0:0:
329,192,118414,1,8,0:0:0:0:
182,192,118414,1,0,0:0:0:0:
109,192,118643,128,8,119101:0:0:0:0:
182,192,118643,1,0,0:0:0:0:
329,192,118643,1,0,0:0:0:0:
329,192,118872,1,0,0:0:0:0:
475,192,119101,1,2,0:0:0:0:
182,192,119101,1,4,0:0:0:0:
256,192,119330,1,0,0:0:0:0:
402,192,119330,1,0,0:0:0:0:
109,192,119559,1,8,0:0:0:0:
329,192,119559,1,0,0:0:0:0:
402,192,119788,1,0,0:0:0:0:
475,192,119903,1,0,0:0:0:0:
182,192,119903,1,0,0:0:0:0:
36,192,120018,1,0,0:0:0:0:
329,192,120018,1,2,0:0:0:0:
109,192,120132,1,0,0:0:0:0:
402,192,120132,1,0,0:0:0:0:
109,192,120361,1,0,0:0:0:0:
329,192,120361,1,0,0:0:0:0:
36,192,120476,1,8,0:0:0:0:
256,192,120476,1,0,0:0:0:0:
182,192,120705,1,0,0:0:0:0:
329,192,120934,1,2,0:0:0:0:
182,192,120934,1,0,0:0:0:0:
402,192,121048,1,0,0:0:0:0:
256,192,121048,1,0,0:0:0:0:
475,192,121163,1,0,0:0:0:0:
182,192,121163,1,0,0:0:0:0:
329,192,121277,1,0,0:0:0:0:
109,192,121277,1,0,0:0:0:0:
36,192,121392,1,8,0:0:0:0:
402,192,121392,1,0,0:0:0:0:
182,192,121506,1,0,0:0:0:0:
475,192,121506,1,0,0:0:0:0:
329,192,121621,1,0,0:0:0:0:
109,192,121621,1,0,0:0:0:0:
402,192,121735,1,0,0:0:0:0:
36,192,121735,1,0,0:0:0:0:
475,192,121850,1,2,0:0:0:0:
182,192,121850,1,0,0:0:0:0:
329,192,121964,1,0,0:0:0:0:
109,192,121964,1,0,0:0:0:0:
402,192,122079,128,8,122308:0:0:0:0:
36,192,122079,128,0,122308:0:0:0:0:
182,192,122308,1,8,0:0:0:0:
329,192,122422,1,0,0:0:0:0:
182,192,122537,1,8,0:0:0:0:
402,192,122766,128,2,123224:0:0:0:0:
109,192,122995,1,0,0:0:0:0:
329,192,123224,1,8,0:0:0:0:
475,192,123224,1,0,0:0:0:0:
402,192,123567,1,0,0:0:0:0:
109,192,123567,1,0,0:0:0:0:
256,192,123796,1,0,0:0:0:0:
182,192,123911,1,0,0:0:0:0:
329,192,124025,1,0,0:0:0:0:
402,192,124140,1,0,0:0:0:0:
182,192,124140,1,8,0:0:0:0:
36,192,124369,1,0,0:0:0:0:
402,192,124369,1,0,0:0:0:0:
109,192,124483,1,0,0:0:0:0:
329,192,124483,1,0,0:0:0:0:
256,192,124598,1,0,0:0:0:0:
182,192,124598,1,2,0:0:0:0:
329,192,124712,1,0,0:0:0:0:
109,192,124712,1,0,0:0:0:0:
36,192,124827,1,0,0:0:0:0:
402,192,124827,1,0,0:0:0:0:
475,192,124941,1,0,0:0:0:0:
182,192,124941,1,0,0:0:0:0:
109,192,125056,1,8,0:0:0:0:
36,192,125170,1,0,0:0:0:0:
475,192,125285,1,0,0:0:0:0:
109,192,125399,1,0,0:0:0:0:
329,192,125514,128,2,125972:0:0:0:0:
36,192,125743,1,8,0:0:0:0:
475,192,125972,1,0,0:0:0:0:
182,192,125972,1,8,0:0:0:0:
109,192,125972,128,0,126430:0:0:0:0:
329,192,126201,1,0,0:0:0:0:
182,192,126315,1,0,0:0:0:0:
36,192,126430,1,0,0:0:0:0:
256,192,126430,1,2,0:0:0:0:
475,192,126430,1,4,0:0:0:0:
182,192,126659,1,0,0:0:0:0:
402,192,126659,1,0,0:0:0:0:
36,192,126888,1,8,0:0:0:0:
475,192,126888,1,0,0:0:0:0:
256,192,127117,1,0,0:0:0:0:
402,192,127117,1,0,0:0:0:0:
109,192,127231,1,0,0:0:0:0:
475,192,127231,1,0,0:0:0:0:
36,192,127346,128,2,128262:0:0:0:0:
475,192,127460,1,0,0:0:0:0:
182,192,127460,1,0,0:0:0:0:
329,192,127689,1,0,0:0:0:0:
402,192,127804,1,8,0:0:0:0:
256,192,128033,1,0,0:0:0:0:
329,192,128033,1,0,0:0:0:0:
182,192,128262,1,0,0:0:0:0:
475,192,128262,1,2,0:0:0:0:
109,192,128376,1,0,0:0:0:0:
402,192,128376,1,0,0:0:0:0:
182,192,128491,1,0,0:0:0:0:
475,192,128491,1,0,0:0:0:0:
109,192,128605,1,0,0:0:0:0:
329,192,128605,1,0,0:0:0:0:
36,192,128720,1,8,0:0:0:0:
475,192,128720,1,0,0:0:0:0:
109,192,128834,1,0,0:0:0:0:
329,192,128834,1,0,0:0:0:0:
36,192,128949,1,0,0:0:0:0:
256,192,128949,1,0,0:0:0:0:
109,192,129063,1,0,0:0:0:0:
329,192,129063,1,0,0:0:0:0:
475,192,129178,1,2,0:0:0:0:
182,192,129178,1,0,0:0:0:0:
402,192,129292,1,0,0:0:0:0:
109,192,129292,1,0,0:0:0:0:
475,192,129407,1,0,0:0:0:0:
182,192,129407,1,8,0:0:0:0:
109,192,129636,1,8,0:0:0:0:
329,192,129636,1,0,0:0:0:0:
256,192,129750,1,0,0:0:0:0:
36,192,129750,1,0,0:0:0:0:
109,192,130094,1,0,0:0:0:0:
329,192,130094,1,0,0:0:0:0:
475,192,130094,1,2,0:0:0:0:
402,192,130323,1,0,0:0:0:0:
36,192,130552,1,8,0:0:0:0:
182,192,130552,1,0,0:0:0:0:
475,192,130552,1,0,0:0:0:0:
402,192,130781,1,0,0:0:0:0:
256,192,130781,1,0,0:0:0:0:
109,192,130781,1,0,0:0:0:0:
329,192,130895,1,0,0:0:0:0:
475,192,130895,1,0,0:0:0:0:
36,192,130895,1,0,0:0:0:0:
182,192,131010,1,2,0:0:0:0:
475,192,131124,1,0,0:0:0:0:
402,192,131239,1,0,0:0:0:0:
182,192,131239,1,0,0:0:0:0:
256,192,131353,1,0,0:0:0:0:
475,192,131353,1,0,0:0:0:0:
109,192,131468,1,8,0:0:0:0:
329,192,131468,1,0,0:0:0:0:
182,192,131582,1,0,0:0:0:0:
109,192,131697,1,0,0:0:0:0:
475,192,131697,1,0,0:0:0:0:
36,192,131811,1,0,0:0:0:0:
256,192,131811,1,0,0:0:0:0:
109,192,131926,1,0,0:0:0:0:
475,192,131926,1,2,0:0:0:0:
182,192,132040,1,0,0:0:0:0:
402,192,132155,1,0,0:0:0:0:
329,192,132269,1,0,0:0:0:0:
109,192,132384,1,8,0:0:0:0:
182,192,132498,1,0,0:0:0:0:
402,192,132613,128,0,132842:0:0:0:0:
256,192,132842,1,2,0:0:0:0:
36,192,132842,128,0,133300:0:0:0:0:
475,192,133071,1,8,0:0:0:0:
329,192,133071,1,0,0:0:0:0:
329,192,133300,1,8,0:0:0:0:
475,192,133300,128,0,133758:0:0:0:0:
109,192,133300,1,0,0:0:0:0:
182,192,133529,1,0,0:0:0:0:
109,192,133643,1,0,0:0:0:0:
182,192,133758,128,0,134216:0:0:0:0:
36,192,133758,1,2,0:0:0:0:
402,192,133758,1,4,0:0:0:0:
256,192,133987,1,0,0:0:0:0:
475,192,134216,128,0,134559:0:0:0:0:
36,192,134216,1,0,0:0:0:0:
329,192,134216,1,8,0:0:0:0:
402,192,134559,128,0,134788:0:0:0:0:
182,192,134559,1,0,0:0:0:0:
256,192,134674,1,0,0:0:0:0:
36,192,134674,1,2,0:0:0:0:
475,192,134788,128,0,135361:0:0:0:0:
329,192,134788,1,0,0:0:0:0:
182,192,135018,1,0,0:0:0:0:
109,192,135132,1,8,0:0:0:0:
329,192,135361,1,0,0:0:0:0:
36,192,135590,128,0,136048:0:0:0:0:
475,192,135590,1,2,0:0:0:0:
402,192,135705,1,0,0:0:0:0:
109,192,135819,1,0,0:0:0:0:
475,192,135934,1,0,0:0:0:0:
182,192,135934,1,0,0:0:0:0:
402,192,136048,1,8,0:0:0:0:
109,192,136048,128,0,136506:0:0:0:0:
329,192,136163,1,0,0:0:0:0:
402,192,136277,1,0,0:0:0:0:
329,192,136392,1,0,0:0:0:0:
256,192,136506,1,0,0:0:0:0:
475,192,136506,1,2,0:0:0:0:
182,192,136506,128,0,136964:0:0:0:0:
256,192,136735,1,0,0:0:0:0:
475,192,136735,1,8,0:0:0:0:
475,192,136964,1,2,0:0:0:0:
402,192,136964,1,8,0:0:0:0:
256,192,136964,128,0,137422:0:0:0:0:
36,192,137079,1,0,0:0:0:0:
109,192,137079,1,0,0:0:0:0:
182,192,137193,1,0,0:0:0:0:
475,192,137308,1,0,0:0:0:0:
109,192,137422,1,2,0:0:0:0:
36,192,137422,128,0,137880:0:0:0:0:
329,192,137422,1,0,0:0:0:0:
402,192,137422,1,0,0:0:0:0:
182,192,137651,1,0,0:0:0:0:
475,192,137880,128,0,138338:0:0:0:0:
402,192,137880,1,8,0:0:0:0:
182,192,137880,1,0,0:0:0:0:
256,192,137880,1,0,0:0:0:0:
109,192,137880,1,0,0:0:0:0:
329,192,138109,1,0,0:0:0:0:
109,192,138224,1,0,0:0:0:0:
36,192,138338,128,2,138796:0:0:0:0:
329,192,138453,128,0,138682:0:0:0:0:
182,192,138453,1,0,0:0:0:0:
402,192,138796,128,0,139025:0:0:0:0:
475,192,138796,1,8,0:0:0:0:
256,192,138796,1,0,0:0:0:0:
109,192,139025,1,0,0:0:0:0:
329,192,139140,1,0,0:0:0:0:
182,192,139254,1,2,0:0:0:0:
36,192,139254,1,0,0:0:0:0:
109,192,139369,1,0,0:0:0:0:
256,192,139369,1,0,0:0:0:0:
182,192,139483,1,0,0:0:0:0:
329,192,139483,1,0,0:0:0:0:
256,192,139598,1,0,0:0:0:0:
402,192,139598,1,0,0:0:0:0:
182,192,139712,1,2,0:0:0:0:
329,192,139712,1,0,0:0:0:0:
256,192,139827,1,0,0:0:0:0:
402,192,139827,1,0,0:0:0:0:
329,192,139941,1,0,0:0:0:0:
475,192,139941,1,0,0:0:0:0:
36,192,140056,1,0,0:0:0:0:
182,192,140056,1,0,0:0:0:0:
475,192,140170,128,2,140628:0:0:0:0:
36,192,140399,1,0,0:0:0:0:
109,192,140399,1,0,0:0:0:0:
182,192,140628,1,8,0:0:0:0:
256,192,140628,128,4,141086:0:0:0:0:
109,192,140628,1,0,0:0:0:0:
329,192,140628,1,0,0:0:0:0:
402,192,140628,1,0,0:0:0:0:
36,192,140857,1,0,0:0:0:0:
475,192,140857,1,0,0:0:0:0:
402,192,140972,1,0,0:0:0:0:
109,192,140972,1,0,0:0:0:0:
182,192,141086,1,2,0:0:0:0:
329,192,141086,1,4,0:0:0:0:
36,192,141315,1,0,0:0:0:0:
402,192,141315,1,0,0:0:0:0:
256,192,141430,1,0,0:0:0:0:
109,192,141544,1,0,0:0:0:0:
329,192,141544,1,8,0:0:0:0:
182,192,141773,1,0,0:0:0:0:
402,192,141773,1,0,0:0:0:0:
256,192,141888,1,0,0:0:0:0:
109,192,142002,1,2,0:0:0:0:
475,192,142002,1,0,0:0:0:0:
36,192,142231,1,0,0:0:0:0:
329,192,142460,1,8,0:0:0:0:
475,192,142460,128,0,142918:0:0:0:0:
36,192,142689,1,0,0:0:0:0:
256,192,142689,1,0,0:0:0:0:
109,192,142918,1,2,0:0:0:0:
182,192,143033,1,0,0:0:0:0:
402,192,143147,1,0,0:0:0:0:
329,192,143262,1,0,0:0:0:0:
256,192,143376,128,0,143834:0:0:0:0:
109,192,143376,1,8,0:0:0:0:
36,192,143376,1,0,0:0:0:0:
402,192,143605,1,0,0:0:0:0:
475,192,143605,1,0,0:0:0:0:
109,192,143834,128,2,144521:0:0:0:0:
329,192,144063,128,8,144521:0:0:0:0:
475,192,144292,128,8,144521:0:0:0:0:
256,192,144521,1,0,0:0:0:0:
36,192,144521,128,0,145666:0:0:0:0:
182,192,144636,1,0,0:0:0:0:
256,192,144750,1,2,0:0:0:0:
256,192,144979,1,0,0:0:0:0:
329,192,145094,1,0,0:0:0:0:
256,192,145208,1,8,0:0:0:0:
256,192,145437,1,0,0:0:0:0:
182,192,145552,1,0,0:0:0:0:
256,192,145666,1,0,0:0:0:0:
475,192,145666,128,2,146582:0:0:0:0:
402,192,145895,1,0,0:0:0:0:
182,192,145895,1,0,0:0:0:0:
329,192,146124,1,0,0:0:0:0:
36,192,146124,1,8,0:0:0:0:
256,192,146353,1,0,0:0:0:0:
109,192,146353,1,0,0:0:0:0:
36,192,146582,1,2,0:0:0:0:
109,192,146697,1,0,0:0:0:0:
402,192,146811,1,0,0:0:0:0:
329,192,146926,1,0,0:0:0:0:
182,192,147040,1,0,0:0:0:0:
36,192,147040,1,8,0:0:0:0:
475,192,147269,1,0,0:0:0:0:
329,192,147269,1,0,0:0:0:0:
256,192,147498,1,0,0:0:0:0:
36,192,147498,128,2,147956:0:0:0:0:
329,192,147727,1,0,0:0:0:0:
475,192,147727,1,8,0:0:0:0:
329,192,147956,1,8,0:0:0:0:
475,192,147956,1,0,0:0:0:0:
109,192,148185,1,0,0:0:0:0:
402,192,148185,1,0,0:0:0:0:
475,192,148300,1,0,0:0:0:0:
36,192,148300,1,0,0:0:0:0:
182,192,148414,1,2,0:0:0:0:
329,192,148414,1,0,0:0:0:0:
109,192,148643,1,0,0:0:0:0:
329,192,148643,1,0,0:0:0:0:
256,192,148758,1,0,0:0:0:0:
475,192,148872,1,8,0:0:0:0:
36,192,148872,1,0,0:0:0:0:
182,192,148872,1,0,0:0:0:0:
182,192,149101,1,0,0:0:0:0:
402,192,149101,1,0,0:0:0:0:
256,192,149216,1,0,0:0:0:0:
475,192,149330,1,0,0:0:0:0:
329,192,149330,1,0,0:0:0:0:
109,192,149330,1,2,0:0:0:0:
182,192,149559,1,0,0:0:0:0:
36,192,149559,1,0,0:0:0:0:
109,192,149788,1,8,0:0:0:0:
475,192,149788,128,0,150247:0:0:0:0:
36,192,150018,1,0,0:0:0:0:
329,192,150018,1,0,0:0:0:0:
109,192,150247,1,2,0:0:0:0:
256,192,150247,1,0,0:0:0:0:
329,192,150361,1,0,0:0:0:0:
402,192,150476,1,0,0:0:0:0:
256,192,150476,1,0,0:0:0:0:
182,192,150590,1,0,0:0:0:0:
109,192,150705,1,8,0:0:0:0:
256,192,150705,1,0,0:0:0:0:
475,192,150934,1,0,0:0:0:0:
402,192,150934,1,0,0:0:0:0:
36,192,151163,1,0,0:0:0:0:
109,192,151163,128,0,152079:0:0:0:0:
329,192,151163,1,2,0:0:0:0:
402,192,151392,1,8,0:0:0:0:
182,192,151621,128,0,152079:0:0:0:0:
475,192,151621,1,8,0:0:0:0:
256,192,151621,1,0,0:0:0:0:
402,192,151850,1,0,0:0:0:0:
329,192,151964,1,0,0:0:0:0:
36,192,152079,1,0,0:0:0:0:
402,192,152079,1,2,0:0:0:0:
475,192,152079,128,0,153911:0:0:0:0:
256,192,152308,1,0,0:0:0:0:
109,192,152422,1,0,0:0:0:0:
402,192,152537,128,0,153911:0:0:0:0:
182,192,152537,1,10,0:0:0:0:
36,192,152766,1,0,0:0:0:0:
109,192,152880,1,0,0:0:0:0:
329,192,152995,128,8,153911:0:0:0:0:
182,192,152995,1,2,0:0:0:0:
36,192,153224,1,0,0:0:0:0:
182,192,153224,1,8,0:0:0:0:
256,192,153224,1,0,0:0:0:0:
109,192,153453,1,8,0:0:0:0:
256,192,153453,128,0,153911:0:0:0:0:
36,192,153682,1,8,0:0:0:0:
36,192,153911,1,2,0:0:0:0:
109,192,154025,1,0,0:0:0:0:
475,192,154140,1,0,0:0:0:0:
402,192,154254,1,0,0:0:0:0:
36,192,154369,1,0,0:0:0:0:
182,192,154369,1,8,0:0:0:0:
329,192,154369,1,0,0:0:0:0:
475,192,154369,1,0,0:0:0:0:
109,192,154598,1,8,0:0:0:0:
402,192,154598,1,0,0:0:0:0:
256,192,154827,1,8,0:0:0:0:
182,192,155056,1,0,0:0:0:0:
329,192,155056,1,0,0:0:0:0:
256,192,155285,128,4,156659:0:0:0:0:
109,192,155285,128,2,155743:0:0:0:0:
402,192,155285,128,8,155743:0:0:0:0:
