osu file format v9

[General]
AudioFilename: []quaverby.mp3
AudioLeadIn: 0
PreviewTime: 54836
Countdown: 0
SampleSet: Normal
StackLeniency: 0.7
Mode: 0
LetterboxInBreaks: 1

[Editor]
DistanceSpacing: 1
BeatDivisor: 2
GridSize: 4

[Metadata]
Title:quaver
Artist:Risk Junk
Creator:Reat
Version:Normal
Source:Reflec Beat
Tags:bemani beatmania

[Difficulty]
HPDrainRate:2
CircleSize:3
OverallDifficulty:4
ApproachRate:5
SliderMultiplier:1
SliderTickRate:2

[Events]
//Background and Video events
0,0,"quaver.jpg"
//Break Periods
//Storyboard Layer 0 (Background)
//Storyboard Layer 1 (Fail)
//Storyboard Layer 2 (Pass)
//Storyboard Layer 3 (Foreground)
//Storyboard Sound Samples
//Background Colour Transformations
3,100,163,162,255

[TimingPoints]
5880,329.67032967033,4,1,1,80,1,0
10165,-100,4,1,1,85,0,0
10412,-100,4,1,1,90,0,0
10742,-100,4,1,1,95,0,0
11154,-100,4,1,1,40,0,0
12473,-100,4,1,1,80,0,0
34890,-100,4,1,1,80,0,0
57061,-100,4,1,1,20,0,0
57308,326.086956521739,4,1,1,80,1,1
61221,-100,4,1,1,85,0,1
62525,-100,4,1,1,80,0,1
67579,-100,4,1,1,80,0,0
67742,-100,4,1,1,80,0,1
82090,322.58064516129,4,1,1,80,1,1
102412,-100,4,1,1,80,0,1
104993,-100,4,1,1,20,0,0

[Colours]
Combo1 : 255,128,64
Combo2 : 140,210,255
Combo3 : 109,89,221
Combo4 : 0,255,128

[HitObjects]
76,232,5880,2,2,B|28:200|28:156|28:112,1,100,2|2
128,152,6539,1,8
176,240,6869,1,8
216,332,7198,2,2,B|276:300|272:224,1,100
296,156,7858,1,8
368,224,8187,1,8
396,128,8517,6,0,B|372:72|304:52,3,100,2|0|2|0
226,59,9836,2,0,B|180:71|156:127,3,100,12|4|12|4
256,192,11154,12,12,12473
256,192,12803,5,8
184,260,13132,2,2,B|144:304|68:320,2,100,2|2|6
280,280,14121,5,8
352,208,14451,2,2,B|392:252|468:268,2,100,2|2|6
264,156,15440,5,8
168,188,15770,1,2
72,160,16099,1,2
52,60,16429,6,2,B|88:104|184:96,2,100,6|2|2
144,16,17418,1,8
192,104,17748,2,2,B|264:104|200:40|320:40,1,100,6|2
312,136,18407,2,8,B|292:172|276:192|208:196,1,100,12|8
136,184,19066,5,6
176,276,19396,1,0
272,304,19726,1,6
368,280,20055,1,0
416,192,20385,5,6
388,96,20715,2,2,B|364:40|312:24,2,100
288,116,21704,5,12
232,196,22033,1,8
320,244,22363,1,12
380,164,22693,1,8
412,260,23022,6,0,B|380:324|308:340,1,100,2|2
248,356,23682,2,2,B|176:272,1,100
84,276,24341,5,6
108,180,24671,1,2
204,204,25000,1,12
256,120,25330,1,8
348,76,25660,6,0,B|468:64,1,100,2|2
408,160,26319,2,2,B|500:204,1,100
420,264,26978,5,6
352,340,27308,1,2
268,288,27638,2,8,B|176:228,1,100,12|8
88,256,28297,6,0,B|56:208|88:160,1,100,2|2
176,208,28956,2,2,B|224:188|240:124,1,100
136,132,29616,2,2,B|148:64|200:16|284:20|320:88|320:88|392:100,1,300,2|6
460,144,30934,6,0,B|460:216|384:216,1,100,2|2
303,214,31594,2,2,B|244:212|240:148,1,100,6|2
340,144,32253,1,8
288,60,32583,1,8
188,56,32912,1,4
136,140,33242,1,4
256,192,33572,12,4,34890
200,192,35220,5,12
300,192,35550,1,8
400,192,35880,2,2,B|476:192,1,50
392,112,36374,6,2,B|292:116|252:52|252:52|160:52|160:128|160:128,1,300,2|6
159,235,37693,2,2,B|159:242|159:318|251:318|251:318|291:254|391:258,1,300,2|6
436,240,38847,5,8
348,192,39176,1,8
276,264,39506,1,8
184,224,39836,1,8
96,180,40165,1,4
20,116,40495,6,2,B|80:68|144:68|220:112,1,200,2|6
284,44,41484,2,2,B|316:104|316:176|264:232|264:232|128:236,1,300,2|6
76,192,42803,2,2,B|48:304|164:320|208:320|208:320|304:320,1,300,2|6
376,352,44121,5,8
428,268,44451,1,8
380,180,44781,1,8
280,180,45110,2,0,B|224:120,2,50,8|0|8
196,236,45770,5,6
96,216,46099,1,0
104,116,46429,1,6
104,116,46759,2,2,B|176:16|216:68|272:44,2,150
284,148,48407,5,6
384,168,48736,1,0
428,256,49066,1,6
368,336,49396,2,2,B|304:368|264:316|208:340,2,150
196,236,51044,5,6
196,136,51374,1,2
284,188,51704,1,12
344,108,52033,2,2,B|388:156|384:212|344:260,2,150,2|10|10
284,188,53352,5,6
192,232,53682,1,2
196,132,54011,1,14
288,92,54341,1,10
376,140,54671,5,4
376,140,54836,1,8
372,240,55165,1,4
372,240,55330,1,2
284,292,55660,1,4
284,292,55825,1,8
284,192,56154,1,4
284,192,56319,1,2
220,116,56649,2,14,B|184:76,2,50
152,192,57308,5,12
200,280,57634,1,8
248,192,57960,2,2,B|304:192|344:228,1,100
400,304,58612,1,12
448,216,58938,1,8
396,132,59264,2,2,B|360:96|308:80,1,100
216,48,59916,5,12
128,92,60242,1,8
220,128,60568,1,6
128,172,60894,1,2
220,208,61221,2,8,B|128:260,1,100,12|8
228,288,61873,2,2,B|136:340,1,100,6|2
44,364,62525,5,12
72,268,62851,1,8
128,352,63177,1,2
152,256,63503,1,2
208,340,63829,5,12
232,244,64155,1,8
288,328,64481,1,2
308,232,64808,1,2
316,132,65134,5,12
288,36,65460,1,8
232,120,65786,1,2
208,24,66112,1,2
152,108,66438,5,12
128,204,66764,1,12
72,120,67090,1,6
52,216,67417,1,6
104,300,67742,6,8,B|156:336|208:300,1,100,12|8
156,216,68394,1,2
256,220,68721,1,2
292,128,69047,2,8,B|352:148|352:212,3,100,12|8|8|8
356,300,70351,5,12
436,244,70677,1,8
436,144,71003,1,2
364,72,71329,1,2
264,68,71655,2,8,B|212:60|156:84,1,100,12|8
88,144,72308,2,2,B|64:184|80:256,1,100
152,304,72960,5,12
248,328,73286,1,8
348,324,73612,2,2,B|400:320|448:280,1,100
360,228,74264,5,12
288,156,74590,1,8
204,100,74916,2,2,B|168:76|100:68,1,100
124,168,75568,5,12
92,264,75894,1,8
192,244,76221,2,2,B|192:308|256:336,1,100
292,240,76873,5,12
372,300,77199,1,8
380,200,77525,2,2,B|424:176|404:112,1,100
308,136,78177,5,12
216,96,78503,1,8
124,56,78829,2,2,B|72:32|12:56,1,100,6|2
68,140,79481,5,12
80,240,79808,1,8
152,308,80134,1,6
248,340,80460,1,2
340,300,80786,6,8,B|440:264,1,100,12|8
356,204,81438,2,8,B|436:180|472:164|472:164|492:120|456:72,1,200,12|12
368,100,82412,5,8
276,136,82735,1,2
188,184,83057,1,2
108,244,83380,2,8,B|64:288|120:344,1,100,12|8
208,344,84025,5,2
304,312,84348,1,2
396,276,84670,2,8,B|448:252|452:180,1,100,12|8
352,200,85315,6,2,B|360:128|424:116,1,100
312,84,85960,2,2,B|248:72|184:96,1,100
156,172,86606,2,2,B|220:184|284:160,1,100
352,188,87251,6,0,B|412:248,2,50,4|0|8
251,188,87896,2,0,B|208:228,2,50,0|0|8
176,124,88541,1,0
248,52,88864,1,0
348,52,89186,1,0
420,120,89509,1,0
452,216,89831,6,0,B|468:268|440:332,1,100,4|8
348,340,90477,2,0,B|324:272|352:232,1,100,0|8
252,204,91122,2,0,B|280:252|248:308,1,100,4|8
172,356,91767,2,0,B|144:296|176:248,1,100,0|8
80,216,92412,5,4
164,164,92735,1,0
248,108,93057,2,0,B|300:136,4,50,2|0|2|0|2
156,68,94025,5,8
60,36,94348,2,0,B|4:20,4,50,2|0|2|0|2
52,136,95315,5,8
64,236,95638,1,0
148,180,95960,1,8
156,280,96283,5,2
236,224,96606,1,2
240,324,96928,1,2
324,272,97251,1,2
392,344,97573,6,2,B|440:300|424:244,1,100,4|0
488,176,98219,2,2,B|488:120|436:76,1,100,4|0
360,140,98864,2,2,B|324:92|256:72,1,100,4|0
220,160,99509,2,2,B|180:120|96:136,1,100,4|0
128,232,100154,6,2,B|72:248|20:296,3,100,6|6|6|6
132,320,101444,2,6,B|188:312|224:264,3,100,2|6|2|6
160,192,102735,5,12
208,192,102896,1,2
256,192,103057,1,12
308,192,103219,1,2
356,192,103380,1,12
256,192,103864,12,0,104993
