osu file format v9

[General]
AudioFilename: []quaverby.mp3
AudioLeadIn: 0
PreviewTime: 54836
Countdown: 0
SampleSet: Normal
StackLeniency: 0.7
Mode: 0
LetterboxInBreaks: 1

[Editor]
DistanceSpacing: 1
BeatDivisor: 2
GridSize: 4

[Metadata]
Title:quaver
Artist:Risk Junk
Creator:Reat
Version:Hard
Source:Reflec Beat
Tags:bemani beatmania

[Difficulty]
HPDrainRate:5
CircleSize:4
OverallDifficulty:6
ApproachRate:7
SliderMultiplier:1.4
SliderTickRate:2

[Events]
//Background and Video events
0,0,"quaver.jpg"
//Break Periods
//Storyboard Layer 0 (Background)
//Storyboard Layer 1 (Fail)
//Storyboard Layer 2 (Pass)
//Storyboard Layer 3 (Foreground)
//Storyboard Sound Samples
//Background Colour Transformations
3,100,163,162,255

[TimingPoints]
5880,329.67032967033,4,1,1,80,1,0
10165,-100,4,1,1,85,0,0
10412,-100,4,1,1,90,0,0
10742,-100,4,1,1,95,0,0
11154,-100,4,1,1,40,0,0
12473,-100,4,1,1,80,0,0
30934,-100,4,1,1,80,0,0
33572,-100,4,1,1,40,0,0
33613,-100,4,1,1,20,0,0
33901,-100,4,1,1,50,0,0
33943,-100,4,1,1,20,0,0
34231,-100,4,1,1,60,0,0
34272,-100,4,1,1,20,0,0
34561,-100,4,1,1,70,0,0
34602,-100,4,1,1,20,0,0
34890,-100,4,1,1,80,0,0
57061,-100,4,1,1,20,0,0
57308,326.086956521739,4,1,1,80,1,1
61221,-100,4,1,1,85,0,1
62525,-100,4,1,1,80,0,1
67579,-100,4,1,1,80,0,0
67742,-100,4,1,1,80,0,1
82090,322.58064516129,4,1,1,80,1,1
102412,-100,4,1,1,80,0,1
104993,-100,4,1,1,20,0,0

[Colours]
Combo1 : 255,128,64
Combo2 : 140,210,255
Combo3 : 109,89,221
Combo4 : 0,255,128

[HitObjects]
136,156,5880,2,0,B|68:156|68:60|148:60,1,140,0|8
260,104,6539,1,0
400,104,6869,1,8
400,243,7198,2,0,B|468:243|468:339|388:339,1,140,0|8
276,295,7857,1,0
136,295,8187,1,8
92,160,8517,6,0,B|60:112|100:48|172:64,1,140,0|8
246,160,9176,2,0,B|278:112|238:48|166:64,1,140,0|8
168,200,9836,1,2
248,316,10165,1,2
388,316,10495,1,2
468,200,10825,1,2
256,192,11154,12,8,12143
216,192,12473,5,0
216,192,12638,1,0
244,256,12803,2,0,B|292:240|288:192,1,70,8|0
292,136,13132,2,2,B|344:144|360:196,3,70
372,240,13792,5,8
436,268,13956,1,0
428,200,14121,1,8
492,228,14286,1,0
496,296,14451,2,2,B|496:336|444:336,1,70
380,328,14781,2,2,B|352:304|292:296,1,70
248,292,15110,5,8
176,288,15275,1,0
124,240,15440,1,8
108,172,15605,1,0
124,104,15770,2,0,B|156:108|184:160,3,70,8|0|8|0
208,212,16429,2,2,B|264:188|264:136|232:88,1,140
108,40,17088,2,2,B|84:140|184:148,1,140
216,96,17583,1,2
260,40,17748,5,8
324,72,17912,1,0
368,128,18077,1,8
376,196,18242,1,0
364,264,18407,2,0,B|320:256|304:220,3,70,2|0|2|0
272,168,19066,2,0,B|220:104,3,70,2|0|2|0
196,184,19726,2,8,B|140:116,3,70
108,188,20385,6,2,B|52:132|92:72|128:68,1,140
256,64,21044,2,2,B|232:156|144:128,1,140
32,72,21704,2,2,B|96:124|60:216,1,140
112,332,22363,2,2,B|192:308|192:216,1,140
300,140,23022,5,8
312,208,23187,1,0
376,236,23352,1,8
436,200,23517,1,0
376,168,23682,2,2,B|392:116|496:116|496:184,1,140
496,228,24176,1,2
440,272,24341,5,8
380,308,24506,1,0
308,308,24671,1,8
244,280,24836,1,0
184,244,25000,2,2,B|212:200|272:200|304:244,1,140
344,300,25495,1,2
400,340,25660,5,8
468,324,25825,1,0
484,256,25989,1,8
456,192,26154,1,0
400,148,26319,1,8
332,160,26484,1,0
272,196,26649,1,8
204,220,26814,1,0
136,232,26978,6,2,B|128:196|164:156,1,70
220,144,27308,2,8,B|256:120|288:128,1,70
348,96,27638,2,2,B|376:80|408:72|428:84,3,70
404,148,28297,6,2,B|440:208|408:292,1,140
340,288,28792,1,8
340,220,28956,2,2,B|296:216|268:252|264:288|280:336,1,140
204,324,29451,1,8
136,344,29616,2,2,B|64:304,2,70
136,344,30110,1,8
156,276,30275,2,2,B|244:244,1,70
236,320,30605,2,0,B|308:312,1,70,2|8
372,340,30934,2,2,B|392:272|344:240|300:244,3,140
236,232,32088,1,8
168,212,32253,6,2,B|104:184|120:132,1,70
136,96,32583,2,8,B|204:88,1,70
224,156,32912,2,2,B|260:148|276:104,1,70
300,44,33242,2,8,B|336:60|344:100,1,70
324,164,33572,6,0,B|332:184,24,17.5
360,28,34890,5,0
420,64,35055,2,6,B|464:96|448:140,2,70
360,100,35550,2,8,B|280:164,3,70
92,304,36374,2,2,B|44:316|12:292,2,70
132,364,36869,2,8,B|240:332,3,70
188,196,37693,5,8
122,241,37858,1,8
122,310,38022,1,8
184,340,38187,1,2
248,312,38352,1,2
248,241,38517,1,2
188,196,38682,1,2
128,172,38847,2,8,B|136:136|188:132,2,70
60,164,39341,2,2,B|72:112|100:84|168:64,1,140
124,276,40165,5,4
168,332,40330,1,8
236,320,40495,1,0
192,268,40660,1,8
260,252,40825,2,2,B|308:216,2,35
124,280,41319,1,8
172,76,41649,5,8
240,88,41814,1,0
196,140,41979,1,8
264,156,42144,2,2,B|312:192,2,35
128,128,42638,1,8
88,260,42967,5,8
144,304,43132,1,0
212,312,43297,1,8
280,292,43462,2,2,B|324:284,2,35
152,236,43956,1,8
100,192,44121,5,8
164,164,44286,1,8
220,208,44451,1,8
212,276,44616,1,8
232,136,44945,2,2,B|272:144|284:176,2,70
284,88,45440,1,4
404,260,45770,6,2,B|440:232|444:156|392:136,2,140
280,196,46759,2,2,B|496:196,2,210
108,260,48407,6,2,B|72:232|68:156|120:136,2,140
232,196,49396,2,8,B|16:196,2,210
304,236,51044,5,2
164,216,51374,1,2
208,348,51704,1,2
252,192,52033,5,12
317,168,52198,1,8
371,213,52363,1,8
359,281,52528,1,6
294,306,52693,1,2
239,261,52858,1,2
252,192,53022,2,2,B|212:168|200:132|208:96|260:76,1,140,2|6
292,136,53517,5,8
324,196,53682,1,8
360,136,53847,1,8
392,200,54011,1,8
460,204,54176,2,2,B|452:248|416:264,1,70
352,260,54506,1,2
280,260,54671,5,4
280,260,54836,1,8
176,168,55165,1,4
176,168,55330,1,8
280,72,55660,1,4
280,72,55825,1,8
388,164,56154,1,4
388,164,56319,1,8
244,140,56649,5,2
316,140,56814,1,0
280,200,56978,1,2
284,84,57308,6,2,B|332:28,1,70,6|0
379,80,57634,2,0,B|427:24,1,70,2|0
468,80,57960,1,8
468,149,58123,1,8
468,218,58286,1,8
468,287,58449,1,8
464,356,58612,6,0,B|368:356,1,70,6|0
396,288,58938,2,0,B|308:288,1,70,2|0
326,357,59264,1,8
256,357,59427,1,8
256,287,59590,1,8
186,287,59753,1,8
136,336,59916,6,2,B|84:284,1,70,6|2
135,237,60242,2,2,B|187:185,1,70
135,138,60568,2,0,B|83:86,1,70,2|0
44,144,60894,1,2
72,208,61058,1,2
140,192,61221,6,2,B|232:192,1,70,6|2
260,244,61547,2,2,B|352:244,1,70
332,312,61873,1,8
392,276,62036,1,8
392,208,62199,1,8
328,176,62362,1,8
260,176,62525,5,6
288,112,62688,1,0
356,108,62851,2,0,B|432:132,1,70,2|0
460,188,63177,2,8,B|468:272,1,70
436,320,63503,2,8,B|352:352,1,70,8|8
304,320,63829,6,2,B|240:260,3,70
184,296,64481,1,8
188,228,64644,1,8
244,188,64808,1,8
272,124,64971,1,8
204,112,65134,6,2,B|216:64|256:56,1,70
316,60,65460,1,8
384,60,65623,1,8
452,60,65786,2,2,B|500:60|504:112,1,70
504,168,66112,1,8
500,236,66275,1,8
444,276,66438,6,0,B|368:336,3,70,6|2|2|8
332,232,67090,2,0,B|252:196,3,70,6|2|2|8
196,276,67742,6,0,B|180:176,1,70,4|0
160,140,68068,1,8
228,152,68231,1,8
296,172,68394,2,2,B|380:200,1,70
404,252,68721,1,8
428,188,68884,1,8
480,140,69047,6,2,B|452:104|404:128,1,70,6|2
348,124,69373,2,2,B|313:105|285:141,1,70
264,208,69699,1,8
220,260,69862,1,8
176,312,70025,1,8
112,336,70188,1,8
44,320,70351,5,4
20,252,70514,2,2,B|56:236|104:264,2,70
28,184,71003,1,8
96,184,71166,2,2,B|132:168|180:196,2,70
128,248,71655,6,2,B|164:264|212:236,3,70,6|2|2|2
264,232,72308,2,2,B|252:196|220:180,3,70
152,164,72960,5,12
132,96,73123,1,0
200,116,73286,2,0,B|212:84|264:100,1,70,8|0
328,120,73612,1,2
364,180,73775,1,2
296,184,73938,2,2,B|304:228|260:240,1,70
204,204,74264,5,4
204,204,74427,1,8
148,164,74590,1,4
148,164,74753,1,8
200,120,74916,1,4
200,120,75079,1,8
256,164,75242,1,4
256,164,75405,1,8
284,228,75568,6,2,B|328:204|328:168,1,70,6|2
327,176,75894,1,8
327,176,76058,1,8
344,108,76221,2,2,B|392:112|400:164,1,70
396,147,76547,1,8
396,147,76710,1,8
428,212,76873,6,4,B|392:296,1,70
360,332,77199,2,4,B|324:256,1,70
288,212,77525,2,8,B|252:296,1,70
220,332,77851,2,8,B|184:256,1,70
190,198,78177,6,4,B|226:114,1,70
258,78,78503,2,4,B|294:154,1,70
330,198,78829,2,8,B|366:114,1,70
398,78,79155,2,8,B|434:154,1,70
427,211,79481,5,4
399,275,79644,1,4
359,331,79808,1,8
329,267,79971,1,8
288,212,80134,1,4
259,275,80297,1,4
219,331,80460,1,8
189,267,80623,1,8
120,252,80786,6,2,B|132:200|180:200,1,70
224,172,81112,2,2,B|248:136|296:140,1,70
352,148,81438,2,2,B|408:208,3,70
368,264,82090,6,0,B|280:308,3,70,6|0|2|0
236,284,82735,1,8
176,244,82896,1,8
236,204,83057,1,8
176,168,83219,1,8
116,132,83380,6,2,B|152:64,1,70,6|0
212,100,83702,2,2,B|300:72,1,70,2|0
328,28,84025,1,8
360,92,84186,1,0
312,144,84348,1,8
344,208,84509,1,0
392,260,84670,6,2,B|379:287|415:291|399:327,3,70
464,276,85315,2,2,B|448:240|484:236|464:176,3,70
472,136,85960,1,8
444,72,86122,1,8
384,36,86283,1,8
316,24,86444,1,8
248,32,86606,1,8
188,68,86767,1,8
160,132,86929,1,8
164,200,87090,1,8
208,256,87251,6,2,B|268:316,1,70,6|2
300,248,87573,1,8
344,304,87735,1,8
384,248,87896,2,2,B|464:188,1,70
392,156,88219,1,8
452,116,88380,1,8
388,88,88541,6,2,B|288:48,1,70,6|2
296,128,88864,2,2,B|208:128,1,70
224,196,89186,2,8,B|132:232,1,70
196,280,89509,2,8,B|132:340,1,70
80,304,89831,5,6
28,256,89993,1,2
96,236,90154,1,2
44,188,90315,1,2
112,168,90477,2,8,B|196:156,3,70
252,156,91122,5,6
316,184,91283,1,2
256,220,91444,1,2
320,252,91606,1,2
260,292,91767,2,8,B|332:336,1,70
388,336,92089,2,8,B|456:304,1,70
496,252,92412,5,6
460,192,92573,1,2
488,128,92735,1,2
464,64,92896,1,2
412,108,93057,2,8,B|304:120,1,70
284,156,93380,2,8,B|184:120,1,70
160,96,93702,6,2,B|88:160,3,70,6|2|2|2
56,192,94348,2,8,B|96:268,1,70
160,252,94670,2,8,B|124:344,2,70,8|8|12
188,188,95154,1,8
236,136,95315,1,0
304,116,95477,1,8
372,116,95638,1,0
440,132,95799,1,8
488,180,95960,1,0
504,248,96122,1,8
488,316,96283,6,2,B|400:272,1,70,6|2
392,348,96606,2,2,B|352:276,1,70
308,336,96928,2,2,B|308:236,1,70
240,284,97251,2,2,B|268:208,1,70
232,156,97573,6,8,B|304:136,3,70,12|8|8|8
268,72,98219,2,0,B|384:88,3,70,6|2|2|2
328,12,98864,2,8,B|408:64,3,70,12|8|8|8
436,100,99509,1,6
460,164,99670,1,2
460,232,99831,2,2,B|424:312,1,70
380,348,100154,5,6
332,296,100315,1,2
284,348,100477,2,8,B|234:279,1,70
200,352,100799,1,6
152,300,100960,1,2
112,356,101122,1,8
64,304,101283,1,8
36,240,101444,2,6,B|56:172,1,70,6|2
84,116,101767,1,2
136,72,101928,1,2
200,44,102089,2,0,B|288:36,1,70,12|8
340,44,102412,1,8
404,68,102573,1,8
440,128,102735,5,4
420,232,102896,1,12
332,176,103057,1,12
300,276,103219,1,12
224,204,103380,1,6
164,288,103541,2,4,B|104:208,2,70,6|4|4
256,192,104025,12,0,104993
